#TITLE:少年勇者団;
#SUBTITLE:;
#ARTIST:LADYBABY;
#TITLETRANSLIT:Shàonián yǒngzhě tuán;
#SUBTITLETRANSLIT:;
#ARTISTTRANSLIT:;
#GENRE:;
#CREDIT:mf32892;
#BANNER:;
#BACKGROUND:[Round 3] - Shaonian yongzhe tuan-bg.png;
#LYRICSPATH:;
#CDTITLE:;
#MUSIC:[Round 3] - Shaonian yongzhe tuan.ogg;
#OFFSET:1.192277;
#SAMPLESTART:71.330078;
#SAMPLELENGTH:12.220589;
#LASTBEATHINT:0.458974;
#SELECTABLE:YES;
#BPMS:0.000000=170.000000
;
#STOPS:
;
#BGCHANGES:2.750=[Round 3] - Shaonian yongzhe tuan.avi=1.000=0=0=0=StretchNoLoop====,
99999=-nosongbg-=1.000=0=0=0 // don't automatically add -songbackground-
;
#KEYSOUNDS:;
#ATTACKS:;

//---------------dance-single - ----------------
#NOTES:
     dance-single:
     :
     Hard:
     8:
     0.482026,0.590765,0.126985,0.299322,0.009070,372.000000,358.000000,14.000000,33.000000,0.000000,0.000000,0.482026,0.590765,0.126985,0.299322,0.009070,372.000000,358.000000,14.000000,33.000000,0.000000,0.000000:
// measure 0
0000
0000
0000
0000
,  // measure 1
0000
0000
0000
0000
,  // measure 2
0000
0000
0000
0000
,  // measure 3
0000
0000
0000
0000
,  // measure 4
0000
0000
0000
0000
,  // measure 5
0000
0000
0000
0000
,  // measure 6
0000
0000
0000
0000
,  // measure 7
0000
0000
0000
0000
,  // measure 8
0000
0000
0000
0001
,  // measure 9
1000
0001
0000
0000
0000
0000
0000
0000
,  // measure 10
1000
1000
0010
0010
,  // measure 11
0100
0100
0001
0001
,  // measure 12
0010
0100
1000
0010
,  // measure 13
0200
0000
0301
1000
0001
0000
0001
0000
,  // measure 14
0010
0100
1000
0001
,  // measure 15
1000
0010
0100
0001
0010
0100
1000
0001
,  // measure 16
1000
0000
1001
0000
0001
0010
0100
0000
,  // measure 17
1000
0010
0100
0001
1000
0000
1001
0000
,  // measure 18
1000
0000
0100
0000
0010
0001
1000
0000
,  // measure 19
0001
0100
0010
0000
1000
0100
1000
0000
,  // measure 20
0001
0000
0010
0000
0100
1000
0002
0000
,  // measure 21
0000
0103
0010
0100
0001
1000
0100
0010
,  // measure 22
0002
0000
1003
0010
0100
0001
0100
0010
,  // measure 23
1000
0000
0100
0000
0010
0000
0001
0000
2000
0000
0000
0000
3010
0000
0000
0100
,  // measure 24
0001
1000
0001
0010
0100
1000
0010
0100
,  // measure 25
0001
0001
0000
0000
1000
1000
0000
0000
,  // measure 26
0110
0000
1001
0000
0001
1000
0000
0000
,  // measure 27
0001
0000
0001
0000
0010
0100
1000
0000
,  // measure 28
0001
0000
0001
0000
0100
0010
1000
0000
,  // measure 29
0100
0000
0100
0000
1000
0100
0010
0000
,  // measure 30
0001
0100
0010
1000
0001
0000
1001
0000
,  // measure 31
0010
0000
0010
0000
0100
1000
0001
0000
,  // measure 32
0010
0000
0010
0000
0100
0010
0001
0000
,  // measure 33
0010
0000
0010
0000
0001
0100
0010
0000
,  // measure 34
1000
0100
0010
0000
1001
0000
0000
0000
,  // measure 35
1000
0100
0000
1000
0001
0100
0000
0001
,  // measure 36
0100
0010
0000
1000
0100
1000
0000
0001
,  // measure 37
0010
0100
0000
0010
0001
1000
0000
0001
,  // measure 38
0100
0010
0000
1000
0100
0010
0010
0000
,  // measure 39
0001
0100
0000
0001
1000
0100
0000
1000
,  // measure 40
0100
0010
0000
0001
0100
0001
0000
1000
,  // measure 41
0010
0100
0000
0010
1000
0001
0000
1000
,  // measure 42
0100
0010
0001
0000
1002
0000
0000
0000
,  // measure 43
0023
0000
0000
0000
,  // measure 44
0230
0000
2300
0000
,  // measure 45
3002
0000
0000
0000
,  // measure 46
0203
0010
0020
0330
,  // measure 47
1000
0000
0001
0100
0100
0000
0010
0000
,  // measure 48
1000
0000
0100
0010
0010
0000
0001
0000
,  // measure 49
0010
1001
0010
1001
,  // measure 50
1000
0100
1000
0001
0100
0001
1000
0100
,  // measure 51
1000
0001
1001
0000
0000
0000
0000
0000
,  // measure 52
0002
0000
0103
0010
1000
0100
1000
0000
,  // measure 53
0002
0000
0013
0100
2000
0000
3010
0100
,  // measure 54
0002
0000
1003
0001
0200
0000
0310
1000
,  // measure 55
0002
0000
0013
0000
0100
0010
0001
0000
,  // measure 56
0200
0000
0310
1000
0200
0000
1300
0000
,  // measure 57
0001
0010
0100
0000
0010
0001
0100
0000
,  // measure 58
0020
0000
1030
0100
2000
0000
3100
0000
,  // measure 59
0010
0010
0000
0001
1000
0001
1000
0001
,  // measure 60
0200
0000
0310
1000
0200
0000
1300
0000
,  // measure 61
0002
0000
0013
0001
0200
0000
0310
0000
,  // measure 62
2000
0000
3001
1000
0020
0000
0130
0001
,  // measure 63
0020
0000
0130
0010
0020
0000
0031
0000
,  // measure 64
1000
0000
0002
0000
0103
0010
1000
0000
,  // measure 65
0100
1000
0010
1000
0001
0010
0100
1000
,  // measure 66
0001
0000
1001
0000
1000
0010
0100
0000
,  // measure 67
0001
0010
0100
1000
0010
0000
1001
0000
,  // measure 68
0001
0000
0100
0000
0010
1000
0001
0000
,  // measure 69
1000
0100
0010
0000
0001
0100
0001
0000
,  // measure 70
1000
0000
0010
0000
0100
0001
2000
0000
,  // measure 71
0000
3100
0010
0100
1000
0001
0100
0010
,  // measure 72
2000
0000
3001
0010
0100
1000
0100
0010
,  // measure 73
0001
0000
0100
0000
0010
0000
1000
0000
0002
0000
0000
0000
0013
0000
0000
0100
,  // measure 74
1000
0001
1000
0010
0100
0001
0010
0100
,  // measure 75
1000
1000
0000
0000
0001
0001
0000
0000
,  // measure 76
0110
0000
1001
0000
1000
0001
0000
0000
;

//---------------dance-single - ----------------
#NOTES:
     dance-single:
     :
     Challenge:
     9:
     0.612898,0.764519,0.226759,0.417237,0.113380,473.000000,448.000000,25.000000,46.000000,0.000000,0.000000,0.612898,0.764519,0.226759,0.417237,0.113380,473.000000,448.000000,25.000000,46.000000,0.000000,0.000000:
// measure 0
0000
0000
0000
0000
,  // measure 1
0000
0000
0000
0000
,  // measure 2
0000
0000
0000
0000
,  // measure 3
0000
0000
0000
0000
,  // measure 4
0000
0000
0000
0000
,  // measure 5
0000
0000
0000
0000
,  // measure 6
0000
0000
0000
0000
,  // measure 7
0000
0000
0000
0000
,  // measure 8
0000
0000
0000
0010
,  // measure 9
1001
1001
0000
1000
0100
0010
0001
1000
,  // measure 10
0020
0000
0130
0010
0100
0000
0001
0000
,  // measure 11
0020
0000
0130
0010
0100
0000
1000
0000
,  // measure 12
0010
0100
0001
1000
,  // measure 13
0200
0000
0310
0002
0100
0000
0103
0000
,  // measure 14
0010
1010
0110
0101
,  // measure 15
0001
0010
0100
1000
0010
0100
0001
1000
,  // measure 16
0100
0000
0110
0000
0010
0001
0100
0000
,  // measure 17
1000
0000
0100
0000
0001
0000
0010
0000
1000
0000
0000
0000
0010
0001
0010
0001
,  // measure 18
0020
0000
0001
0000
0130
1000
0002
0000
,  // measure 19
0203
0320
2030
3200
,  // measure 20
0320
0000
0032
0000
1003
0010
0200
0000
,  // measure 21
0310
0000
1000
0000
0100
0000
1000
0000
0001
0000
0010
0000
1000
0000
0010
0001
,  // measure 22
2000
0000
3010
0100
0001
0010
0001
1000
,  // measure 23
0100
0000
0010
0000
0001
0000
1000
0000
0020
0000
0000
0000
0130
0000
0001
0100
,  // measure 24
0001
0000
0100
0000
0010
0000
0100
0000
0001
0000
0010
0000
0100
1000
0100
1000
,  // measure 25
0001
0101
0000
0000
1000
1100
0000
0000
,  // measure 26
0001
0000
0110
0000
1001
1001
0000
0000
,  // measure 27
0001
0010
0100
0010
0001
0100
0010
0000
,  // measure 28
1000
0000
0010
0100
0010
0000
1000
0000
0100
0000
0010
0000
0001
0000
0000
0000
,  // measure 29
1000
0010
0001
0010
1000
0100
0010
0001
,  // measure 30
0100
1000
0100
0001
1000
0000
1001
0000
,  // measure 31
0001
0010
0100
0010
1000
0010
0001
0000
,  // measure 32
1000
0010
0100
0010
0001
0010
1000
0000
,  // measure 33
0001
0100
0010
1000
0200
0300
0010
0001
,  // measure 34
1000
0010
0100
0000
1001
0000
0000
0000
,  // measure 35
1000
0010
0100
0010
1000
0100
0010
0000
,  // measure 36
0001
0000
0100
0010
0100
0000
0001
0000
0010
0000
0100
0000
1000
0000
0000
0000
,  // measure 37
0001
0010
1000
0010
0001
0100
0010
1000
,  // measure 38
0100
0001
0100
1000
0001
1000
1001
0000
,  // measure 39
1000
0010
0001
0010
0100
0010
1000
0000
,  // measure 40
0001
0010
1000
0010
0100
0010
0001
0000
,  // measure 41
1000
0000
0010
0000
0100
0000
0010
0000
1000
0000
0000
0100
1000
0000
0001
0000
,  // measure 42
0010
0000
0100
0000
1000
0000
0000
0000
1001
0000
0001
0000
1000
0001
1000
0001
,  // measure 43
0200
2300
3200
0302
,  // measure 44
2003
0000
3200
0320
,  // measure 45
0032
0023
0230
2300
,  // measure 46
3002
0000
0203
0000
1300
0100
1001
0000
,  // measure 47
1000
0100
0010
0001
0000
1001
0000
1000
,  // measure 48
0001
0100
0010
2000
0000
0000
3001
1000
,  // measure 49
0001
0100
0001
0010
0100
1000
0010
0100
,  // measure 50
0001
0000
1000
0000
0001
0000
1000
0000
0100
0010
0100
0010
0100
0010
0100
0010
,  // measure 51
0001
1000
1001
0000
0000
0000
0000
0000
,  // measure 52
0002
0000
0103
0010
1000
0000
1001
0000
,  // measure 53
1000
0100
0010
0001
0100
0001
1000
0010
,  // measure 54
0100
0010
1000
0100
0010
0001
0100
0010
,  // measure 55
1000
0100
1000
0001
0010
0100
0010
0000
,  // measure 56
0001
0100
0001
1000
0020
0100
0130
0000
,  // measure 57
0010
1000
0100
1000
0001
0010
0100
0010
,  // measure 58
0002
0000
0103
0010
2000
0000
3100
0000
,  // measure 59
1000
0100
1000
0000
0010
0000
0100
0000
0001
0000
1000
0000
0001
0100
0001
0000
,  // measure 60
0010
0100
0010
0001
0100
0010
1000
0000
,  // measure 61
0001
0100
0001
1000
0100
0010
0001
0000
,  // measure 62
1000
0010
0100
0010
1000
0100
0010
0001
,  // measure 63
1000
0010
0100
0001
0002
0000
1003
0000
,  // measure 64
0001
0000
1000
0100
0010
0100
1000
0100
,  // measure 65
0001
0000
0100
0000
0010
0000
0100
0000
1000
0000
0001
0000
0100
0010
0100
0010
,  // measure 66
0100
0000
0110
0000
0010
1000
0100
0000
,  // measure 67
0001
0000
0100
0000
1000
0000
0010
0000
0001
0000
0000
0000
0010
1000
0010
1000
,  // measure 68
0020
0000
1000
0000
0130
0001
2000
0000
,  // measure 69
3200
0320
0032
0203
,  // measure 70
0320
0000
2030
0000
3001
0010
0200
0000
,  // measure 71
0310
0000
0001
0000
0100
0000
0001
0000
1000
0000
0010
0000
0001
0000
0010
1000
,  // measure 72
0002
0000
0013
0100
1000
0010
1000
0001
,  // measure 73
0100
0000
0010
0000
1000
0000
0001
0000
0020
0000
0000
0000
0130
0000
1000
0100
,  // measure 74
1000
0000
0100
0000
0010
0000
0100
0000
1000
0000
0010
0000
0100
0001
0100
0001
,  // measure 75
1000
1100
0000
0000
0001
0101
0000
0000
,  // measure 76
1000
0000
0110
0000
1001
1001
0000
0000
;

//---------------dance-single - ----------------
#NOTES:
     dance-single:
     :
     Medium:
     6:
     0.392618,0.486512,0.099774,0.589575,0.000000,303.000000,292.000000,11.000000,65.000000,0.000000,0.000000,0.392618,0.486512,0.099774,0.589575,0.000000,303.000000,292.000000,11.000000,65.000000,0.000000,0.000000:
// measure 0
0000
0000
0000
0000
,  // measure 1
0000
0000
0000
0000
,  // measure 2
0000
0000
0000
0000
,  // measure 3
0000
0000
0000
0000
,  // measure 4
0000
0000
0000
0000
,  // measure 5
0000
0000
0000
0000
,  // measure 6
0000
0000
0000
0000
,  // measure 7
0000
0000
0000
0000
,  // measure 8
0000
0000
0000
0010
,  // measure 9
0100
0010
0000
0000
0000
0000
0000
0000
,  // measure 10
2000
0100
3100
1000
,  // measure 11
0002
0010
0013
0001
,  // measure 12
0200
0310
1000
0100
,  // measure 13
0020
0001
0230
1000
,  // measure 14
0320
0031
0100
0001
,  // measure 15
2000
0010
0001
3100
,  // measure 16
0010
0000
0110
0000
1000
0001
1000
0000
,  // measure 17
0010
0100
0010
0100
0010
0000
0110
0000
,  // measure 18
0002
0010
1003
0002
,  // measure 19
0203
0320
2030
3200
,  // measure 20
0320
0000
0032
0000
1003
0100
2000
0000
,  // measure 21
0000
3001
0100
0001
,  // measure 22
0021
0000
0130
0000
0010
0001
1000
0000
,  // measure 23
0001
0100
0010
0000
0200
0000
0010
0000
,  // measure 24
0301
0010
0100
0000
1000
0001
0100
0000
,  // measure 25
0010
0010
0000
0000
0100
0100
0000
0000
,  // measure 26
0010
0000
0100
0000
0010
0010
0000
0000
,  // measure 27
2000
0100
0100
3100
,  // measure 28
0020
0001
0001
0031
,  // measure 29
0002
0100
0100
0103
,  // measure 30
0200
0010
0310
1000
,  // measure 31
0002
0010
0010
0013
,  // measure 32
0200
1000
1000
1300
,  // measure 33
0002
0103
0200
0310
,  // measure 34
1000
0001
1000
0000
2002
0000
3003
0000
,  // measure 35
0001
0000
0010
0000
0001
0100
0001
0000
,  // measure 36
1000
0000
0010
0000
1000
0100
1000
0000
,  // measure 37
0001
0000
0010
0000
0100
0010
0100
0000
,  // measure 38
0010
0001
0010
0001
1000
0000
0001
0000
,  // measure 39
0100
0000
0010
0000
1000
0001
1000
0000
,  // measure 40
0100
0000
0010
0000
0001
1000
0001
0000
,  // measure 41
0100
0010
1000
0000
0001
0000
1001
0000
,  // measure 42
1000
0100
0010
0000
2002
0000
3003
0000
,  // measure 43
0200
0000
0000
0000
,  // measure 44
0320
0000
2030
0000
,  // measure 45
3002
0000
0000
0000
,  // measure 46
0203
0010
0020
0330
,  // measure 47
1000
0000
0100
1000
0100
0000
0010
0000
,  // measure 48
0001
0000
0100
0001
0100
0000
0010
0000
,  // measure 49
1000
1010
0001
0011
,  // measure 50
2000
0100
0001
3010
,  // measure 51
0100
0010
0100
0000
0000
0000
0000
0000
,  // measure 52
2000
0000
3100
1000
0002
0000
0103
0000
,  // measure 53
0001
0010
0100
1000
,  // measure 54
0010
1000
0100
0010
,  // measure 55
0002
1003
1000
0001
,  // measure 56
0200
0000
0310
1000
0002
0000
1003
0000
,  // measure 57
0200
0320
0032
2003
,  // measure 58
3020
0000
0130
0010
0200
0000
0300
0000
,  // measure 59
0001
0000
0000
1000
0001
1000
0001
1000
,  // measure 60
0200
0000
0310
0001
2000
0000
3001
0000
,  // measure 61
0002
0000
0103
0010
2000
0000
3001
0000
,  // measure 62
1000
0100
0010
0001
,  // measure 63
0200
0000
0310
0100
0020
0000
0100
0000
,  // measure 64
1030
0100
0100
0010
,  // measure 65
0001
0100
0010
1000
,  // measure 66
0100
0000
0110
0000
0001
1000
0001
0000
,  // measure 67
0010
0100
0010
0100
0010
0000
0110
0000
,  // measure 68
2000
0100
3001
2000
,  // measure 69
3020
0230
0302
0023
,  // measure 70
0230
0000
2300
0000
3001
0010
0002
0000
,  // measure 71
0000
1003
0010
1000
,  // measure 72
1200
0000
0310
0000
0100
1000
0001
0000
,  // measure 73
1000
0010
0100
0000
0020
0000
0100
0000
,  // measure 74
1030
0100
0010
0000
0001
1000
0010
0000
,  // measure 75
0100
0100
0000
0000
0010
0010
0000
0000
,  // measure 76
0100
0000
0010
0000
0100
0100
0000
0000
;

//---------------dance-single - ----------------
#NOTES:
     dance-single:
     :
     Easy:
     4:
     0.235830,0.416330,0.208619,0.281182,0.000000,182.000000,159.000000,23.000000,31.000000,0.000000,0.000000,0.235830,0.416330,0.208619,0.281182,0.000000,182.000000,159.000000,23.000000,31.000000,0.000000,0.000000:
// measure 0
0000
0000
0000
0000
,  // measure 1
0000
0000
0000
0000
,  // measure 2
0000
0000
0000
0000
,  // measure 3
0000
0000
0000
0000
,  // measure 4
0000
0000
0000
0000
,  // measure 5
0000
0000
0000
0000
,  // measure 6
0000
0000
0000
0000
,  // measure 7
0000
0000
0000
0000
,  // measure 8
0000
0000
0000
0010
,  // measure 9
2002
3003
0000
0000
0000
0000
0000
0000
,  // measure 10
0002
0000
0000
0000
,  // measure 11
0023
0000
0000
0000
,  // measure 12
0230
0000
0000
0000
,  // measure 13
2300
0000
3002
0000
,  // measure 14
0203
0000
0000
0000
,  // measure 15
0320
0000
0000
0000
,  // measure 16
1030
1001
0001
1001
,  // measure 17
0010
0100
1001
0000
,  // measure 18
0001
0100
0000
0010
,  // measure 19
0000
1000
0000
0001
,  // measure 20
0000
1000
0000
0100
,  // measure 21
0000
0010
0000
0001
,  // measure 22
1000
0001
0000
0100
,  // measure 23
0000
0010
0000
1000
,  // measure 24
0100
1000
0000
0100
,  // measure 25
0110
0000
1001
0000
,  // measure 26
0110
0110
1001
0000
,  // measure 27
0002
0000
0000
0000
,  // measure 28
0023
0000
0000
0000
,  // measure 29
0230
0000
0000
0000
,  // measure 30
2300
0000
0000
0000
,  // measure 31
3020
0000
0000
0000
,  // measure 32
0230
0000
0000
0000
,  // measure 33
0302
0000
2003
0000
,  // measure 34
3100
0010
1001
0000
,  // measure 35
0001
0000
0100
0000
,  // measure 36
1000
0000
0100
0000
,  // measure 37
0010
0000
1000
0000
,  // measure 38
0001
1000
0001
0000
,  // measure 39
1000
0000
0100
0000
,  // measure 40
0001
0000
0100
0000
,  // measure 41
1000
0000
0001
0000
,  // measure 42
0010
0100
1000
0000
,  // measure 43
0002
0000
0000
0000
,  // measure 44
0203
0000
0320
0000
,  // measure 45
2030
0000
0000
0000
,  // measure 46
3002
2003
0002
3003
,  // measure 47
1000
0100
0001
0000
,  // measure 48
0001
0100
1000
0000
,  // measure 49
0010
0110
0010
0110
,  // measure 50
2002
0000
3003
0000
,  // measure 51
0110
0110
0000
0000
,  // measure 52
1000
0100
1000
0000
,  // measure 53
0001
0010
0001
0010
,  // measure 54
0100
1000
0100
1000
,  // measure 55
0001
0000
1000
0001
,  // measure 56
0200
0000
0310
0000
,  // measure 57
1000
0010
1000
0010
,  // measure 58
0200
0000
0301
0000
,  // measure 59
1000
0000
0001
1000
,  // measure 60
0002
0000
0013
0000
,  // measure 61
0200
0000
1300
0000
,  // measure 62
0001
0100
0001
0100
,  // measure 63
0020
0000
1030
0000
,  // measure 64
0001
1000
0100
1000
,  // measure 65
0001
0010
0100
1000
,  // measure 66
0001
1001
1000
1001
,  // measure 67
0100
0010
1001
0000
,  // measure 68
1000
0010
0000
0100
,  // measure 69
0000
0001
0000
1000
,  // measure 70
0000
0001
0000
0010
,  // measure 71
0000
0100
0000
1000
,  // measure 72
0001
1000
0000
0010
,  // measure 73
0000
0100
0000
0001
,  // measure 74
0010
0001
0000
0010
,  // measure 75
0110
0000
1001
0000
,  // measure 76
0110
0110
1001
0000
;
