#TITLE:Rampage;
#SUBTITLE:;
#ARTIST:Virtual Riot;
#TITLETRANSLIT:;
#SUBTITLETRANSLIT:;
#ARTISTTRANSLIT:;
#GENRE:;
#CREDIT:;
#BANNER:[Round 3] - Rampage.png;
#BACKGROUND:[Round 3] - Rampage-bg.png;
#LYRICSPATH:;
#CDTITLE:;
#MUSIC:[Round 3] - Rampage.ogg;
#OFFSET:-0.020000;
#SAMPLESTART:22.080379;
#SAMPLELENGTH:12.000000;
#SELECTABLE:YES;
#BPMS:0.000000=174.000000
;
#STOPS:
;
#BGCHANGES:;
#KEYSOUNDS:;
#ATTACKS:;

//---------------dance-single - ----------------
#NOTES:
     dance-single:
     :
     Hard:
     10:
     0.532730,0.889852,0.078432,0.163995,0.413553,523.000000,512.000000,11.000000,23.000000,54.000000,0.000000,0.532730,0.889852,0.078432,0.163995,0.413553,523.000000,512.000000,11.000000,23.000000,54.000000,0.000000:
// measure 0
0000
0000
0000
0000
,  // measure 1
0000
0000
0000
0000
,  // measure 2
0000
0000
0000
0000
,  // measure 3
0000
0000
0000
0000
,  // measure 4
0000
0000
0000
0000
,  // measure 5
0000
0000
0000
0000
,  // measure 6
0000
0000
0000
0000
,  // measure 7
0000
0000
0000
0000
,  // measure 8
1000
0001
0000
1000
0000
0001
0000
1000
,  // measure 9
0000
0001
0000
1000
0000
0001
0000
1000
,  // measure 10
0000
0100
0000
0100
0000
0100
0000
0100
,  // measure 11
0000
0010
0000
0010
0000
0010
0000
0001
,  // measure 12
1000
0000
0000
0010
0000
0010
0100
0000
0100
0000
0000
0001
0000
0001
0000
0000
,  // measure 13
0001
0000
0000
0010
0000
0010
0000
0000
0001
0000
0000
0100
0000
0100
0000
0000
,  // measure 14
1000
0000
0000
0100
0000
0100
0000
0000
0001
0000
0000
0010
0000
0100
0000
0000
,  // measure 15
1000
0000
0100
0000
0001
0000
0100
0000
1000
0000
0100
0000
0010
0100
1000
0100
,  // measure 16
1000
0000
0010
0000
0100
0000
0000
0000
0020
0000
0000
0000
0130
0000
0010
0100
,  // measure 17
0000
0100
0001
0000
1000
0000
0100
0010
0000
0100
0010
0000
0100
0000
1000
0000
,  // measure 18
0002
0000
2003
0000
3010
0000
0000
0000
2100
0000
0000
0000
3010
0000
1000
0001
,  // measure 19
0000
0001
1000
0000
0001
0000
0010
0001
0000
0010
0001
0000
1000
0000
0100
0000
,  // measure 20
1100
0000
1000
0100
0010
MM1M
1000
0100
,  // measure 21
M1MM
0010
0001
0010
0200
0000
0000
0300
,  // measure 22
1001
0000
0001
0010
MM1M
0000
1100
0000
,  // measure 23
0001
0000
0010
0000
MM1M
0000
1000
0000
0100
0000
M1MM
0000
0010
0000
1000
0010
,  // measure 24
0100
0000
0001
0000
0010
0000
0100
0000
0020
0000
0000
0000
0031
0000
0010
0001
,  // measure 25
0000
0001
0100
0000
0001
0000
0001
1000
0000
1000
0010
0000
0100
0000
0001
0000
,  // measure 26
2000
0000
3020
0000
0032
0000
0000
0000
0023
0000
0000
0000
1030
0000
0100
0001
,  // measure 27
0000
0001
0100
0000
0010
0000
0001
0010
0000
0001
0010
0000
0100
0000
1000
0000
,  // measure 28
2000
0000
0000
0000
3001
1000
0100
M1MM
,  // measure 29
0010
MM1M
1000
0010
0001
0010
0100
0010
,  // measure 30
0011
0000
0001
0100
1010
0000
1000
0010
,  // measure 31
0100
0000
1000
0000
0100
0000
0001
0000
0100
0000
0010
0000
,  // measure 32
1010
0000
0000
0000
,  // measure 33
0000
0000
0000
0000
,  // measure 34
0000
0000
0000
0000
,  // measure 35
0000
0000
1000
0000
0000
0010
0000
0000
,  // measure 36
0100
0000
0000
0000
,  // measure 37
0000
0000
0000
0000
,  // measure 38
0000
0000
0000
0000
,  // measure 39
0000
0000
0001
0000
,  // measure 40
1000
0100
0010
0100
1000
0001
0010
0100
,  // measure 41
1000
0010
0100
0010
1000
0100
0010
0100
,  // measure 42
1000
0100
0010
0001
1000
0010
0100
0001
,  // measure 43
0100
1000
0100
0001
0010
0001
0100
0010
,  // measure 44
1000
0001
0010
0100
1000
0010
0100
1000
,  // measure 45
0100
0001
0010
0100
0010
0001
0100
0001
,  // measure 46
1000
0100
0010
0100
0001
0100
0010
0001
,  // measure 47
1000
1000
0010
0100
0001
1000
0001
0010
,  // measure 48
0200
1000
1000
1000
,  // measure 49
1000
1000
1000
1000
,  // measure 50
1000
1000
1000
1000
,  // measure 51
1000
0000
0000
0000
1300
0000
0000
0000
0100
0000
1000
0000
0100
1000
0001
1000
,  // measure 52
0100
0010
0001
1000
0000
0010
0100
0000
0100
0001
1000
0001
0000
1000
0100
0000
,  // measure 53
1000
0010
1000
0001
0000
0001
1000
0000
1000
0001
1000
0100
0000
0010
0100
0000
,  // measure 54
0010
0001
0100
1000
0000
0100
0001
0000
1000
0100
0010
0001
0000
0010
0001
0000
,  // measure 55
1000
0010
0001
0010
0000
1000
0010
0000
0100
0010
0100
0001
0000
0100
0010
0000
,  // measure 56
1010
0000
1000
0100
0010
0000
0001
0000
MMM1
0000
0100
1000
0010
0000
0100
0000
,  // measure 57
M1MM
0000
1000
0001
0100
0000
0010
0000
MM1M
0000
0100
0010
0002
0000
0000
0000
,  // measure 58
1003
0020
1030
0010
0100
0200
0310
0100
,  // measure 59
0002
2003
3002
0023
,  // measure 60
0031
0100
0001
1000
0000
0001
0010
0000
0001
0010
0100
1000
0000
0001
0100
0000
,  // measure 61
0010
0001
0010
0100
0000
0010
1000
0000
1000
0010
0100
0001
0000
0100
0001
0000
,  // measure 62
1000
0010
0001
0010
0000
0100
0001
0000
1000
0100
0010
0001
0000
1000
0001
0000
,  // measure 63
0100
0010
0100
0001
0000
1000
0001
0000
1000
0100
0001
0100
0000
1000
0001
0000
,  // measure 64
0011
0000
0001
0010
0100
0000
M1MM
0000
0010
0000
1000
0100
0010
0000
MM1M
0000
,  // measure 65
0100
0000
0001
1000
0001
0000
MMM1
0000
0100
0000
0010
0000
0200
0000
0000
0000
,  // measure 66
2300
0000
0000
0000
,  // measure 67
0000
0000
0000
0000
0000
0000
0000
0000
3010
0000
0100
0000
0001
0010
0001
0010
,  // measure 68
0100
0000
0000
1000
0000
0000
0010
0000
1000
0000
0000
0000
0000
0000
0000
0000
,  // measure 69
0001
0000
0000
0010
0000
0000
0100
0000
0010
0000
0000
0000
1000
0000
0000
0000
,  // measure 70
0010
0000
0000
0100
0000
0000
1000
0000
0001
0000
0000
0000
0000
0000
0000
0000
,  // measure 71
1000
0000
0000
0000
1010
0000
0000
0000
0040
0000
0000
0030
MM4M
0000
0000
0030
,  // measure 72
0100
0000
0000
1000
0000
0000
0100
0000
0001
0000
0100
0000
2000
0000
0000
0000
,  // measure 73
3010
0000
0000
0100
0000
0000
1000
0000
0100
0000
0001
0100
0001
0000
0010
0000
,  // measure 74
0100
0000
0000
0010
0000
0000
0100
0000
1000
0000
0010
0000
MM1M
0000
0001
0000
,  // measure 75
1000
0010
0100
0001
1000
0100
1000
0010
1000
0001
0010
0100
0010
0100
1000
0010
,  // measure 76
0100
0000
0000
0010
0000
0000
0100
0000
0001
0000
0000
0000
0000
0000
0000
0000
,  // measure 77
1000
0000
0000
0001
0000
0000
0100
0000
0010
0000
0000
0000
0001
0000
0000
0000
,  // measure 78
0010
0000
0000
0100
0000
0000
0001
0000
1000
0000
0000
0000
0000
0000
0000
0000
,  // measure 79
0001
0000
0000
0000
0011
0000
0000
0000
0004
0000
0000
0003
MMM4
0000
0000
0003
,  // measure 80
0100
0000
0000
1000
0000
0000
0001
0000
1000
0000
0010
0000
0200
0000
0000
0000
,  // measure 81
0301
0000
0000
0010
0000
0000
0100
0000
0001
0000
0100
1000
0001
0000
0100
0000
,  // measure 82
0010
0000
0000
0100
0000
0000
0001
0000
1000
0000
0001
0000
0001
0000
1000
0000
,  // measure 83
0100
M1MM
0001
0100
M1MM
1000
0010
0100
,  // measure 84
0001
0000
0000
0000
,  // measure 85
0000
0000
0000
0000
,  // measure 86
0000
0000
0000
0000
,  // measure 87
0000
0000
0010
0000
0000
0100
0000
0000
,  // measure 88
1000
0000
0000
0000
,  // measure 89
0000
0000
0000
0000
,  // measure 90
0000
0000
0000
0000
,  // measure 91
0000
0000
0001
0000
,  // measure 92
1000
0000
0000
0000
,  // measure 93
0000
0000
0000
0000
,  // measure 94
0000
0000
0000
0000
,  // measure 95
0000
0000
0001
0000
0000
0010
0000
0000
,  // measure 96
1000
0000
0000
0000
;
