#TITLE:Mad5cience;
#SUBTITLE:;
#ARTIST:Paul Bazooka;
#MUSIC:Mad5cience.ogg;
#OFFSET:0.020000;
#SAMPLESTART:44.216000;
#SAMPLELENGTH:14.764000;
#SELECTABLE:YES;
#DISPLAYBPM:130.000000;
#BPMS:0.000000=130.000000
,95.000000=195.000000
,95.750000=65.000000
,96.000000=130.000000
;
#STOPS:
;
#BGCHANGES:;
#KEYSOUNDS:;
#ATTACKS:;

//---------------dance-single - ----------------
#NOTES:
     dance-single:
     :
     Challenge:
     10:
     0.670358,0.693692,0.236254,0.488802,0.456216,487.000000,29.000000,60.000000,16.000000,0.000000,11.000000,0.670358,0.693692,0.236254,0.488802,0.456216,487.000000,29.000000,60.000000,16.000000,0.000000,11.000000:
// measure 0
0000
0000
0000
0000
,  // measure 1
0000
0000
0000
0000
,  // measure 2
0000
0000
0000
0000
,  // measure 3
0000
0000
0000
0000
,  // measure 4
0001
0010
0001
0010
0100
1000
0100
1000
,  // measure 5
0001
0000
0100
0000
0001
0000
0100
0000
0010
0000
1000
0000
0010
0100
0001
1000
,  // measure 6
0100
0010
0100
1000
0001
0100
0010
1000
,  // measure 7
0001
0000
0010
0000
0100
0000
4000
0000
0000
0000
0000
0000
3040
0000
0000
0030
,  // measure 8
1010
1000
0001
0010
1100
0001
1000
0010
,  // measure 9
0101
0001
1000
0100
0110
0010
0001
1000
,  // measure 10
1010
0000
0001
1000
0010
1000
0001
0000
0010
0001
0100
0000
0001
0010
0100
0000
,  // measure 11
1000
0010
0100
0000
0010
0000
0010
1000
0001
0000
0020
0000
0032
0003
MMMM
0000
,  // measure 12
1000
0000
0010
0000
1000
0000
0010
0000
0100
0000
0001
0000
1000
0000
0000
0000
0100
0000
1000
0000
0010
0000
0000
0000
0200
0000
0000
0300
0200
0000
0000
0000
,  // measure 13
0310
0000
1000
0000
0001
0000
0000
0000
0010
0000
0000
0000
0100
0000
1000
0000
0001
0000
0000
0000
0200
0000
0000
0300
0200
0000
0000
0000
0340
0000
0000
0000
,  // measure 14
1030
0000
0001
0000
0010
0100
0010
0100
1000
0000
0010
0000
0200
0000
0301
0000
,  // measure 15
1000
0000
0100
0000
0010
0000
0000
0000
0100
0000
0000
0000
0100
0000
1000
0000
0040
0000
0000
0000
0000
0000
0030
0000
000M
0M00
000M
0M00
000M
0000
0000
0000
,  // measure 16
0101
1000
0001
1000
0001
0001
0040
0000
,  // measure 17
0130
0100
1000
1000
0004
1003
2000
3100
,  // measure 18
0010
0001
0100
0000
0100
0001
0010
0000
0010
0001
0100
0000
2010
0000
3000
0000
,  // measure 19
0001
1000
0010
0100
0004
0000
0013
0010
,  // measure 20
10M0
0010
1000
0000
1000
0010
1000
0000
1000
0010
1000
0001
0040
0000
0000
0000
,  // measure 21
0130
0000
1000
0000
0001
0000
0100
0000
0020
0000
0031
0000
0010
0100
0001
0000
,  // measure 22
1000
0100
0010
0100
1000
0001
0100
0010
0100
0001
1000
0100
0010
0001
1000
0010
,  // measure 23
1M00
0000
000M
0000
0M00
0000
000M
0M00
0010
0000
0100
0000
0202
0000
0000
0303
,  // measure 24
10M1
0000
1200
0000
0310
0001
0100
0020
,  // measure 25
0000
0000
0000
0000
1030
0000
0001
1000
0100
0000
0100
0000
0010
0000
0001
0000
,  // measure 26
0100
0001
0000
0000
2000
0000
0000
0000
3100
0000
0010
0000
0100
0000
0002
0000
,  // measure 27
0000
0000
0000
0000
0103
0000
0010
0001
0000
0001
1000
0000
0010
0000
0100
0000
,  // measure 28
0101
0000
2001
0000
3100
0010
0001
0200
,  // measure 29
0310
0000
0010
1000
0000
1000
0001
0000
0010
0100
0000
0100
1000
0000
0001
0000
,  // measure 30
1000
0010
0000
0000
0100
0000
0001
0000
0100
0000
0001
0000
0010
0000
0100
0000
,  // measure 31
0010
0000
0001
0000
1000
0000
0010
0000
0001
0000
0010
0000
2000
0000
0000
3000
,  // measure 32
1002
0000
0000
0003
0000
0000
0002
0000
0000
0003
0000
0000
0002
0000
0000
0003
,  // measure 33
0000
0000
0020
0000
0000
0030
0000
0000
0020
0000
0000
0030
0020
0000
0000
0030
,  // measure 34
0002
0000
0000
0003
0000
0000
0002
0000
0000
0003
0000
0000
0002
0000
0000
0003
,  // measure 35
0000
0000
0200
0000
0000
0300
0000
0000
0020
0000
0000
0030
0020
0000
0000
0030
,  // measure 36
1000
0001
0000
0001
0100
0000
0010
1000
0000
1000
0001
0000
1000
0100
0000
0100
,  // measure 37
0010
0000
0001
1000
0000
1000
0010
0000
0200
0000
0000
0300
0200
0000
0000
0300
,  // measure 38
0010
1000
0010
1000
0010
0000
1000
0001
1000
0001
1000
0000
0001
0010
0001
0010
,  // measure 39
0001
0000
1000
0010
1000
0010
1000
0000
0200
0000
0000
0300
0200
0000
0000
0300
,  // measure 40
1001
0000
0000
1000
0000
0000
1000
0000
0001
0010
0000
0010
0000
0000
0010
0000
,  // measure 41
0001
0000
0000
0001
0000
0000
0001
0000
0100
0010
0000
0010
0000
0000
0010
0000
,  // measure 42
1000
0000
0000
1000
0000
0000
1000
0000
0001
0010
0000
0010
0000
0000
0010
0000
,  // measure 43
0100
0000
0000
0100
0000
0000
0100
0000
1000
0001
0000
0001
0000
0000
0001
0000
,  // measure 44
1000
0000
0000
1000
0000
0000
1000
0000
0000
1000
0000
0000
0100
0000
0000
0100
,  // measure 45
0000
0000
0100
0000
0000
0100
0000
0000
0010
0000
0000
0010
0000
0000
0010
0000
,  // measure 46
0001
0000
1000
0010
0000
0010
1000
0000
0001
0000
0010
0000
0100
0000
1000
0000
,  // measure 47
2020
0000
0000
0000
0000
0000
0000
0000
0000
0000
0000
0000
0000
0000
0000
3030
,  // measure 48
1002
0000
0000
0000
0013
0000
0001
0100
0010
0000
0100
0000
1010
0000
0101
0000
,  // measure 49
1000
0000
1100
0000
1100
0000
0001
0000
0100
0010
0100
0010
2000
0000
3010
0000
,  // measure 50
1000
0000
0001
1000
0100
0000
0100
1000
0010
0000
0100
0000
0010
0000
0002
0003
,  // measure 51
0010
1000
0001
1000
0100
1000
0001
1000
0020
0000
0000
0030
0020
0000
0000
0030
,  // measure 52
1100
1100
0100
0001
0100
0001
0400
0000
,  // measure 53
0320
0000
0000
0000
0001
0000
0000
0000
0230
0000
0000
0000
0320
0000
0000
0000
0001
0000
0000
0030
0020
0000
0000
0030
0020
0000
0000
0000
0230
0000
0300
0000
,  // measure 54
0010
0000
0000
0010
0000
0000
0001
0000
0000
0100
0000
0000
0020
0000
0000
4030
0000
3000
0100
0000
0000
0040
0000
0030
,  // measure 55
0002
1003
0020
0130
0101
1000
1100
1000
,  // measure 56
1001
1001
1000
0010
0100
1000
0100
0010
,  // measure 57
1020
0000
0100
0030
1020
0000
0000
0030
0101
0000
1000
0001
1000
0100
0010
0001
,  // measure 58
1000
0010
0100
0010
1000
0001
0010
0100
,  // measure 59
1000
0001
1000
0010
1000
0001
1000
0100
0020
0000
0001
0030
0020
0000
0000
0030
,  // measure 60
0020
0000
0000
0031
1000
0000
1000
0000
0010
0100
0001
0000
0200
0000
0000
0301
,  // measure 61
1000
0000
0000
1000
0100
0000
0010
0000
0100
1000
0001
0000
2000
0000
0000
3001
,  // measure 62
0010
0100
0010
0000
0001
1000
0001
0000
0100
0010
0100
0000
0001
0100
0001
0000
,  // measure 63
1000
0001
1000
0000
0100
0010
0100
0000
2000
0000
3001
1000
0010
0000
0100
0001
,  // measure 64
0020
0000
0000
0000
,  // measure 65
0000
0000
0030
0000
;
