#VERSION:0.83;
#TITLE:Industrial Nation;
#SUBTITLE:;
#ARTIST:Jerico;
#TITLETRANSLIT:;
#SUBTITLETRANSLIT:;
#ARTISTTRANSLIT:;
#GENRE:;
#ORIGIN:;
#CREDIT:;
#BANNER:[Round 3] - Industrial Nation.png;
#BACKGROUND:[Round 3] - Industrial Nation-bg.png;
#PREVIEWVID:;
#JACKET:[Round 3] - Industrial Nation-jacket.png;
#CDIMAGE:;
#DISCIMAGE:;
#LYRICSPATH:;
#CDTITLE:cdtitle.png;
#MUSIC:[Round 3] - Industrial Nation.ogg;
#OFFSET:0.000000;
#SAMPLESTART:16.167572;
#SAMPLELENGTH:16.179775;
#SELECTABLE:YES;
#BPMS:0.000=178.000,
32.000=89.000,
40.000=178.000,
140.000=89.000,
164.000=178.000,
196.000=89.000,
202.000=178.000;
#STOPS:;
#DELAYS:;
#WARPS:;
#TIMESIGNATURES:0.000=4=4;
#TICKCOUNTS:0.000=4;
#COMBOS:0.000=1;
#SPEEDS:0.000=1.000=0.000=0;
#SCROLLS:0.000=1.000,
32.000=0.001,
34.688=0.025,
34.750=0.050,
34.813=0.075,
34.875=0.100,
35.000=0.110,
35.167=0.120,
35.333=0.130,
35.500=0.140,
35.667=0.150,
35.833=0.160,
36.000=0.170,
36.167=0.180,
36.250=0.190,
36.375=0.200,
36.500=0.210,
36.625=0.220,
36.750=0.240,
36.875=0.260,
37.000=0.280,
37.125=0.300,
37.250=0.350,
37.375=0.400,
37.500=0.450,
37.625=0.500,
37.750=0.600,
37.875=0.700,
38.000=0.800,
38.125=0.900,
38.250=1.000,
38.375=1.100,
38.500=1.200,
38.625=1.300,
38.750=1.400,
38.875=1.500,
39.000=1.600,
39.125=1.700,
39.250=1.800,
39.375=1.900,
39.500=2.000,
39.625=1.500,
39.750=1.000,
39.875=0.500,
40.000=1.000,
103.000=0.900,
103.250=0.800,
103.500=0.700,
103.750=0.600,
104.000=0.500,
104.250=0.400,
104.500=0.300,
104.750=0.200,
105.000=0.100,
105.250=0.000,
105.500=-0.200,
105.750=-0.400,
106.000=-0.300,
106.250=-0.200,
106.500=2.100,
107.000=1.000,
140.000=0.001,
142.375=0.010,
142.500=0.020,
142.625=0.030,
142.750=0.040,
142.875=0.050,
143.000=0.100,
143.125=0.125,
143.250=0.150,
143.375=0.175,
143.500=0.200,
143.625=0.225,
143.750=0.250,
143.875=0.275,
144.000=0.300,
144.125=0.325,
144.250=0.350,
144.375=0.375,
144.500=0.400,
144.625=0.425,
144.750=0.450,
144.875=0.475,
145.000=0.500,
145.125=0.525,
145.250=0.550,
145.375=0.575,
145.500=0.600,
145.625=0.625,
145.750=0.650,
145.875=0.675,
146.000=0.700,
146.125=0.725,
146.250=0.750,
146.375=0.775,
146.500=0.800,
146.625=0.825,
146.750=0.850,
146.875=0.875,
147.000=0.900,
147.125=0.925,
147.250=0.950,
147.375=0.975,
147.500=1.000,
196.000=2.000,
196.250=1.750,
196.500=1.500,
196.750=1.250,
197.000=1.000,
197.125=0.870,
197.250=0.660,
197.375=0.500,
197.500=0.330,
197.625=0.160,
197.750=0.000,
199.000=0.100,
199.125=0.200,
199.250=0.300,
199.375=0.400,
199.500=0.500,
199.625=0.600,
199.750=0.700,
199.875=0.800,
200.000=0.900,
200.125=1.000,
200.250=1.100,
200.375=1.200,
200.500=1.300,
200.625=1.400,
200.750=1.500,
200.875=1.600,
201.000=1.700,
201.125=1.800,
201.250=1.900,
201.375=2.000,
201.500=2.100,
201.625=1.500,
201.750=1.000,
201.875=0.500,
202.000=1.000,
265.000=0.900,
265.250=0.800,
265.500=0.700,
265.750=0.600,
266.000=0.500,
266.250=0.400,
266.500=0.300,
266.750=0.200,
267.000=0.100,
267.250=0.000,
267.500=-0.200,
267.750=-0.400,
268.000=-0.300,
268.250=-0.200,
268.500=2.100,
269.000=1.000,
298.000=0.010,
298.125=0.050,
298.250=0.100,
298.375=0.110,
298.500=0.120,
298.625=0.130,
298.750=0.140,
298.875=0.150,
299.000=0.160,
299.125=0.170,
299.250=0.180,
299.375=0.190,
299.500=0.200,
299.625=0.300,
299.750=0.400,
299.875=0.500,
300.000=0.600,
300.125=0.700,
300.250=0.800,
300.375=0.900,
300.500=1.000,
300.625=1.250,
300.750=1.500,
300.875=1.750,
301.000=2.000,
301.125=2.250,
301.250=2.500,
301.375=2.750,
301.500=3.000,
301.625=3.250,
301.750=3.500,
301.875=3.750,
302.000=4.000,
302.125=1.000;
#FAKES:;
#LABELS:0.000=Song Start;
#BGCHANGES:;
#KEYSOUNDS:;
#ATTACKS:
;

//---------------dance-single - xRGTMx----------------
#NOTEDATA:;
#CHARTNAME:xRGTMx;
#STEPSTYPE:dance-single;
#DESCRIPTION:xRGTMx;
#CHARTSTYLE:;
#DIFFICULTY:Challenge;
#METER:12;
#RADARVALUES:0.809631,1.097958,0.182820,0.182820,0.972270,682.000000,660.000000,22.000000,22.000000,18.000000,0.000000,14.000000,0.000000,0.000000,0.809631,1.097958,0.182820,0.182820,0.972270,682.000000,660.000000,22.000000,22.000000,18.000000,0.000000,14.000000,0.000000,0.000000;
#CREDIT:xRGTMx;
#NOTES:
// measure 0
0000
0000
0000
0000
,  // measure 1
0000
0000
0000
0000
,  // measure 2
0000
0000
0000
0000
,  // measure 3
0000
0000
0000
0000
,  // measure 4
1001
0000
0000
0000
0000
0000
0000
0000
0000
0000
0000
0000
0001
0000
0000
0000
0000
0000
0010
0000
0000
0000
0000
0000
0100
0000
0000
0000
0000
0000
1000
0000
0001
0000
1000
0000
0010
0000
0000
0000
0000
0000
0100
0000
0000
0001
0000
0000
,  // measure 5
1000
0000
0000
0000
0000
0000
0100
0000
0000
0000
0000
0000
0010
0000
0000
0000
0000
0000
0001
0000
0000
0000
0000
0000
1000
0000
0000
0000
0000
0000
0001
0000
1000
0000
0001
0000
0100
0000
0000
0000
0000
0000
0010
0000
0000
1000
0000
0000
,  // measure 6
0010
0000
0100
0000
0001
0000
1000
0000
0100
0000
0110
0000
0010
0001
1000
0000
,  // measure 7
0010
0000
0000
0000
0000
0000
0100
0000
0001
0000
1000
0000
0001
0000
0000
0000
0000
0000
0010
0000
0000
0000
0000
0000
0100
0000
0000
1000
0000
0000
0001
0000
0000
0000
0000
0000
0110
0000
0000
0000
0000
0000
0000
0000
0000
0000
0000
0000
,  // measure 8
2002
0000
0000
0000
,  // measure 9
0000
0000
0000
0000
0000
0000
0000
0000
0000
0000
0000
0000
0000
3003
0010
0000
,  // measure 10
1001
0000
0001
1000
0010
0000
0100
0001
1000
0100
1000
0000
0010
0000
0100
0001
,  // measure 11
1000
0001
0010
0100
1000
0000
0001
0100
0001
1000
0010
0000
0100
0000
0010
1000
,  // measure 12
0001
1000
0100
0010
0001
0000
1000
0010
1000
0100
0010
0100
1000
0000
0001
1000
,  // measure 13
0010
0000
4000
0100
0000
0010
0000
3000
0004
0100
0000
1000
0000
0010
0003
0000
,  // measure 14
1001
0000
1000
0001
0010
0000
0100
1000
0001
0100
0001
0000
0010
0000
0100
1000
,  // measure 15
0001
1000
0010
0100
0001
0000
1000
0100
1000
0001
0010
0000
0100
0000
0010
0001
,  // measure 16
1000
0001
0100
0010
1000
0000
0001
0010
0001
0100
0010
0100
0001
0000
1000
0001
,  // measure 17
0100
0000
0020
0000
0000
0000
0000
0000
0001
0000
0000
0000
1000
0000
0000
0030
,  // measure 18
1010
0000
1000
0100
0010
0000
0001
0000
0000
0000
1000
0001
0100
0000
0010
0000
,  // measure 19
0000
0000
1000
0010
1000
0000
0001
0000
0010
0000
0010
0000
0100
0000
0100
0000
,  // measure 20
1000
0000
0100
0010
0001
0000
1000
0010
0100
0001
1000
0000
0100
0000
0010
0001
,  // measure 21
1000
0000
1000
0000
0010
0000
0100
0001
1000
0100
1000
0000
0001
0000
0100
0001
,  // measure 22
0010
0000
0001
0100
0010
0000
1000
0000
0000
0000
0001
1000
0100
0000
0010
0000
,  // measure 23
0000
0000
0001
0010
0001
0000
1000
0010
1000
0000
0100
0000
0010
0000
0010
0000
,  // measure 24
0100
0000
1000
0001
0100
0000
0001
1000
0100
0010
0001
0000
0100
0000
0010
0000
,  // measure 25
1000
0040
0430
0304
4003
3200
0000
0000
,  // measure 26
0000
0000
0000
0000
0000
0000
0000
0000
0000
0000
0000
0000
0000
0000
00M0
0000
0000
0000
0000
0000
0000
0000
0000
0000
0000
0000
0000
0000
0000
0000
0000
0000
0000
0000
0000
0000
0000
0000
0000
0000
0000
0000
0000
0000
0000
0000
0000
0000
0000
0000
0000
0000
0000
0000
0000
0000
0000
0000
0000
0000
0000
0000
0000
0000
0000
0000
0000
0000
0000
0000
0000
0000
0000
0000
0000
0000
0000
0000
0000
0000
0000
0000
0000
0000
0000
0000
0000
0000
0000
0000
0000
0000
0000
0000
0000
0000
0000
0000
0000
0000
0000
0000
0000
0000
0000
0000
0000
0000
00M0
0000
0000
0000
0000
0000
0000
0000
0000
0000
0000
0000
0000
0000
0000
0000
0000
0000
0000
0000
0000
0000
0000
0000
0000
0000
0000
0000
0000
0000
0000
0000
0000
0000
0000
0000
0310
0000
0000
0000
0000
0000
0000
0000
0000
0000
0000
0000
0000
0000
0000
0000
0000
0000
0000
0000
0000
0000
0000
0000
0000
0000
0000
0000
0000
0000
0000
0000
0000
0000
0000
0000
0000
0000
0000
0000
0000
0000
0000
0000
0000
0000
0000
0000
,  // measure 27
1001
0000
1000
0000
0010
0000
1000
0100
1000
0001
0100
0000
0010
0000
1000
0010
,  // measure 28
1000
0001
0010
0001
0100
0000
0010
1000
0001
0010
0100
1000
0001
0000
0100
0000
,  // measure 29
0010
0000
0010
0000
1000
0000
0100
1000
0001
0100
0010
1000
0001
0000
0010
0001
,  // measure 30
0010
0000
0004
0100
0000
0010
0000
0003
4000
0010
0000
0001
0000
0100
3000
0000
,  // measure 31
0001
0010
0001
0010
0001
0010
0001
0010
0100
1000
0100
1000
0100
1000
0100
1000
,  // measure 32
0001
0000
0100
0000
0001
0000
1000
0000
0000
0100
0000
0000
0010
0000
0001
0000
1000
0000
0001
0000
0000
0010
0000
0000
0100
0000
0000
1000
0000
0000
0100
0000
0000
1000
0000
0000
0001
0000
0000
0100
0000
0000
0001
0000
0000
0100
0000
0000
,  // measure 33
0001
1000
0001
1000
0100
1000
0000
0100
0010
0001
1000
0001
0100
0010
1000
0001
,  // measure 34
0010
0001
0010
0001
1000
0001
0000
0001
0100
0010
1000
0001
0020
0000
0130
0000
,  // measure 35
2002
0000
0000
0000
,  // measure 36
0000
0000
0000
0000
0000
0000
0000
3003
,  // measure 37
1000
0000
0000
0000
0010
0000
0000
0000
0100
0000
0000
0000
0010
1000
0002
0000
0000
0000
0000
0000
0000
0000
0000
0000
0000
0000
0013
0001
0200
0000
0000
0000
,  // measure 38
0310
0000
0000
0000
1000
0000
0000
0000
0010
0000
0100
0000
0000
0000
0002
0000
0000
0000
0000
0000
0023
0000
0000
0000
0000
0000
0000
0000
0000
0000
0130
1000
,  // measure 39
0002
0000
0000
0000
0000
0000
0000
2003
0000
0000
0000
0000
0000
0000
0000
0000
,  // measure 40
3020
0000
0000
0000
2030
0000
0000
3200
0000
0000
0000
0000
0000
0000
0000
0310
,  // measure 41
1001
0000
0000
0000
1000
0100
1000
0100
0010
0000
0001
0010
0001
0010
0001
0010
,  // measure 42
0100
0000
1000
0000
0001
0100
0001
0100
0010
0000
1000
0000
1000
0000
0001
0010
,  // measure 43
0001
0000
1000
0000
0010
1000
0001
1000
0100
0000
0010
0100
0010
0001
1000
0001
,  // measure 44
1000
0000
0010
0000
0100
0000
0001
0100
0010
0000
1000
0000
0200
0000
0000
0300
,  // measure 45
1001
0000
1000
0000
,  // measure 46
1001
0000
0001
0000
,  // measure 47
1001
1100
1001
0101
,  // measure 48
0001
0010
0100
1000
0001
0100
0010
1000
0001
0010
0100
1000
0010
0100
0010
0100
,  // measure 49
0002
0000
0000
0000
0000
0000
0000
00M0
0000
0000
0000
0000
00M0
0000
0000
0000
,  // measure 50
0000
0000
0000
0000
0000
0000
0013
0000
1001
0000
1000
0000
0010
1000
0001
1000
,  // measure 51
0100
0000
0010
0100
1000
0100
0010
0001
0100
0000
0010
0000
0010
0000
1000
0010
,  // measure 52
0100
0000
0001
0100
0001
1000
0100
1000
0001
0000
0010
0000
0100
1000
0100
0010
,  // measure 53
0100
0000
1000
0001
0100
0001
1000
0000
0100
0000
0040
0001
0000
0100
0030
0000
,  // measure 54
0400
0010
0000
1000
0000
0010
0300
0000
1001
0000
0001
0000
0100
0010
0100
0001
,  // measure 55
0100
0000
0010
1000
0100
0010
0100
1000
0001
0000
1000
0000
0010
0100
0001
1000
,  // measure 56
0010
0000
0100
0001
1000
0100
1000
0100
0010
0000
0001
0000
0010
0100
1000
0001
,  // measure 57
0100
0000
0010
1000
0010
0100
0010
1000
0001
0000
0020
0000
0000
0000
0000
0000
,  // measure 58
1000
0000
0000
0000
0001
0000
0000
0030
0011
0000
0001
0100
0010
0000
1000
0000
,  // measure 59
0000
0000
0001
1000
0100
0000
0010
0000
0000
0000
0001
0010
0001
0000
1000
0000
,  // measure 60
0010
0000
0010
0000
0100
0000
0100
0000
0001
0000
0100
0010
1000
0000
0001
0010
,  // measure 61
0100
1000
0001
0000
0100
0000
0010
1000
0001
0000
0001
0000
0010
0000
0100
1000
,  // measure 62
0001
0100
0001
0000
1000
0000
0100
1000
0010
0000
1000
0100
0010
0000
0001
0000
,  // measure 63
0000
0000
1000
0001
0100
0000
0010
0000
0000
0000
1000
0010
1000
0000
0001
0010
,  // measure 64
0001
0000
0100
0000
0010
0000
0010
0000
0100
0000
0001
1000
0100
0000
1000
0001
,  // measure 65
0100
0010
1000
0000
0100
0000
0010
0000
0001
0000
0040
0000
0430
0000
4300
0000
,  // measure 66
3004
0000
0000
0000
0000
0000
0000
0000
0000
0000
0000
0000
0000
0000
0000
0000
0000
0000
0000
0000
0000
0000
0000
0000
0203
0000
0000
0000
0000
0000
0000
0000
0000
0000
0000
0000
0000
0000
0000
0000
0000
0000
0000
0000
0000
0000
0000
0000
0000
0000
0000
0000
0000
0000
0000
0000
0000
0000
0000
0000
0000
0000
0000
0000
0000
0000
0000
0000
0000
0000
0000
0000
0000
0000
0000
0000
0000
0000
0000
0000
0000
0000
0000
0000
0000
0000
0000
0000
0000
0000
0000
0000
0000
0000
0000
0000
0000
0000
0000
0000
0000
0000
0000
0000
0000
0000
0000
0000
0000
0000
00M0
0000
0000
0000
0000
0000
0000
0000
0000
0000
0000
0000
0000
0000
0000
0000
0000
0000
0000
0000
0000
0000
0000
0000
0000
0000
0000
0000
0000
0000
0000
0000
0000
0000
0000
0000
0000
0000
0000
0000
0000
0000
0000
0000
0000
0000
0000
0000
0000
0000
0000
0000
0000
0000
0000
0000
0000
0000
0000
0000
0000
0000
0000
0000
0000
0000
0000
0000
0000
0000
0000
0000
0000
0000
0000
0000
0000
0000
0000
0000
0000
0000
,  // measure 67
0000
00M0
0000
0000
0310
0000
0000
0000
1001
0000
0001
1000
0010
0000
0100
0001
,  // measure 68
0100
0010
1000
0000
0100
0000
0010
0001
0010
0100
1000
0001
0100
0000
0010
1000
,  // measure 69
0010
0100
0001
0000
1000
0000
0100
1000
0100
0000
0010
0001
1000
0000
0010
1000
,  // measure 70
0001
1000
0100
0000
0010
0000
0100
0010
0001
0010
0100
1000
0001
0000
0100
0001
,  // measure 71
1000
0001
0200
0000
0310
0000
1000
0000
1001
0000
0001
0010
0100
0000
0010
0001
,  // measure 72
1000
0001
0100
0000
0010
0000
1000
0010
0100
0000
0100
0001
1000
0000
0100
0010
,  // measure 73
0001
0010
0100
0000
1000
0000
0001
1000
0010
0100
0001
0100
0010
0000
1000
0010
,  // measure 74
1000
0001
0010
0000
0100
0000
1000
0001
0200
0000
0000
0000
0000
0000
0000
0000
,  // measure 75
M00M
0000
0000
0000
0000
0000
0000
0000
0000
0000
0000
0000
0000
0000
0000
0000
0000
0000
0000
0000
0000
0000
0000
0000
0000
0000
0000
0000
0000
0000
0000
0000
M00M
0000
0000
0000
0000
0000
0000
0000
0000
0000
0000
0000
0000
0000
0000
0000
0000
M00M
0000
0000
0000
0000
0000
0000
0000
0000
0000
0000
0000
M00M
0000
0000
0000
0000
0000
0000
0000
0000
0000
M00M
0000
0000
0000
0000
0000
0000
0000
0000
0000
M00M
0000
0000
0000
0000
0000
0000
0000
0000
0300
0000
0000
0000
0000
0000
1001
0000
0000
0000
0000
0000
0000
0000
0000
0000
0000
0000
0000
0000
0000
0000
0000
0000
0000
0000
0000
0000
0000
0000
0000
0000
0000
0000
0000
0000
0000
0000
0000
0000
0000
0000
0000
0000
0000
0000
0000
0000
0000
0000
0000
0000
0000
0000
0000
0000
0000
0000
0000
0000
0000
0000
0000
0000
0000
0000
0000
0000
0000
0000
0000
0000
0000
0000
0000
0000
0000
0000
0000
0000
0000
0000
0000
0000
0000
0000
0000
0000
0000
0000
0000
0000
0000
0000
0000
0000
0000
0000
0000
0000
0000
0000
;
