#TITLE:聖槍爆裂ボーイ;
#SUBTITLE:;
#ARTIST:れるりりfeat.鏡音レン;
#TITLETRANSLIT:Holy Lance Explosion Boy;
#SUBTITLETRANSLIT:;
#ARTISTTRANSLIT:rerulili feat. Kagamine Len;
#GENRE:Jazz Pop;
#CREDIT:;
#BANNER:[Round 3] - Holy Lance Explosion Boy.png;
#BACKGROUND:[Round 3] - Holy Lance Explosion Boy-bg.png;
#LYRICSPATH:;
#CDTITLE:cdtitle.png;
#MUSIC:[Round 3] - Holy Lance Explosion Boy.ogg;
#OFFSET:1.538002;
#SAMPLESTART:49.561001;
#SAMPLELENGTH:12.367096;
#LASTBEATHINT:1.364005;
#SELECTABLE:YES;
#BPMS:0.000000=155.000000
;
#STOPS:220.000000=1.161000
;
#BGCHANGES:2.813=[Round 3] - Holy Lance Explosion Boy.mp4=1.000=1=0=1===CrossFade==,
99999=-nosongbg-=1.000=0=0=0 // don't automatically add -songbackground-
;
#KEYSOUNDS:;
#ATTACKS:;

//---------------dance-single - ----------------
#NOTES:
     dance-single:
     :
     Challenge:
     12:
     1.006792,1.021472,0.490798,0.099693,1.280675,919.000000,855.000000,64.000000,13.000000,0.000000,0.000000,1.006792,1.021472,0.490798,0.099693,1.280675,919.000000,855.000000,64.000000,13.000000,0.000000,0.000000:
// measure 0
0000
0000
0000
0000
,  // measure 1
0000
0000
0000
0000
,  // measure 2
0000
0000
0000
0000
,  // measure 3
0000
0000
0000
0000
,  // measure 4
0004
0000
4000
0000
0000
0000
0000
0000
0000
0000
0000
0000
0000
0000
0000
0000
0000
0000
3003
0000
0000
0000
0000
0000
1100
0000
0000
0000
0000
0000
0000
0000
0000
0011
0000
0000
0000
0000
0000
0000
0000
0000
1001
0000
0000
0000
0000
0000
,  // measure 5
0001
0100
0001
0000
0010
0001
0000
1000
0010
1000
0100
0000
0010
0000
0001
0000
,  // measure 6
1000
0100
1000
0000
0001
0100
0000
0100
0010
1000
0100
0000
0010
0001
0100
0010
,  // measure 7
1000
0100
1000
0000
0010
1000
0000
0001
0010
0001
0100
0000
1000
0000
0100
0000
,  // measure 8
0001
0100
0001
0000
0100
0010
0000
1000
0100
0010
0001
0000
0100
0010
1000
0000
,  // measure 9
0100
0010
0100
0000
1000
0001
0000
1000
0100
1000
0010
0000
0100
0000
0001
0000
,  // measure 10
1000
0100
1000
0000
0100
0010
0000
0010
0001
1000
0010
0000
0100
0010
1000
0001
,  // measure 11
0010
0100
0010
0000
0001
1000
0000
0001
0100
0001
0010
0000
1000
0000
0010
0000
,  // measure 12
0100
0010
0001
0000
1000
0010
0000
0010
1000
0100
0010
0001
0100
0010
1000
0001
,  // measure 13
0010
0000
0100
0000
0010
0100
0010
0000
0100
1000
0001
0100
0010
0000
0100
0000
,  // measure 14
0010
0100
0001
1000
0100
0010
0100
0000
0010
0100
1000
0001
0000
0001
1000
0000
,  // measure 15
0010
0000
0100
0010
0100
0000
0001
0000
1000
0100
0010
0100
0000
1000
0000
0001
,  // measure 16
0100
0000
0010
1000
0010
0100
0001
0000
0010
0100
1000
0001
0000
1000
0010
1000
,  // measure 17
0100
0000
0010
0000
0100
0010
0001
0100
0000
0100
0010
0000
1000
0100
0000
0100
,  // measure 18
0010
0000
0100
1000
0001
1000
0010
0100
0000
0001
0010
0000
0100
0000
0010
0001
,  // measure 19
0100
0000
0100
0001
0010
0000
0100
1000
0010
0000
0010
1000
0100
0000
0010
0001
,  // measure 20
0100
0010
1000
0000
0010
1000
0100
0010
0001
0100
0010
0000
0100
0010
1000
0000
,  // measure 21
0001
0100
0001
0000
1000
0100
0000
0010
0001
0100
0001
0000
0100
0000
0010
0000
,  // measure 22
1000
0100
1000
0000
0001
0100
0000
0100
0010
1000
0001
0000
0010
0001
0100
0010
,  // measure 23
1000
0100
1000
0000
0001
0100
0000
0010
1000
0100
1000
0000
0010
0000
0001
0000
,  // measure 24
0010
0100
0010
0000
1000
0001
0000
1000
0100
0010
0001
0000
1000
0010
0100
0001
,  // measure 25
0020
0000
0030
0100
1000
0000
0001
0000
1000
0100
0010
0001
0000
1000
0000
0001
,  // measure 26
0100
0010
0100
0001
1000
0000
0001
0100
0010
1000
0100
0010
0000
0001
0000
2002
,  // measure 27
0000
3003
0000
1000
0001
0000
0000
0001
0100
0000
0010
1000
0100
0010
0100
1000
,  // measure 28
0001
0100
0010
0100
0001
1000
0100
0010
0001
0100
0010
1000
0100
0000
0010
0000
,  // measure 29
0220
0000
0330
0000
0010
0001
1000
0000
0010
1000
0001
0000
0010
0001
1000
0010
,  // measure 30
0100
0001
0010
0001
0100
0000
1000
0000
0100
0010
0100
0000
0001
0000
0010
0000
,  // measure 31
0011
0000
0000
1100
0000
0000
1000
0010
1000
0000
0000
0101
0000
0000
1100
0000
,  // measure 32
0011
0000
0001
0100
0000
0000
1001
0000
0001
1000
0100
0010
0001
0000
0100
0000
,  // measure 33
0110
0010
1010
1000
1001
0001
0011
0010
,  // measure 34
0100
1000
0001
0000
0001
1000
0000
1000
0010
0000
0001
0010
0000
0010
1000
0000
,  // measure 35
1100
0100
0110
0010
0011
0001
1001
1000
,  // measure 36
0010
1000
0100
0010
0001
0100
0010
0100
1000
0000
1000
0100
0000
0100
0001
0000
,  // measure 37
0010
0000
0100
0000
0010
0001
0000
0001
0100
0000
0010
1000
0000
1000
0100
0000
,  // measure 38
0010
0001
0100
0000
1000
0100
0000
0100
0001
0000
0010
0001
0000
0001
1000
0000
,  // measure 39
1010
0010
0110
0100
0101
0001
1001
1000
,  // measure 40
0100
0000
0010
0000
0001
0100
0000
0010
2000
0000
3000
0000
0001
1000
0001
1000
,  // measure 41
0010
0000
0100
0000
0010
1000
0000
1000
0001
0010
0100
0010
0000
0100
1000
0001
,  // measure 42
0100
0010
0100
0000
0010
1000
0000
1000
0001
1000
0100
0010
0000
0100
1000
0001
,  // measure 43
0100
0010
0100
0001
0100
0010
1000
0100
0010
0001
1000
0000
1000
0000
0010
0000
,  // measure 44
0001
0000
0010
0100
0010
1000
0001
0010
0000
0010
0100
0000
0010
0100
1000
0001
,  // measure 45
0100
0010
0100
0010
1000
0100
0010
0001
0000
0100
0000
0010
0000
0010
1000
0000
,  // measure 46
0001
1000
0100
1000
0001
0100
0001
0010
0000
0100
0010
0001
1000
0000
0010
1000
,  // measure 47
0100
0000
0100
1000
0010
0000
0100
0001
0010
0000
0010
0001
0100
0010
0000
0100
,  // measure 48
0010
1000
0001
0010
0100
1000
0001
0100
0010
0100
1000
0000
0100
0000
0010
0000
,  // measure 49
0220
0000
0330
0000
0010
0000
1000
0000
0100
0010
0001
0100
0000
0010
0000
0100
,  // measure 50
0001
1000
0100
0010
0100
0000
0010
0001
0100
0010
1000
0001
0000
0010
0000
0220
,  // measure 51
0000
0000
0330
0000
0010
0000
0000
0010
0001
0000
1000
0010
0100
0001
1000
0100
,  // measure 52
0010
0100
1000
0001
0100
0010
0100
0001
0010
0100
1000
0001
0100
0000
0001
0000
,  // measure 53
0020
0000
1030
0000
0010
0001
0100
0010
1000
0100
0010
0001
0100
0010
1000
0001
,  // measure 54
0010
0100
1000
0010
0100
0001
0010
0001
0100
0010
1000
0100
1000
0001
0100
0010
,  // measure 55
0110
0000
1010
0010
0101
0100
1001
1100
,  // measure 56
0110
0000
0000
0011
0000
0000
0004
4000
0000
0000
0000
0000
0000
0000
0000
3003
0000
0000
1001
0000
0000
0001
0000
0000
,  // measure 57
0011
0000
0001
0000
1001
0000
1000
0000
1010
0000
0010
0000
0100
0001
1000
0000
,  // measure 58
1000
0001
0000
0001
0010
0000
1000
0010
0000
0010
0001
0000
0101
0000
0100
0000
,  // measure 59
0110
0000
0010
0000
1010
0000
1000
0000
1001
0000
0001
0000
0010
0001
0100
0010
,  // measure 60
1000
0100
0010
0100
0001
0000
0001
0100
0000
0100
1000
0000
0010
0000
0100
0000
,  // measure 61
0010
1000
0000
1000
0100
0000
0010
0001
0000
0001
0100
0000
0010
1000
0100
0000
,  // measure 62
0001
0100
0000
0100
1000
0000
0010
1000
0000
1000
0001
0000
0011
0000
0010
0000
,  // measure 63
0110
0000
0100
0000
1100
0000
1000
0000
1001
0000
0001
0000
0101
0000
1000
0010
,  // measure 64
1000
0001
0010
0001
1000
0000
1000
0000
0010
0000
0100
0001
0010
0000
1000
0000
,  // measure 65
0010
0001
0000
0001
0100
0000
1000
0000
0001
0010
0000
0010
1000
0000
0001
0000
,  // measure 66
1000
0100
0000
0100
0001
0000
0100
0010
0000
0010
0001
0000
0101
0000
0100
0000
,  // measure 67
1010
0000
1000
0000
1100
0000
0100
0000
0011
0000
0001
0000
1000
0010
1000
0000
,  // measure 68
0100
1000
0100
0000
0010
0000
0100
1000
0000
0001
0100
0000
0010
0000
0001
0000
,  // measure 69
0010
1000
0000
1000
0100
0000
0010
0001
0000
0001
0100
0000
1000
0000
0001
0000
,  // measure 70
0010
1000
0000
1000
0100
0000
0010
0001
0000
0001
0100
0000
1010
0000
0010
0000
,  // measure 71
0101
0000
0001
0000
0011
0000
0010
0000
1100
0000
1000
0000
1001
0000
0001
0100
,  // measure 72
0010
1000
0100
0010
0001
0000
0010
0100
1000
0001
0100
0001
1000
0010
1000
0000
,  // measure 73
1000
0100
1000
0000
0001
0010
0001
0000
0001
0100
0001
0000
1000
0100
0010
0000
,  // measure 74
0001
0100
0000
0010
0100
0000
1000
0100
0000
0010
0100
0000
0001
0100
0001
0000
,  // measure 75
0001
0010
0001
0000
1000
0100
1000
0010
0000
0010
1000
0000
0001
0100
0010
1000
,  // measure 76
0100
0010
0100
1000
0001
0000
1000
0010
0100
0001
1000
0000
0001
0010
0001
0000
,  // measure 77
0001
0100
0001
0000
1000
0010
1000
0000
1000
0100
1000
0000
0010
0100
0001
0000
,  // measure 78
1000
0100
0000
0100
0001
0000
0100
1000
0000
1000
0010
0000
1000
0001
1000
0000
,  // measure 79
1000
0100
1000
0000
0001
0100
0010
1000
0000
1000
0100
0000
0010
0000
0011
0000
,  // measure 80
0000
0101
0000
0000
0011
0000
0000
1010
0000
0000
1100
0000
0000
1010
0000
0000
,  // measure 81
0011
0000
0000
0101
0000
0000
0011
0000
0000
2002
0000
0000
0000
0000
0000
0000
,  // measure 82
0000
0000
0000
0000
,  // measure 83
0000
3003
0000
0000
;

//---------------dance-single - ----------------
#NOTES:
     dance-single:
     :
     Hard:
     10:
     0.828221,0.957630,0.222393,0.130368,0.847393,756.000000,727.000000,29.000000,17.000000,0.000000,0.000000,0.828221,0.957630,0.222393,0.130368,0.847393,756.000000,727.000000,29.000000,17.000000,0.000000,0.000000:
// measure 0
0000
0000
0000
0000
,  // measure 1
0000
0000
0000
0000
,  // measure 2
0000
0000
0000
0000
,  // measure 3
0000
0000
0000
0000
,  // measure 4
2002
0000
0000
0000
3003
0000
0000
0000
0101
0000
0000
1010
0000
0000
1001
0000
,  // measure 5
0001
0000
0010
0000
0001
0010
0000
0001
0100
0001
0100
0000
0010
0000
2010
0000
,  // measure 6
0000
0000
3010
0000
1000
0100
0000
0010
0001
0010
0001
0000
1000
0001
0100
0010
,  // measure 7
1000
0000
0010
0000
1000
0010
0000
1000
0100
1000
0100
0000
0010
0000
0021
0000
,  // measure 8
0000
0000
0130
0000
1000
0010
0000
0100
0001
0100
0001
0000
0010
0001
0100
0010
,  // measure 9
1000
0000
0010
0000
1000
0001
0000
1000
0100
1000
0100
0000
0010
0000
0012
0000
,  // measure 10
0000
0000
0013
0000
0001
0100
0000
0010
1000
0010
1000
0000
0001
0010
0100
1000
,  // measure 11
0001
0000
0010
0000
0001
1000
0000
0001
0100
0001
0100
0000
0010
0000
1020
0000
,  // measure 12
0000
0000
0130
0000
0001
0000
1000
0100
1000
0100
1000
0000
0001
0100
0001
0100
,  // measure 13
0001
0000
0000
0001
0010
0001
0000
0100
0000
0000
0100
0000
0010
0000
1000
0000
,  // measure 14
0100
0000
0001
0000
0100
0000
1000
0001
0000
0001
0100
0000
0010
0000
1000
0000
,  // measure 15
0100
0000
0000
0100
1000
0010
0000
1000
0000
0000
1000
0000
0100
0000
0001
0000
,  // measure 16
1000
0000
0010
0000
0001
0000
1000
0010
0000
0100
0001
0000
0010
0000
0100
0000
,  // measure 17
1000
0000
0000
1000
0010
1000
0000
0100
0000
0000
1000
0000
0100
0000
0001
0000
,  // measure 18
0100
0000
1000
0000
0010
0100
0000
0100
0000
0000
0010
0000
1000
0000
0001
0010
,  // measure 19
0001
0000
1000
0010
1000
0000
0001
0100
0001
0000
1000
0100
1000
0000
0010
0000
,  // measure 20
0100
0000
0001
0000
0100
0010
0000
0010
1000
0000
0001
0000
1000
0100
0010
0000
,  // measure 21
0001
0000
0100
0000
0010
0100
0000
0001
0010
0001
0010
0000
0100
0000
2100
0000
,  // measure 22
0000
0000
3100
0000
1000
0010
0000
0100
0001
0100
0001
0000
1000
0100
0010
0001
,  // measure 23
1000
0000
0100
0000
0010
0100
0000
1000
0010
1000
0010
0000
0100
0000
0201
0000
,  // measure 24
0000
0000
0310
0000
1000
0001
0000
0010
0100
0010
0100
0000
0010
0001
0100
0010
,  // measure 25
1000
0000
0000
1000
0100
0010
0000
0001
0000
0000
0010
0000
0001
0000
0100
0000
,  // measure 26
0010
0000
0100
0000
1000
0000
0100
0010
0000
0010
1000
0000
0001
0000
0010
0000
,  // measure 27
0100
0000
0000
0100
0010
0001
0000
1000
0000
0000
1000
0000
0010
0000
0001
0000
,  // measure 28
0010
0000
1000
0000
0100
0010
0000
0001
0000
0100
0010
1000
0100
0000
0010
0000
,  // measure 29
0001
0000
0000
0001
0100
0010
1000
0001
0000
0001
1000
0000
0100
0010
0002
0000
,  // measure 30
0000
0000
1003
0000
0001
0100
0000
0100
0000
0000
0001
0000
0100
0000
0010
0000
,  // measure 31
1010
0000
0000
0101
0000
0000
0001
1000
0001
0000
0000
0011
0000
0000
1100
0000
,  // measure 32
1001
0000
0001
0100
0000
0010
1000
0000
0100
0010
0100
0010
0100
0000
0010
0000
,  // measure 33
0001
0010
1000
0010
0001
0100
1000
0100
,  // measure 34
0001
0000
0010
0000
0001
1000
0000
0001
0100
0000
0001
1000
0000
0001
0010
0000
,  // measure 35
0001
0001
0100
0100
0010
0010
1000
1000
,  // measure 36
0001
0000
0010
0000
1000
0000
0010
0000
0001
0000
0100
0010
0000
0100
0010
0000
,  // measure 37
1000
0000
0001
0000
1000
0100
0000
0100
1000
0000
0001
0100
0000
0100
0001
0000
,  // measure 38
1000
0000
0010
0000
1000
0001
0000
1000
0100
0000
1000
0001
0000
1000
0010
0000
,  // measure 39
1000
0100
0001
0001
0100
1000
0001
0001
,  // measure 40
0100
0000
0010
0000
1000
0100
0000
0010
0002
0000
0000
0000
1003
0001
1000
0001
,  // measure 41
1000
0000
0000
0010
1000
0100
0000
0010
0000
0000
0010
0000
0001
0000
0100
0000
,  // measure 42
1000
0000
0100
0000
0001
0010
0000
0010
0100
0000
1000
0000
0001
0000
0100
0000
,  // measure 43
0010
0000
1000
0100
0000
0100
0000
0010
0001
1000
0001
1000
0010
0000
0210
0000
,  // measure 44
0000
0000
0301
0000
0100
0010
1000
0100
0000
0010
0001
0000
1000
0010
0100
0001
,  // measure 45
1000
0100
1000
0100
0010
0001
2000
0000
0000
0000
3001
0100
0001
0000
0100
0000
,  // measure 46
0010
0000
1000
0000
0001
0010
0000
0100
0000
0000
0010
0000
0010
0000
0001
1000
,  // measure 47
0001
0000
1000
0010
1000
0000
0001
0010
0001
0000
1000
0000
0100
0010
0000
0001
,  // measure 48
0100
0000
1000
0000
0100
0000
0001
0010
0100
0000
1000
0010
0100
0000
0001
0000
,  // measure 49
0010
0001
0010
0001
0010
0001
0010
0001
1000
0000
0001
0000
0100
0010
0100
0000
,  // measure 50
0010
0000
1000
0000
0001
0010
0000
0010
0001
0000
0100
0000
1000
0000
0100
0000
,  // measure 51
0010
0000
0000
0010
1000
0001
0000
0001
0010
0000
0100
0000
1000
0000
2001
0000
,  // measure 52
0000
0000
3010
0000
1000
0001
1000
0001
0010
0100
0010
0100
1000
0000
0001
0000
,  // measure 53
1000
0000
0010
0000
1000
0000
0100
0010
0001
1000
0001
1000
0010
0100
0010
0100
,  // measure 54
0001
1000
0001
1000
0100
0010
0100
0010
0001
1000
0010
0100
0001
0010
0100
1000
,  // measure 55
0001
0000
0010
0010
0010
0010
0001
0100
,  // measure 56
1000
0100
0220
0000
0330
0000
1000
0010
,  // measure 57
0001
0010
1000
0100
0001
0100
1000
0010
,  // measure 58
1000
0001
0000
1000
0100
0000
1000
0001
0000
1000
0010
0000
1000
0000
1000
0000
,  // measure 59
0100
0100
0010
0010
0001
0001
1000
0010
,  // measure 60
0001
0000
0010
0000
1000
0000
0100
0010
0000
0100
0010
0000
0001
0000
1000
0000
,  // measure 61
0001
0100
0000
0100
0001
0000
1000
0100
0000
0100
1000
0000
0001
0000
0010
0000
,  // measure 62
0001
1000
0000
0001
0100
0000
0001
1000
0000
0001
0010
0000
0001
0000
0100
0000
,  // measure 63
1000
0000
1000
0000
0100
0000
0001
0000
1000
0000
1000
0000
0100
0000
0010
0001
,  // measure 64
1000
0000
0010
1000
0001
0000
0100
0000
0100
0000
0010
0000
1000
0000
0001
0000
,  // measure 65
1000
0100
0000
0010
0001
0000
0100
0000
1000
0000
0100
0000
0001
0000
0010
0000
,  // measure 66
0100
0010
0000
0010
0001
0000
1000
0010
0000
0010
0100
0000
0001
0000
0001
0000
,  // measure 67
0010
0010
1000
1000
0010
0010
0001
0100
,  // measure 68
1000
0000
0100
0000
0001
0000
0010
0100
0000
0100
1000
0000
0001
0000
1000
0000
,  // measure 69
0010
1000
0000
1000
0100
0000
0010
0001
0000
0001
0100
0000
0010
0000
1000
0000
,  // measure 70
0001
0010
0000
0100
1000
0000
0001
0100
0000
0010
1000
0000
0100
0000
0100
0000
,  // measure 71
0001
0000
0001
0000
0100
0000
0100
0000
1000
0000
1000
0000
0001
0000
0100
0010
,  // measure 72
0000
1000
0001
0000
1001
0000
0000
1000
0100
1000
0100
0010
0001
0000
0100
0000
,  // measure 73
0010
0100
1000
0100
0010
0100
0001
1000
,  // measure 74
0001
0010
0000
0001
1000
0000
0001
0100
0000
0001
1000
0000
0100
0000
0010
0000
,  // measure 75
0100
1000
0100
0001
0100
0010
0001
0100
,  // measure 76
1000
0000
0100
0000
0001
0000
0010
0000
0100
0010
0000
0001
1000
0000
0010
0000
,  // measure 77
0100
0010
0001
0010
0100
0010
1000
0001
,  // measure 78
0010
0001
0000
0001
0100
0000
0010
1000
0000
1000
0100
0000
0010
0000
0001
0000
,  // measure 79
0100
1000
0100
0001
0010
0100
1000
1100
,  // measure 80
0000
0011
0000
0000
1100
0000
0000
0101
0000
0000
1010
0000
0000
0101
0000
0000
,  // measure 81
1100
0000
0000
0011
0000
0000
1100
0000
0000
2002
0000
0000
0000
0000
0000
0000
,  // measure 82
0000
0000
0000
0000
,  // measure 83
0000
3003
0000
0000
;

//---------------dance-single - ----------------
#NOTES:
     dance-single:
     :
     Medium:
     9:
     0.643076,0.702262,0.360429,0.513804,0.191718,587.000000,540.000000,47.000000,67.000000,0.000000,0.000000,0.643076,0.702262,0.360429,0.513804,0.191718,587.000000,540.000000,47.000000,67.000000,0.000000,0.000000:
0000
0000
0000
0000
,
0000
0000
0000
0000
,
0000
0000
0000
0000
,
0000
0000
0000
0000
,
2002
0000
0000
0000
3003
0000
0000
0000
1001
0000
0000
0110
0000
0000
1001
0000
,
1000
0000
0100
0000
0010
0000
0000
0010
0100
0000
1000
0000
0001
0000
0200
0000
,
0000
0000
0310
0000
1000
0000
0000
0010
1000
0000
0100
0000
0010
0000
0001
0000
,
1000
0000
0010
0000
0100
0000
0000
0100
0001
0000
0010
0000
0100
0000
2000
0000
,
0000
0000
3010
0000
1000
0000
0000
1000
0100
0000
0001
0000
0100
0000
1000
0000
,
0001
0000
0100
0000
0010
0000
0000
0010
0100
0000
0001
0000
1000
0000
0200
0000
,
0000
0000
0310
0000
0001
0000
0000
0010
0001
0000
0100
0000
0010
0000
1000
0000
,
0001
0000
0010
0000
0100
0000
0000
0100
1000
0000
0010
0000
0100
0000
0002
0000
,
0000
0000
0013
0000
0001
0000
0100
0010
0000
1000
0001
0000
1001
0000
0000
0000
,
1000
0100
0010
0100
1000
0001
1000
0010
,
0100
0001
0010
0001
0100
0010
1000
0001
,
0010
0001
0100
0010
1000
0100
0010
0001
,
0100
1000
0100
0001
0010
0100
1000
0000
,
0001
0100
0010
1000
0001
0010
0100
0010
,
0001
1000
0010
0100
0001
1000
0100
0010
,
0010
0001
0001
1000
1000
0010
0010
0100
,
0001
1000
0100
0001
0100
1000
0010
0100
,
0001
0000
0100
0000
0010
0000
0000
0010
1000
0000
0001
0000
0010
0000
0200
0000
,
0000
0000
1300
0000
0001
0000
0000
0001
0100
0000
0010
0000
0100
0000
0001
0000
,
1000
0000
0100
0000
0010
0000
0000
0010
0001
0000
1000
0000
0010
0000
0200
0000
,
0000
0310
1000
0100
0001
0100
1000
0000
,
1020
0000
0130
0100
0001
1000
0100
0010
,
0001
0100
0010
1000
0001
1000
0100
0010
,
0021
0000
0230
0000
0310
0001
0100
0010
,
1000
0100
0001
0100
1000
0010
0100
0001
,
2001
0000
3100
0100
0010
0010
0001
0001
,
1000
0010
0100
0001
0010
0001
0100
0000
,
1010
0000
0000
1100
0000
0000
0001
0000
0011
0000
0000
0101
0000
0000
1000
0000
,
2001
0000
0000
0100
0000
0000
3100
0000
0010
0000
0001
0000
0100
0000
0010
0000
,
1010
0011
0101
1100
,
1000
0000
0020
0000
0000
0032
0000
0000
0023
0000
0000
2030
0000
0000
3200
0000
,
0310
0001
0100
0100
0010
1000
0200
0000
,
0310
0000
0001
0000
0100
0000
0010
0000
1010
0000
0000
1001
0000
0000
0011
0000
,
0000
0000
0010
0000
0000
0001
0000
0000
0100
0000
0000
0010
0000
0000
1000
0000
,
0001
0000
0020
0000
0000
2030
0000
0000
3020
0000
0000
0032
0000
0000
0203
0000
,
0310
1000
0100
0100
0010
0001
0200
0000
,
1300
0100
0001
0010
0200
0000
0300
0000
,
1000
0100
0010
0001
0100
0010
1000
0001
,
0010
0001
0100
0010
1000
0100
1000
0010
,
0100
0001
0010
1000
0010
0001
0100
0010
,
1000
0100
0001
0100
1000
0010
0100
0000
,
0001
0100
1000
0100
0001
1000
0100
0010
,
0001
0100
0010
1000
0001
0010
0100
1000
,
1000
0010
0010
0100
0100
0001
0001
1000
,
0100
0010
0001
0100
1000
0100
0010
0000
,
2010
0000
3100
0100
0010
0001
0100
0010
,
1000
0001
0010
0001
0100
0010
1000
0001
,
0012
0000
0203
0000
0310
1000
0100
0010
,
0001
0100
1000
0100
0001
0010
0100
1000
,
1002
0000
0103
0100
0010
0010
1000
1000
,
0001
0010
1000
0010
0001
0100
1000
0100
,
0001
0000
1000
1000
0001
0001
1000
0010
,
0100
0001
0020
0000
0030
0000
0011
0000
,
1010
0000
1100
0000
0101
0000
0001
0020
,
0000
2030
0000
0000
3020
0000
0000
0032
0000
0000
0203
0000
0310
0000
1000
0000
,
0100
0100
0010
0001
0200
0000
0310
1000
,
0100
0000
0010
0000
0011
0000
0000
1001
0000
0000
1010
0000
0000
0000
0010
0000
,
0000
1000
0000
0000
0100
0000
0000
0010
0000
0000
0001
0000
1000
0000
0020
0000
,
0000
0032
0000
0000
0023
0000
0000
2030
0000
0000
3200
0000
0310
0000
0001
0000
,
0100
0100
0010
1000
0200
0000
0301
0100
,
1000
0010
0001
0010
1000
0100
0010
0011
,
0000
1001
0000
0000
1010
0000
0000
0000
0101
0000
0000
0000
1000
0000
0200
0000
,
0000
0302
0000
0000
0203
0000
0000
2300
0000
0000
3020
0000
0031
0000
0010
0000
,
1000
1000
0100
0001
0200
0000
0310
0001
,
0100
0000
0010
0000
1010
0000
0000
1001
0000
0000
1100
0000
0000
0000
1000
0000
,
0000
0100
0000
0000
0010
0000
0000
0001
0000
0000
1000
0000
0001
0000
0200
0000
,
0000
2300
0000
0000
3200
0000
0000
0302
0000
0000
0023
0000
1030
0000
0010
0000
,
0001
0000
0001
0000
0100
0000
1000
0000
0200
0000
0000
0000
0301
0000
0010
0100
,
0000
0010
0100
0000
1000
0000
0000
0001
0100
0000
0010
0000
1000
0000
0100
0000
,
1000
0100
0010
0100
0010
0100
1000
0020
,
0000
0230
0000
0000
0302
0000
0000
2003
0000
0000
3200
0000
0310
0000
0001
0000
,
0010
0001
0100
0001
0100
0001
1000
0010
,
0100
0001
1000
0100
0010
0001
1000
0010
,
1000
0010
0100
0010
0100
0010
1000
0200
,
0000
0302
0000
0000
0203
0000
0000
2300
0000
0000
3020
0000
0130
0000
0001
0000
,
0010
0001
0100
1000
0100
0001
0010
0011
,
0000
0011
0000
0000
0011
0000
0000
1001
0000
0000
1001
0000
0000
1001
0000
0000
,
1010
0000
0000
1010
0000
0000
1010
0000
0000
2002
0000
0000
0000
0000
0000
0000
,
0000
0000
0000
0000
,
0000
3003
0000
0000
;

//---------------dance-single - ----------------
#NOTES:
     dance-single:
     :
     Easy:
     6:
     0.452454,0.542657,0.107362,0.421779,0.026840,413.000000,399.000000,14.000000,55.000000,0.000000,0.000000,0.452454,0.542657,0.107362,0.421779,0.026840,413.000000,399.000000,14.000000,55.000000,0.000000,0.000000:
0000
0000
0000
0000
,
0000
0000
0000
0000
,
0000
0000
0000
0000
,
0000
0000
0000
0000
,
2002
0000
0000
0000
3003
0000
0000
0000
1000
0000
0000
0001
0000
0000
1000
0000
,
0001
0000
0010
0000
0001
0100
0010
2000
,
0000
0000
3001
0000
0001
0010
0001
0000
,
1000
0000
0010
0000
1000
0100
0010
0002
,
0000
0000
1003
0000
0010
0100
0001
0000
,
1000
0000
0100
0000
0010
0100
1000
0002
,
0000
0000
0103
0000
0100
0010
1000
0000
,
0001
0000
0100
0000
0010
0100
0001
2000
,
0000
3100
0110
1001
,
0001
0000
0100
0000
0001
0100
0010
0000
,
1000
0001
0010
0000
0001
1000
0010
0000
,
1000
0000
0100
0000
1000
0100
0010
0000
,
0001
0100
0010
0000
1000
0100
0010
0000
,
0100
0000
1000
0000
0100
1000
0001
0000
,
1000
0010
0100
0000
0001
0010
0100
0000
,
1000
1000
0001
0001
,
1000
0010
0100
0000
0001
0010
0100
1000
,
0001
0000
0100
0000
0010
0100
0001
2000
,
0000
0000
3001
0000
0001
0100
0010
0000
,
1000
0000
0100
0000
0010
0100
1000
0002
,
0000
0103
0110
1001
,
1000
0000
0100
0000
1000
0100
0010
0000
,
0100
1000
0010
0000
1000
0100
0010
0000
,
0001
0000
0100
0000
0001
0100
0010
0000
,
0100
0001
0010
0000
0100
0010
0001
0000
,
1000
0000
0010
0000
1000
0001
0010
0000
,
0001
1000
0010
0000
1000
0001
0010
0000
,
0001
0000
0000
0001
0000
0000
0001
0000
1000
0000
0000
1000
0000
0000
1000
0000
,
0020
0000
0000
0000
0130
0010
1000
0001
,
0020
0032
0203
2300
,
3200
0000
0301
0000
0100
0010
1000
0000
,
0001
0010
0001
0000
1000
0010
2000
0000
,
3100
0000
0000
0000
0100
0000
0000
0000
1000
0000
0000
0001
0000
0000
1000
0000
,
0020
0230
0302
2003
,
3200
0000
0310
0000
0100
0010
0001
0000
,
1000
0010
1000
0000
0001
0010
0002
0000
,
0103
0010
1000
0000
2002
0000
3003
0000
,
0001
0000
0100
0000
0010
0100
0001
0000
,
0010
0100
1000
0000
0010
0100
0001
0000
,
1000
0100
1000
0100
1000
0100
1000
0000
,
0001
0100
0001
0100
0001
0100
0001
0000
,
1000
0100
0010
0001
1000
0000
0001
0000
,
0100
0010
1000
0000
0100
0010
0001
0000
,
1000
1000
0001
0001
,
1000
0100
0010
0000
0001
0100
0010
1000
,
0001
0000
0100
0000
0001
0100
0010
0000
,
0100
0001
0010
0000
0100
0010
0001
0000
,
1000
0000
0100
0000
1000
0100
0010
0000
,
0100
1000
0010
0000
0100
0010
1000
0000
,
0001
0000
1000
0001
0010
0100
0010
0100
,
1000
0001
1000
0001
0010
0100
0010
0100
,
1000
0011
1100
1010
,
0101
2000
3000
0020
,
2030
3200
0302
0203
,
1300
0000
0100
0010
0001
0000
1000
0010
,
1000
0000
0001
0010
0002
0000
0103
0000
,
0100
0000
0000
0000
0001
0000
0000
1000
0000
0000
0001
0000
0020
0000
0000
0000
,
0230
2300
3002
0203
,
0310
0000
0100
0010
1000
0000
0001
0010
,
0001
0000
1000
0010
2000
0000
3100
0010
,
0001
0000
0110
0000
1001
0000
0001
0100
,
0010
0000
0100
0010
1000
0000
0200
0000
,
0310
0000
0100
1000
0001
0000
0010
0001
,
0100
0000
0010
1000
0200
0000
0310
0000
,
0010
0000
0000
0000
0001
0000
0000
1000
0000
0000
0001
0000
0100
0000
0000
0000
,
0010
1000
0001
0000
0010
0001
2000
0000
,
3001
0000
0100
0010
1000
0000
0010
1000
,
0100
0000
0010
0001
0200
0000
0310
1000
,
0001
0000
1000
0100
0010
0001
1000
0000
,
1000
0010
0010
2000
,
3200
0302
0203
2300
,
3001
0000
0100
0000
0010
0000
1000
0010
,
0100
0000
0001
0010
0100
0000
0010
0000
,
0010
0001
0001
2000
,
3020
0230
0302
2003
,
0100
0000
3002
0000
0100
0103
0000
0220
,
0000
0000
0000
0000
,
0000
0000
0000
0000
0000
0000
0330
0000
0000
2002
0000
0000
0000
0000
0000
0000
,
0000
0000
0000
0000
,
0000
3003
0000
0000
;

//---------------dance-single - ----------------
#NOTES:
     dance-single:
     :
     Beginner:
     4:
     0.272787,0.351131,0.069018,0.276074,0.003834,249.000000,240.000000,9.000000,36.000000,0.000000,0.000000,0.272787,0.351131,0.069018,0.276074,0.003834,249.000000,240.000000,9.000000,36.000000,0.000000,0.000000:
0000
0000
0000
0000
,
0000
0000
0000
0000
,
0000
0000
0000
0000
,
0000
0000
0000
0000
,
2002
0000
3003
0000
,
1000
1000
0100
0010
,
0200
0300
0010
0010
,
0001
0001
0100
0010
,
0200
0300
0010
1000
,
0001
0001
0010
0100
,
0020
0030
0100
0100
,
1000
1000
0010
0100
,
0020
0030
0100
0001
,
1000
0100
1000
0000
,
0001
0100
0001
0000
,
0010
0001
0100
0000
,
0010
1000
0100
0000
,
0010
0001
0010
0000
,
0100
1000
0100
0000
,
1000
1000
0001
0001
,
0100
0010
0100
0010
,
1000
1000
0001
0010
,
0200
0300
0010
0010
,
0001
0001
1000
0010
,
0200
0300
0010
1000
,
0002
0003
0001
0000
,
0010
0001
0100
0010
,
2000
3000
1000
0000
,
0010
1000
0100
0010
,
0002
0003
0100
0000
,
1000
0000
0010
0000
,
0001
0100
1000
0010
,
0002
0000
0003
0000
,
0010
0010
0001
0001
,
0200
0300
0010
0010
,
1000
0001
1000
0002
,
0003
1000
0100
0100
,
0000
0010
0100
1000
,
0002
0003
1000
1000
,
0010
0100
0010
0200
,
0300
0010
2002
3003
,
0001
0100
0001
0000
,
1000
0100
1000
0000
,
0001
0100
1000
0000
,
1000
0010
0001
0000
,
1000
0010
1000
0000
,
0001
0100
0001
0000
,
1000
1000
0001
0001
,
1000
0100
0001
0010
,
2000
3000
1000
0000
,
0010
1000
0100
0010
,
0002
0003
0001
0000
,
0010
0001
0100
0010
,
1000
0100
0010
0001
,
0100
1000
0100
0001
,
0110
2002
0000
3003
,
0101
1010
0000
0010
,
0010
1000
1000
0200
,
0300
0010
0010
0001
,
1000
0001
2000
3000
,
0001
0100
0100
0000
,
0010
0100
0001
2000
,
3000
0001
0001
0010
,
0100
0010
0200
0300
,
0010
0001
1000
0000
,
0001
0100
0010
2000
,
3000
0100
0010
0001
,
0100
1000
0200
0300
,
0001
0010
0100
0000
,
0010
0001
1000
0020
,
0030
0100
0010
1000
,
0100
0001
0200
0300
,
0220
0000
0330
1000
,
0000
0010
0000
1000
,
0100
0010
0001
1000
,
0000
0001
0000
0100
,
0100
0010
1000
0001
,
0000
0010
0000
0001
,
0010
0100
1000
0001
,
0000
0000
0100
0000
0010
0000
0000
2002
,
0000
0000
0000
0000
,
0000
0000
0000
0000
0000
0000
3003
0000
0000
2002
0000
0000
0000
0000
0000
0000
,
0000
0000
0000
0000
,
0000
3003
0000
0000
;
