#TITLE:Damage Per Second;
#SUBTITLE:;
#ARTIST:Maozon;
#TITLETRANSLIT:;
#SUBTITLETRANSLIT:;
#ARTISTTRANSLIT:;
#CREDIT:;
#BANNER:;
#BACKGROUND:;
#LYRICSPATH:;
#CDTITLE:;
#MUSIC:Damage Per Second.mp3;
#OFFSET:-0.020;
#SAMPLESTART:33.920;
#SAMPLELENGTH:10.840;
#SELECTABLE:YES;
#BPMS:0.000=177.000;
#STOPS:;
#BGCHANGES:-2.125=Damage Per Second.avi=1.000=1=0=1,
99999=-nosongbg-=1.000=0=0=0 // don't automatically add -songbackground-
;

//---------------dance-single - ----------------
#NOTES:
     dance-single:
     :
     Hard:
     8:
     0.609,0.619,0.506,0.266,0.040: // measure 1
0000
0000
0000
0000
,  // measure 2
0000
0000
0000
0000
,  // measure 3
0000
0000
0000
0000
,  // measure 4
0000
0000
0000
0000
,  // measure 5
0000
0000
1000
0100
,  // measure 6
2002
0000
0000
0000
,  // measure 7
0000
0000
3003
0000
,  // measure 8
0101
0000
0000
0110
0000
0000
0000
1010
,  // measure 9
0000
0000
0000
2002
0000
0000
3003
0000
,  // measure 10
1000
0000
0001
0100
0000
0100
0010
0000
,  // measure 11
0010
1000
0000
1000
0100
0000
0010
0001
,  // measure 12
1000
0000
0001
0100
0000
0010
1000
0000
,  // measure 13
1000
0100
0000
0010
0011
0000
1001
0000
,  // measure 14
1000
0000
0001
1000
0000
1000
0100
0010
,  // measure 15
0001
0000
0100
0000
0000
0000
0100
0000
0001
0000
0000
0100
0000
0000
0001
0000
,  // measure 16
1000
0000
1000
0010
0000
0010
0100
0000
,  // measure 17
0001
0000
1000
0000
0000
0001
0000
0000
1000
0000
0000
0001
0000
0000
0010
0000
,  // measure 18
0001
0200
0010
0000
0301
0000
1000
0100
,  // measure 19
0010
0100
1000
0100
0010
0001
0000
0001
,  // measure 20
1000
0020
0100
0000
1030
0000
0001
0010
,  // measure 21
0100
0010
0001
1000
0010
0100
0001
0000
,  // measure 22
1000
0100
1000
0010
0100
0001
0010
0001
,  // measure 23
1000
0001
0010
0001
0100
0010
1000
0001
,  // measure 24
0020
0000
0000
0030
,  // measure 25
1001
0000
0000
1001
0000
0000
0110
0000
0000
0220
0000
0000
0330
0000
0000
0000
,  // measure 26
1001
0000
0001
0100
0010
0000
0100
0000
,  // measure 27
0010
0000
1000
0100
0010
0000
0011
0000
,  // measure 28
1001
0000
1000
0100
0010
0000
0100
0000
,  // measure 29
1000
0001
0100
0001
0010
0100
0110
0000
,  // measure 30
1001
0000
0001
0100
0001
0000
1000
0000
,  // measure 31
0100
0010
0001
1000
0010
0100
0100
0010
,  // measure 32
0110
0000
0000
1010
0000
0000
0000
1100
,  // measure 33
0000
0000
0000
0022
0000
0000
0033
0000
,  // measure 34
1001
0000
0001
0100
0010
0100
0001
0000
,  // measure 35
1000
0100
0010
0100
1000
0000
1100
0000
,  // measure 36
1001
0000
1000
0100
0010
0000
0100
0000
,  // measure 37
0010
0001
0100
0001
1000
0010
1010
0000
,  // measure 38
1001
0000
0001
0100
0010
1000
0100
0000
,  // measure 39
1000
0010
0100
0001
0020
0000
0031
0000
,  // measure 40
1001
0000
0001
0100
0000
0100
0010
1000
,  // measure 41
0000
1000
0001
2002
0000
0000
3003
0000
,  // measure 42
1100
0000
0010
0001
0100
0001
1000
0000
,  // measure 43
0001
0100
0000
0100
0010
0000
0010
1000
,  // measure 44
0001
0000
1000
0100
0010
0001
0100
0000
,  // measure 45
0001
0100
0000
0010
1010
0000
1001
0000
,  // measure 46
0011
0000
0001
1000
0010
0000
1000
0000
,  // measure 47
0001
0000
0000
0000
0010
0000
0001
0000
0100
0000
0000
0010
0000
0000
0100
0000
,  // measure 48
0010
0000
1000
0100
1000
0000
0001
0100
,  // measure 49
0000
0100
0001
1000
0100
0010
0001
0100
,  // measure 50
0110
0000
1000
0010
0100
0001
0100
0000
,  // measure 51
0010
1000
0000
0001
0100
0000
0010
1000
,  // measure 52
0100
0000
0010
0001
1000
0010
0100
0000
,  // measure 53
0001
0010
0000
0100
1100
0000
0110
0000
,  // measure 54
1001
0000
1000
0100
0010
0000
0100
0000
,  // measure 55
0010
0000
0000
0000
0001
0000
1000
0000
0001
0000
0000
1000
0000
0000
0010
0000
,  // measure 56
0100
0000
0001
1000
0000
0000
2002
0000
,  // measure 57
3003
0000
1100
0000
0000
0110
0000
0000
0011
0000
0000
2002
3003
0000
0000
0000
,  // measure 58
0002
0100
0000
0000
0100
0000
0000
1003
,  // measure 59
0000
0001
0000
1000
0100
0010
0000
0001
,  // measure 60
2000
0100
0000
0000
0100
0000
0000
3001
,  // measure 61
0000
0100
0000
0001
1000
0100
0010
0000
,  // measure 62
0002
0010
0000
0000
0010
0000
0000
1003
,  // measure 63
0000
0001
0000
0100
0010
1000
0000
0001
,  // measure 64
2002
0000
0000
3003
,  // measure 65
0220
0000
0000
0330
,  // measure 66
1001
0000
0001
0100
0010
1000
0100
0000
,  // measure 67
1000
0100
1000
0001
0100
0000
0101
0000
,  // measure 68
1001
0000
0001
0010
0001
0100
0010
0000
,  // measure 69
1000
0010
0001
0010
1000
0001
0011
0000
,  // measure 70
1100
0000
0001
0100
0010
0100
1000
0100
,  // measure 71
0010
0100
0010
0100
0001
0010
0100
1000
,  // measure 72
1100
0000
0001
1001
0000
0000
1000
1100
,  // measure 73
0000
0000
0001
0201
0000
0000
0310
0000
,  // measure 74
0110
0000
0001
1000
0100
0010
0100
0010
,  // measure 75
0001
1000
0010
0100
0010
0000
2020
0000
,  // measure 76
3030
0000
1001
0001
0100
0001
0010
0001
,  // measure 77
1000
0100
0001
0100
1000
0001
0100
0000
,  // measure 78
0010
0100
0010
1000
0100
0010
0000
0001
,  // measure 79
0000
0100
0000
0001
1000
0100
0010
0001
,  // measure 80
0101
0000
0001
1001
0000
1000
0100
0220
,  // measure 81
0000
0000
0000
0000
,  // measure 82
0000
0000
0000
0000
,  // measure 83
0330
0000
0000
0000
;

//---------------dance-single - ----------------
#NOTES:
     dance-single:
     :
     Medium:
     6:
     0.486,0.510,0.373,0.275,0.022: // measure 1
0000
0000
0000
0000
,  // measure 2
0000
0000
0000
0000
,  // measure 3
0000
0000
0000
0000
,  // measure 4
0000
0000
0000
0000
,  // measure 5
0000
0000
0100
0100
,  // measure 6
2002
0000
0000
0000
,  // measure 7
0000
0000
3003
0000
,  // measure 8
1100
0000
0000
0110
0000
0000
0000
0011
,  // measure 9
0000
0000
0000
2002
0000
0000
3003
0000
,  // measure 10
0001
0000
0001
1000
0000
1000
0001
0000
,  // measure 11
0001
1000
0000
1000
0100
0000
0010
0000
,  // measure 12
0001
0000
0001
0100
0000
0100
0010
0000
,  // measure 13
0010
1000
0000
1000
0100
0000
0010
0000
,  // measure 14
0001
0000
0100
0001
0000
0001
0100
0000
,  // measure 15
0010
1000
0000
1000
0010
0000
1000
0000
,  // measure 16
0001
0000
1000
0100
0000
0010
0001
0000
,  // measure 17
0200
0000
0000
0300
,  // measure 18
0010
1000
0001
0000
1001
0000
1000
0000
,  // measure 19
0100
0010
0001
0100
,  // measure 20
0001
0100
0010
0000
0110
0000
0100
0000
,  // measure 21
0010
1000
0001
1000
,  // measure 22
0001
0100
0001
0000
0100
0010
0100
0000
,  // measure 23
0010
1000
0001
0000
1000
0001
1000
0001
,  // measure 24
0200
0000
0000
0000
,  // measure 25
0010
0000
0000
0010
0000
0000
0010
0000
0000
0020
0000
0000
0330
0000
0000
0000
,  // measure 26
1001
0100
0101
0010
,  // measure 27
1000
0100
0010
0011
,  // measure 28
1100
1000
1001
0010
,  // measure 29
0100
0010
0100
0000
0010
1000
0001
1000
,  // measure 30
0100
0010
0101
0010
,  // measure 31
1000
0010
0100
0000
1001
0000
0100
0000
,  // measure 32
0011
0000
0000
1100
0000
0000
0000
1010
,  // measure 33
0000
0000
0000
2002
0000
0000
3003
0000
,  // measure 34
1001
0000
0001
0100
0010
0000
1000
0000
,  // measure 35
0100
0001
0100
0110
,  // measure 36
1001
0000
0001
0100
0010
0000
1000
0000
,  // measure 37
0010
1000
0100
0000
0010
0001
0100
0000
,  // measure 38
0101
0000
0001
1000
0010
0000
0100
0000
,  // measure 39
0010
0000
1000
0000
0100
0010
0100
0000
,  // measure 40
1001
0000
0000
0101
0000
0000
0000
1001
,  // measure 41
0000
0000
0000
2200
0000
0000
3300
0000
,  // measure 42
0001
0000
0100
0010
1000
0000
0001
0000
,  // measure 43
1000
0100
0000
0010
0001
0000
0100
0000
,  // measure 44
0001
0000
1000
0100
0010
0000
0100
0000
,  // measure 45
1000
0001
0000
0002
0100
0000
0103
0000
,  // measure 46
1001
0100
1001
0010
,  // measure 47
1000
0000
0010
0100
0001
0000
1000
0000
,  // measure 48
0100
0000
0010
0000
1001
0000
0001
0100
,  // measure 49
0000
0001
0000
1000
0001
0000
1000
0000
,  // measure 50
0100
0000
1000
0010
0100
0000
0001
0000
,  // measure 51
0100
0001
0000
1000
0001
0000
1000
0100
,  // measure 52
0010
0000
0001
0100
0010
0000
1000
0000
,  // measure 53
0001
0100
0000
0020
0100
0000
0130
0000
,  // measure 54
0101
0010
1001
1000
,  // measure 55
0100
0000
0000
0000
0010
0000
0001
0000
0100
0000
0000
0001
0000
0000
1000
0000
,  // measure 56
0001
0000
0000
0100
0000
0000
0001
0000
,  // measure 57
0000
0000
2001
0000
0000
0001
0000
0000
0001
0000
0000
0002
3003
0000
0000
0000
,  // measure 58
0002
0100
0000
0000
0100
0000
0000
0200
,  // measure 59
0000
0000
0000
0303
,  // measure 60
0000
0001
0000
0000
1000
0000
0000
2002
,  // measure 61
0000
0000
0000
3003
,  // measure 62
0000
0100
0000
0000
0010
0000
0000
0220
,  // measure 63
0000
0000
0000
0330
,  // measure 64
2002
0000
0000
3003
,  // measure 65
0200
0000
0000
0300
,  // measure 66
0001
0000
0100
0000
0001
0100
0010
0000
,  // measure 67
0100
0000
0001
0000
1000
0100
0010
0000
,  // measure 68
1001
0000
1000
0000
0010
0100
0001
0000
,  // measure 69
1000
0100
0010
0100
1000
0000
0001
0000
,  // measure 70
0101
0000
0001
0000
1000
0010
1000
0010
,  // measure 71
1000
0010
1000
0010
1000
0001
1000
0000
,  // measure 72
1001
0000
0001
0200
0000
0300
0010
2000
,  // measure 73
0000
3000
0001
0020
0000
0000
0130
0000
,  // measure 74
0110
0000
0010
0001
1000
0000
0001
0000
,  // measure 75
0100
0000
0010
1000
0001
0000
2002
0000
,  // measure 76
3003
0000
0100
0010
0100
0010
0000
1000
,  // measure 77
0001
0010
0001
0000
1000
0100
0010
0000
,  // measure 78
0001
0000
0100
0000
0010
1000
0000
0100
,  // measure 79
0000
0010
0000
0001
0100
0001
1000
0001
,  // measure 80
0100
0000
0000
0101
0000
0000
0000
2002
,  // measure 81
0000
0000
0000
0000
,  // measure 82
0000
0000
0000
0000
,  // measure 83
3003
0000
0000
0000
;

//---------------dance-single - ----------------
#NOTES:
     dance-single:
     :
     Easy:
     4:
     0.369,0.400,0.426,0.249,0.000: // measure 1
0000
0000
0000
0000
,  // measure 2
0000
0000
0000
0000
,  // measure 3
0000
0000
0000
0000
,  // measure 4
0000
0000
0000
0000
,  // measure 5
0000
0000
0001
0001
,  // measure 6
2002
0000
0000
0000
,  // measure 7
0000
0000
3003
0000
,  // measure 8
1001
0000
0000
1001
0000
0000
0000
1001
,  // measure 9
0000
0000
0000
0220
0000
0000
0330
0000
,  // measure 10
1000
0100
1000
0001
,  // measure 11
0100
0001
0010
0010
,  // measure 12
0010
0001
0100
0001
,  // measure 13
1000
0100
0220
0330
,  // measure 14
0010
0001
1000
0100
,  // measure 15
1000
0001
0100
0010
,  // measure 16
1000
0001
1000
0001
,  // measure 17
0200
0000
0000
0300
,  // measure 18
1001
0000
0001
0000
,  // measure 19
0100
0001
1000
0100
,  // measure 20
0010
0000
0100
0000
,  // measure 21
0010
0001
1000
0001
,  // measure 22
0100
0100
0010
0010
,  // measure 23
1000
0001
1000
0010
,  // measure 24
1001
0000
0000
0000
,  // measure 25
0220
0000
0000
0330
,  // measure 26
1001
0000
0110
0000
,  // measure 27
0010
1000
0100
0010
,  // measure 28
0100
0000
0110
0000
,  // measure 29
0010
0001
1000
0001
,  // measure 30
1001
0000
0110
0000
,  // measure 31
0010
1000
0001
0010
,  // measure 32
0110
0000
0000
0110
0000
0000
0000
1001
,  // measure 33
0000
0000
0000
2002
0000
0000
3003
0000
,  // measure 34
1001
0000
0110
0010
,  // measure 35
1000
0100
0010
0001
,  // measure 36
1001
0000
0110
0100
,  // measure 37
0010
1000
0010
1000
,  // measure 38
1001
0000
0110
0010
,  // measure 39
0100
0010
0001
1000
,  // measure 40
1001
0000
0000
1001
0000
0000
0000
0110
,  // measure 41
0000
0000
0000
0220
0000
0000
0330
0000
,  // measure 42
0010
1000
0001
0010
,  // measure 43
0100
0010
0001
0001
,  // measure 44
0001
1000
0010
0100
,  // measure 45
0001
1000
0200
0300
,  // measure 46
0110
0010
1001
0000
,  // measure 47
0001
0100
0010
1000
,  // measure 48
0001
0100
0110
0000
,  // measure 49
0010
1000
0100
1000
,  // measure 50
0001
0100
0001
0010
,  // measure 51
0100
0010
0001
0001
,  // measure 52
0001
1000
0001
0100
,  // measure 53
0010
1000
0200
0300
,  // measure 54
1001
0100
0110
0000
,  // measure 55
0010
1000
0001
0010
,  // measure 56
0100
0000
0000
0100
0000
0000
0100
0000
,  // measure 57
0000
0220
0000
0000
0000
0000
0330
0000
,  // measure 58
0002
0000
0000
0000
,  // measure 59
0000
0000
0000
0000
,  // measure 60
0203
0000
0000
0000
,  // measure 61
0000
0000
0000
0000
,  // measure 62
0320
0000
0000
0000
,  // measure 63
2030
0000
0000
0000
,  // measure 64
0002
0000
0000
3003
,  // measure 65
0200
0000
0000
0300
,  // measure 66
0010
0100
0010
1000
,  // measure 67
0001
1000
0100
0100
,  // measure 68
0100
0010
0001
1000
,  // measure 69
0001
0100
0001
0110
,  // measure 70
0110
1000
0100
1000
,  // measure 71
0010
1000
0100
0010
,  // measure 72
1001
0000
0000
1001
0000
0000
0000
0110
,  // measure 73
0000
0000
0000
0220
0000
0000
0330
0000
,  // measure 74
0110
0000
0010
1000
,  // measure 75
1001
0000
0001
0020
,  // measure 76
0030
0110
0010
0001
,  // measure 77
1000
1000
0001
0100
,  // measure 78
0110
0000
0010
1000
,  // measure 79
1001
0000
0001
0010
,  // measure 80
0110
0000
0000
1001
0000
0000
0000
2002
,  // measure 81
0000
0000
0000
0000
,  // measure 82
0000
0000
0000
0000
,  // measure 83
3003
0000
0000
0000
;

//---------------dance-single - ----------------
#NOTES:
     dance-single:
     :
     Beginner:
     1:
     0.166,0.210,0.133,0.000,0.000: // measure 1
0000
0000
0000
0000
,  // measure 2
0000
0000
0000
0000
,  // measure 3
0000
0000
0000
0000
,  // measure 4
0000
0000
0000
0000
,  // measure 5
0000
0000
0100
0100
,  // measure 6
0100
0000
0000
0000
,  // measure 7
0000
0000
0000
0000
,  // measure 8
1001
0000
0000
0000
,  // measure 9
0000
0000
0000
0000
,  // measure 10
0001
0000
0100
0000
,  // measure 11
0001
0000
1000
0000
,  // measure 12
0100
0000
0010
0000
,  // measure 13
0100
0000
0010
0010
,  // measure 14
0010
0000
0100
0000
,  // measure 15
0010
0000
0001
0000
,  // measure 16
1000
0000
0001
0000
,  // measure 17
1001
0000
0000
0000
,  // measure 18
0110
0000
0000
0000
,  // measure 19
0010
0000
0100
0000
,  // measure 20
0001
0000
0000
0000
,  // measure 21
1000
0000
0001
0000
,  // measure 22
1000
0000
0100
0000
,  // measure 23
0010
0000
0001
0000
,  // measure 24
1001
0000
0000
0000
,  // measure 25
1001
0000
0000
0000
,  // measure 26
0001
0000
1000
0000
,  // measure 27
1000
0000
0001
0000
,  // measure 28
0100
0000
0010
0000
,  // measure 29
1000
0000
0100
0000
,  // measure 30
1001
0000
0010
0000
,  // measure 31
0001
0000
0100
0000
,  // measure 32
1001
0000
0000
0000
,  // measure 33
0000
0000
0000
0000
,  // measure 34
0001
0000
1000
0000
,  // measure 35
1000
0000
0001
0000
,  // measure 36
0100
0000
0001
0000
,  // measure 37
1000
0000
1000
0000
,  // measure 38
0100
0000
0010
0000
,  // measure 39
0001
0000
0100
0000
,  // measure 40
0110
0000
0000
0000
,  // measure 41
0000
0000
0000
0000
,  // measure 42
1001
0000
0000
0000
,  // measure 43
0001
0000
0100
0000
,  // measure 44
0010
0000
1000
0000
,  // measure 45
0100
0000
0010
0010
,  // measure 46
0010
0000
0000
0000
,  // measure 47
0001
0000
1000
0000
,  // measure 48
0010
0000
0000
0000
,  // measure 49
0100
0000
0010
0000
,  // measure 50
0100
0000
0000
0000
,  // measure 51
0010
0000
1000
0000
,  // measure 52
0001
0000
1000
0000
,  // measure 53
0001
0000
0010
0010
,  // measure 54
0010
0000
0000
0000
,  // measure 55
0001
0000
1000
0000
,  // measure 56
0010
0000
0000
0000
,  // measure 57
0000
0000
0000
0000
,  // measure 58
1001
0000
0000
0000
,  // measure 59
0000
0000
0000
0000
,  // measure 60
0100
0000
0000
0000
,  // measure 61
0000
0000
0000
0000
,  // measure 62
0010
0000
0000
0000
,  // measure 63
1000
0000
0000
0000
,  // measure 64
0001
0000
0000
0000
,  // measure 65
1001
0000
0000
0000
,  // measure 66
0001
0000
0100
0000
,  // measure 67
0001
0000
1000
0000
,  // measure 68
0100
0000
0010
0000
,  // measure 69
0100
0000
1000
0000
,  // measure 70
1001
0000
0001
0000
,  // measure 71
0100
0000
0010
0000
,  // measure 72
0110
0000
0000
0000
,  // measure 73
0000
0000
0000
0000
,  // measure 74
1001
0000
0001
0000
,  // measure 75
0100
0000
0001
0000
,  // measure 76
1000
0000
0100
0000
,  // measure 77
0010
0000
0100
0000
,  // measure 78
0010
0000
0010
0000
,  // measure 79
0001
0000
0001
0000
,  // measure 80
1001
0000
0000
0000
;
