#VERSION:0.83;
#TITLE:Xenogenesis;
#SUBTITLE:;
#ARTIST:Unknown artist;
#TITLETRANSLIT:;
#SUBTITLETRANSLIT:;
#ARTISTTRANSLIT:;
#GENRE:;
#ORIGIN:;
#CREDIT:;
#BANNER:banner.png.png;
#BACKGROUND:Xenogenesis-bg.png;
#PREVIEWVID:;
#JACKET:jacket.png.png;
#CDIMAGE:;
#DISCIMAGE:;
#LYRICSPATH:;
#CDTITLE:;
#MUSIC:Xenogenesis.ogg;
#OFFSET:-5.071999;
#SAMPLESTART:44.728001;
#SAMPLELENGTH:12.000000;
#SELECTABLE:YES;
#BPMS:0.000=72.500,
48.000=145.000;
#STOPS:;
#DELAYS:;
#WARPS:;
#TIMESIGNATURES:0.000=4=4;
#TICKCOUNTS:0.000=4;
#COMBOS:0.000=1;
#SPEEDS:0.000=1.000=0.000=0;
#SCROLLS:0.000=1.000;
#FAKES:;
#LABELS:0.000=Song Start;
#BGCHANGES:;
#KEYSOUNDS:;
#ATTACKS:
;

//---------------dance-single - ----------------
#NOTEDATA:;
#CHARTNAME:;
#STEPSTYPE:dance-single;
#DESCRIPTION:;
#CHARTSTYLE:;
#DIFFICULTY:Challenge;
#METER:10;
#RADARVALUES:0.539903,1.054942,0.127872,0.532799,0.372959,532.000000,514.000000,18.000000,75.000000,24.000000,0.000000,0.000000,0.000000,0.000000,0.539903,1.054942,0.127872,0.532799,0.372959,532.000000,514.000000,18.000000,75.000000,24.000000,0.000000,0.000000,0.000000,0.000000;
#CREDIT:;
#NOTES:
// measure 0
0000
0000
0000
0000
,  // measure 1
0000
0000
0000
0000
0000
0000
0000
0000
0000
0000
1000
0100
0020
0000
0230
0000
,  // measure 2
2300
0000
0000
0000
0001
0000
0000
0000
3001
0000
0001
0100
0020
0000
0230
0000
,  // measure 3
0302
1000
1003
0010
,  // measure 4
1000
0000
0000
0100
0000
0000
0010
0000
0001
0000
0001
0000
1000
0000
1000
0000
0001
0000
0000
0100
0000
0000
0010
0000
1000
0000
1000
0000
0000
0000
0000
0000
,  // measure 5
0001
0000
0000
0010
0000
0000
0100
0000
1000
0000
1000
0000
0001
0000
0001
0000
1000
0000
0000
0010
0000
0000
0100
0000
0001
0000
0001
0000
0000
0000
0000
0000
,  // measure 6
0010
0000
0000
0100
0000
0000
1000
0000
0001
0000
0001
0000
1000
0000
1000
0000
0010
0000
0000
0100
0000
0000
0001
0000
1000
0000
1000
0000
0000
0000
0000
0000
,  // measure 7
0010
0000
0000
0100
0000
0000
0001
0000
1000
0000
1000
0000
0001
0000
0001
0000
0010
0000
0000
0100
0000
0000
1000
0000
0001
0000
0001
0000
0000
0000
0000
0000
,  // measure 8
1000
0000
0000
0000
0000
0000
1000
0000
0000
0000
0000
0000
0001
0000
0000
0000
0000
0000
0001
0000
0000
0000
0000
0000
0100
0000
0000
0000
0000
0000
0100
0000
0000
0000
0000
0000
0010
0000
0000
1000
0010
1000
0010
0000
0000
1000
0000
0000
,  // measure 9
0001
0000
0000
0000
0000
0000
0001
0000
0000
0000
0000
0000
1000
0000
0000
0000
0000
0000
1000
0000
0000
1000
0000
0000
0010
0000
0000
0000
0000
0000
0010
0000
0000
0000
0000
0000
0100
0000
0000
0001
0000
0000
0100
0000
0000
0001
1000
0001
,  // measure 10
1000
0000
0000
0000
0000
0000
0000
0000
0000
0000
0000
0000
0100
0000
0000
0000
0000
0000
0000
0000
0000
0000
0000
0000
0010
0000
0000
0000
0000
0000
0000
0000
0000
0000
0000
0000
0010
0000
0000
0000
0000
0000
0000
0000
0000
0000
0000
0000
0001
0000
0000
0000
0000
0000
0000
0000
0000
0000
0000
0000
0100
0000
0000
0000
0000
0000
0000
0000
0000
0000
0000
0000
0010
0000
0000
0000
0000
0000
0000
0000
0000
0000
0000
0000
0010
0000
0000
0000
0000
0000
0000
0000
0000
0000
0000
0000
1000
0000
0000
0000
0000
0000
0010
0000
0000
0000
0000
0000
1000
0000
0000
0000
0000
0000
0010
0000
0000
0000
0000
0000
0100
0000
0000
0000
0000
0000
0000
0000
0000
0000
0000
0000
0100
0000
0000
0000
0000
0000
0000
0000
0000
0000
0000
0000
0001
0000
0000
0000
0000
0000
0000
0000
0000
0000
0000
0000
1000
0000
0000
0000
0001
0000
0000
0000
1000
0000
0000
0000
0001
0000
0000
0000
0000
0000
0000
0000
0000
0000
0000
0000
0001
0000
0000
0000
0000
0000
0000
0000
0000
0000
0000
0000
,  // measure 11
0010
0100
1000
0100
1000
0000
1000
0000
0001
0000
0001
0000
1000
0000
1000
0000
0010
0100
0010
0100
0001
0000
0001
0000
1001
0000
0000
0000
0100
0000
0000
0000
,  // measure 12
1001
0001
000M
0001
0100
1000
M000
1000
,  // measure 13
0100
0001
000M
0001
0010
1000
M000
1000
,  // measure 14
0100
000M
0001
0100
1000
M000
0010
0000
,  // measure 15
0100
0000
0001
0010
0100
0000
0020
0000
,  // measure 16
0031
0000
0100
0010
1000
0010
1000
0000
0001
0000
0010
0000
0000
0000
0100
0000
,  // measure 17
1000
0001
1000
0001
0100
0000
0100
0000
0001
0000
1000
0000
0000
0000
0010
0000
,  // measure 18
0100
0000
0100
0001
0010
0000
0010
0000
0100
0000
0100
0000
1000
0000
1000
0000
,  // measure 19
0001
0100
0001
0100
0010
0000
0010
0000
2000
0000
0001
0000
0001
0000
3001
0000
,  // measure 20
1000
0001
000M
0001
0100
1000
M000
1000
,  // measure 21
0100
0001
000M
0001
0010
1000
M000
1000
,  // measure 22
0100
0M00
0001
0100
0010
0M00
0100
0000
,  // measure 23
0001
0000
0010
0100
1000
0000
0002
0000
,  // measure 24
0103
0000
0010
1000
0010
1000
0001
0000
1000
0000
0100
0000
0000
0000
0010
0000
,  // measure 25
0001
0100
0001
0100
0010
0000
0010
0000
1000
0000
1000
0000
0000
0000
0001
0000
,  // measure 26
0010
0000
0100
1000
0001
0000
0001
0000
0100
0000
0100
0000
0010
0000
0010
0000
,  // measure 27
1000
0100
1000
0100
0010
0000
0010
0000
0002
0000
1000
0000
1000
0000
1003
0000
,  // measure 28
2000
3020
0032
2003
3200
0302
1003
0000
,  // measure 29
0002
0023
2030
3002
0103
0100
1000
1000
,  // measure 30
0002
0000
0203
0000
2300
0000
3002
0000
0023
0000
1030
0001
1000
0000
0000
0000
,  // measure 31
0002
0023
2030
3002
0203
2300
3002
2003
,  // measure 32
3002
0000
0103
0010
1000
0010
1000
0000
0002
0000
1000
0000
1003
0000
0100
0000
,  // measure 33
1000
0010
1000
0010
0100
0000
0100
0000
0001
0000
0001
0000
1000
0000
1000
0000
,  // measure 34
0100
0000
0010
0100
0010
0000
0100
0000
1000
0000
1000
0000
0001
0000
0001
0000
,  // measure 35
1000
0010
1000
0010
0100
0000
0100
0000
0002
0000
1000
0000
1000
0000
1003
0000
,  // measure 36
1001
0001
0100
0010
1000
0100
0010
0001
,  // measure 37
1000
0010
0200
2300
3200
0301
0020
1030
,  // measure 38
0020
0000
0031
0000
0001
0000
0100
0000
0010
0000
1000
0100
0010
0000
0001
0000
,  // measure 39
0100
0000
0000
0000
1000
0000
0000
0000
2000
0000
0000
0000
3200
0000
0000
0000
0302
0000
0000
0000
0013
0000
0000
0000
0200
0000
0000
0300
0200
0000
0000
0300
,  // measure 40
0010
0000
0001
1000
0001
1000
0100
0000
1000
0000
1000
0000
0001
0000
0001
0000
,  // measure 41
1000
0010
1000
0010
0100
0000
0100
0000
0001
0000
0001
0000
1000
0000
1000
0000
,  // measure 42
0001
0000
0010
0100
1000
0000
0001
0000
1000
0000
1000
0000
0001
0000
0001
0000
,  // measure 43
1000
0010
1000
0010
0100
0000
0100
0000
1002
0000
0000
0000
0103
0000
0000
0000
,  // measure 44
1001
1000
M000
1000
0010
0100
0M00
0100
,  // measure 45
0001
0010
00M0
0010
0001
0100
0M00
0100
,  // measure 46
1000
M000
0010
1000
0001
000M
0100
0000
,  // measure 47
0100
0000
1000
0100
0001
0000
0020
0000
,  // measure 48
0130
0000
0010
0001
0010
0001
1000
0000
0010
0000
1000
0000
0000
0000
1000
0000
,  // measure 49
0001
0100
0001
0100
0010
0000
1000
0000
0100
0000
0100
0000
0000
0000
1000
0000
,  // measure 50
0001
0000
0100
0010
1000
0000
0001
0000
0100
0000
0100
0000
0010
0000
0010
0000
,  // measure 51
1000
0100
0010
0001
1000
0000
1000
0000
0002
0000
1000
0000
1000
0000
1003
0000
,  // measure 52
1001
1000
M000
1000
0010
0100
0M00
0100
,  // measure 53
0001
0010
00M0
0010
0100
0001
000M
0001
,  // measure 54
0010
00M0
1000
0010
0100
0M00
1000
0000
,  // measure 55
0001
0000
0100
1000
0100
0000
0002
0000
,  // measure 56
1003
0000
0100
1000
0100
1000
0010
0000
0100
0000
0100
0000
0000
0000
0001
0000
,  // measure 57
1000
0001
1000
0001
0100
0000
0100
0000
0010
0000
0010
0000
0000
0000
1000
0000
,  // measure 58
0001
0000
0010
0100
1000
0000
0001
0000
0010
0000
0010
0000
0100
0000
0100
0000
,  // measure 59
1000
0010
1000
0010
0100
0000
0100
0000
0002
0000
1000
0000
1000
0000
1003
0000
,  // measure 60
2002
0000
3003
0220
0000
0000
0000
0000
,  // measure 61
0000
0330
2020
0000
0000
0000
0000
3030
,  // measure 62
0202
0000
0303
0022
0000
0000
0000
0000
,  // measure 63
0000
0033
2002
0000
0000
0000
0000
3003
,  // measure 64
0220
0000
0330
2020
0000
0000
0000
0000
,  // measure 65
0000
3030
0202
0000
0000
0000
0000
0303
,  // measure 66
2002
0000
3003
0220
0000
0000
0000
0000
,  // measure 67
0000
0330
2002
0000
3003
0000
0000
0000
;
