#TITLE:We Are!;
#SUBTITLE:;
#ARTIST:(BEMANI Cover);
#TITLETRANSLIT:;
#SUBTITLETRANSLIT:;
#ARTISTTRANSLIT:;
#GENRE:Anison;
#CREDIT:;
#BANNER:We Are!.png;
#BACKGROUND:We Are!-bg.png;
#LYRICSPATH:;
#CDTITLE:;
#MUSIC:We Are!.ogg;
#OFFSET:-0.360000;
#SAMPLESTART:85.699997;
#SAMPLELENGTH:15.000000;
#SELECTABLE:YES;
#BPMS:0.000000=168.000000
;
#STOPS:
;
#BGCHANGES:;
#KEYSOUNDS:;
#ATTACKS:;

//---------------dance-single - ----------------
#NOTES:
     dance-single:
     :
     Hard:
     9:
     0.705783,0.730490,0.729350,0.173655,0.186679,569.000000,485.000000,84.000000,20.000000,0.000000,0.000000,0.705783,0.730490,0.729350,0.173655,0.186679,569.000000,485.000000,84.000000,20.000000,0.000000,0.000000:
0000
0000
0000
0000
,
0000
0000
0000
0000
,
0000
0000
0000
0000
,
0000
0000
0000
0000
,
1010
1000
0001
0010
0000
0100
0000
0110
,
0000
0010
0000
0011
0000
0001
1000
0000
,
1020
0000
0130
0000
0010
0100
0001
0000
,
1000
0000
0000
1000
0100
0000
0000
0100
0010
0000
0001
1000
0001
0000
0000
0000
,
0101
0001
1000
0100
0000
0110
0000
0010
,
0000
0011
0000
0001
0000
1000
0010
0000
,
0110
0000
0100
0101
0000
0001
1001
0000
,
1000
1100
0000
0100
0110
0000
0010
0011
,
0001
0000
0000
0010
0100
0000
0000
0100
1000
0000
0000
1000
0001
0000
0100
0000
,
0010
0000
1010
0000
1000
0001
1000
0000
,
0001
0000
0000
0000
0010
0000
0000
0001
0010
0000
0100
0000
1000
0000
0010
0000
,
1000
1010
0101
0001
,
1000
0000
0100
1000
0010
0100
0001
1000
,
0100
0000
0110
0000
0011
0000
0001
1000
,
0010
0000
0100
0010
1000
0001
0010
0001
,
0101
0101
1010
1001
,
0011
0000
0000
0000
0000
0000
0000
0000
0000
0010
0000
0000
0100
0000
0000
0000
0000
0000
1100
0000
0000
0000
0000
0000
0000
0000
0000
0000
0000
0000
0100
0000
0000
0000
0000
0000
1000
0000
0000
0000
0010
0000
0000
0000
0100
0000
0000
0000
,
0001
1000
1001
0000
0001
0000
0010
0200
,
1000
0000
0010
0000
1300
0000
0100
1000
,
0001
0000
0000
0100
0001
0000
1000
0000
0010
0000
1000
0000
0001
0010
0001
0000
,
0010
0110
0110
0000
1100
1000
0001
0100
,
0010
1000
1010
0000
1000
0001
0010
0002
,
0100
1003
0011
0110
,
1100
0000
0000
0000
1000
0000
0001
0000
0100
0000
0000
0001
0100
0000
0010
0000
,
1000
0000
0001
0010
0001
0001
1000
1000
,
1010
0000
0000
0000
0010
0000
0000
0100
0010
0000
0100
0000
0001
0000
0000
0000
,
1000
0000
0000
0000
0100
0000
0000
0010
0100
0000
1000
0000
0001
0000
0100
0000
,
0001
0000
0000
0000
0010
0000
0000
0100
0010
0000
0001
0000
1001
0000
0000
0000
,
1000
1000
0010
0100
0001
0010
0001
0100
,
0010
0000
0000
1000
0010
0000
1000
0000
0001
0000
0010
0000
0001
0000
0000
0000
,
0101
0000
0000
0000
0100
0000
0100
0000
0010
1000
0001
0000
0010
0000
0100
0000
,
1100
0000
1000
0001
0100
0000
0101
0000
,
0002
0000
1003
0000
0001
0000
0010
0000
0100
0000
0000
0010
0100
0000
1000
0000
,
0010
0000
0000
0100
0010
0000
0100
0000
0001
0000
0001
0000
2000
0000
3010
0000
,
1000
0000
0001
0010
1010
0000
0011
0000
,
0101
0000
0100
0100
0010
1000
0001
0020
,
0000
0000
0130
0000
0000
0000
1001
0000
0000
0000
1010
0000
0010
0100
0001
0000
,
1000
0000
0000
0100
1000
0000
0010
0000
0100
0000
0001
0000
1000
0000
0010
0000
,
1000
0001
0010
0100
0001
0100
1000
0001
,
0100
0000
0101
0000
0001
1000
0010
1000
,
0001
0000
0011
0010
0100
1000
0010
0100
,
0110
0110
1010
0101
,
1001
0000
1000
0200
0010
0000
1300
1000
,
0100
0000
0000
0010
0001
0000
0000
0001
1000
0000
0000
1000
0010
0000
0000
0010
,
0200
0000
0000
0000
0000
0000
0000
0000
0000
0000
0301
0100
0001
0000
1000
0100
,
1000
0000
0000
0100
0000
0000
0010
0000
0001
0000
0001
0000
1000
0010
1000
0000
,
1010
0000
0010
0110
0100
0100
0001
1000
,
0000
0100
1000
0020
0000
0130
0010
1000
,
0001
0000
0021
0001
0000
0130
0010
0100
,
1000
0010
0000
1000
1001
0000
0011
0000
,
0110
0000
0000
0000
0100
0000
1100
0000
1000
0000
0000
0001
1000
0000
0001
0000
,
0100
0000
0010
0000
2010
3001
0000
0002
,
0100
0000
0000
0000
1003
0000
0001
0000
1000
0000
0000
0100
1000
0000
0010
0000
,
0100
0001
0001
1000
0100
0001
0100
1000
,
0001
0000
0100
0001
0100
0010
1000
0001
,
0011
0000
0000
0000
0000
0000
0000
0000
0000
1100
0000
0000
0000
0000
0000
0000
0000
0000
1001
0000
0000
0000
0000
0000
0000
0000
0000
0000
0000
0000
0001
0000
0000
0000
0000
0000
1000
0000
0000
0000
0010
0000
0000
0000
0100
0000
0000
0000
,
0001
0010
0110
0000
0100
1000
0010
0200
,
0001
0000
0010
0000
0301
0001
0100
0001
,
1000
0000
0000
0100
1000
0000
0010
0000
0100
0000
0001
0000
1000
0100
1000
0000
,
0010
0110
0110
0000
0101
0001
1000
0100
,
0010
0010
0110
0000
0100
1000
0001
0200
,
0010
0301
0101
1010
,
1000
0000
0000
0000
0001
0000
0020
0000
0100
0000
0000
0000
0031
0010
0001
0000
,
1000
0000
0000
0010
1000
0000
0001
0000
0000
0000
0100
0000
0001
0000
1000
0000
,
1001
0000
1000
1010
0000
0010
0100
0002
,
1000
0000
1003
0001
0100
0001
0001
1000
,
0100
0010
0001
0011
0000
1001
0000
2000
,
0010
0000
3010
2000
0001
0000
3001
0000
,
1001
0000
0000
0000
1000
0000
1000
0000
0100
0000
0100
0000
0010
0001
0010
0000
,
0110
0000
0010
0010
0001
0001
0100
0010
,
0110
1001
1010
0101
,
1001
0000
1000
1100
,
0100
0000
0000
0000
0010
0000
0000
0100
0010
0000
0001
0000
1000
0000
0000
0000
,
0010
0000
0010
0000
0100
0000
0000
0001
0100
0000
0010
0000
1000
0000
0001
0000
,
0010
0000
0100
0000
0010
0000
0000
0100
0010
0000
0001
0000
1000
0000
0010
0000
,
1010
0101
0011
1100
,
2002
3003
0000
0000
0000
0000
0000
0000
;

//---------------dance-single - ----------------
#NOTES:
     dance-single:
     :
     Easy:
     2:
     0.101712,0.208386,0.060779,0.008683,0.000000,82.000000,75.000000,7.000000,1.000000,0.000000,0.000000,0.101712,0.208386,0.060779,0.008683,0.000000,82.000000,75.000000,7.000000,1.000000,0.000000,0.000000:
// measure 0
0000
0000
0000
0000
,  // measure 1
0000
0000
0000
0000
,  // measure 2
0000
0000
0000
0000
,  // measure 3
0000
0000
0000
0000
,  // measure 4
1000
0000
0000
0000
,  // measure 5
0000
0000
0000
0000
,  // measure 6
0002
0000
0000
0000
,  // measure 7
0000
0000
0000
0000
,  // measure 8
1003
0000
0000
0000
,  // measure 9
0000
0000
0000
0000
,  // measure 10
0010
0000
0000
0000
,  // measure 11
0000
0000
0000
0000
,  // measure 12
0100
0000
0000
0000
,  // measure 13
0001
0000
0000
0000
,  // measure 14
0001
0000
0000
0000
,  // measure 15
1000
0000
0000
0000
,  // measure 16
1000
0000
0000
0000
,  // measure 17
0100
0000
0000
0000
,  // measure 18
0100
0000
0000
0000
,  // measure 19
0010
0000
0000
0000
,  // measure 20
0010
0000
0000
0000
,  // measure 21
0110
0000
0000
0000
,  // measure 22
0100
0000
0000
0000
,  // measure 23
0010
0000
0000
0000
,  // measure 24
0010
0000
0000
0000
,  // measure 25
0001
0000
0000
0000
,  // measure 26
0001
0000
0000
0000
,  // measure 27
1000
0000
0000
0000
,  // measure 28
1000
0000
0000
0000
,  // measure 29
1001
0000
0000
0000
,  // measure 30
1000
0000
0000
0000
,  // measure 31
0001
0000
0000
0000
,  // measure 32
0001
0000
0000
0000
,  // measure 33
0010
0000
0000
0000
,  // measure 34
0100
0000
0000
0000
,  // measure 35
0010
0000
0000
0000
,  // measure 36
0100
0000
0000
0000
,  // measure 37
1000
0000
0000
0000
,  // measure 38
0100
0000
0000
0000
,  // measure 39
1000
0000
0000
0000
,  // measure 40
0100
0000
0000
0000
,  // measure 41
1000
0000
0000
0000
,  // measure 42
0001
0000
0000
0000
,  // measure 43
1000
0000
0000
0000
,  // measure 44
0001
0000
0000
0000
,  // measure 45
0100
0000
0000
0000
,  // measure 46
0001
0000
0000
0000
,  // measure 47
0100
0000
0000
0000
,  // measure 48
0001
0000
0000
0000
,  // measure 49
0100
0000
0000
0000
,  // measure 50
0010
0000
0000
0000
,  // measure 51
0010
0000
0000
0000
,  // measure 52
1000
0000
0000
0000
,  // measure 53
0001
0000
0000
0000
,  // measure 54
0010
0000
0000
0000
,  // measure 55
0010
0000
0000
0000
,  // measure 56
0001
0000
0000
0000
,  // measure 57
1000
0000
0000
0000
,  // measure 58
0100
0000
0000
0000
,  // measure 59
0010
0000
0000
0000
,  // measure 60
0110
0000
0000
0000
,  // measure 61
0010
0000
0000
0000
,  // measure 62
0001
0000
0000
0000
,  // measure 63
0001
0000
0000
0000
,  // measure 64
1000
0000
0000
0000
,  // measure 65
1000
0000
0000
0000
,  // measure 66
0100
0000
0000
0000
,  // measure 67
0100
0000
0000
0000
,  // measure 68
0110
0000
0000
0000
,  // measure 69
0100
0000
0000
0000
,  // measure 70
1000
0000
0000
0000
,  // measure 71
1000
0000
0000
0000
,  // measure 72
0001
0000
0000
0000
,  // measure 73
0001
0000
0000
0000
,  // measure 74
0010
0000
0000
0000
,  // measure 75
0010
0000
0000
0000
,  // measure 76
1001
0000
0000
0000
,  // measure 77
1000
0000
0001
0000
,  // measure 78
1001
0000
0000
0000
,  // measure 79
0001
0000
1000
0000
,  // measure 80
1001
0000
0000
0000
;

//---------------dance-single - ----------------
#NOTES:
     dance-single:
     :
     Medium:
     5:
     0.290252,0.451503,0.121558,0.104193,0.000000,234.000000,220.000000,14.000000,12.000000,0.000000,0.000000,0.290252,0.451503,0.121558,0.104193,0.000000,234.000000,220.000000,14.000000,12.000000,0.000000,0.000000:
// measure 0
0000
0000
0000
0000
,  // measure 1
0000
0000
0000
0000
,  // measure 2
0000
0000
0000
0000
,  // measure 3
0000
0000
0000
0000
,  // measure 4
1000
0000
0000
0000
0000
1000
0000
0001
,  // measure 5
0000
0000
0000
0010
0000
0000
0000
0000
,  // measure 6
0110
0000
0100
0000
,  // measure 7
1000
0100
0010
0001
,  // measure 8
1000
0000
0000
0000
0000
0001
0000
1000
,  // measure 9
0000
0000
0000
0100
0000
0000
0000
0000
,  // measure 10
0010
0000
0000
0010
0000
0000
0010
0000
,  // measure 11
0000
0010
0000
0000
0010
0000
0000
0002
,  // measure 12
0000
0000
1000
1003
,  // measure 13
0000
0001
1000
0000
,  // measure 14
0010
0000
0000
0010
0000
0000
1000
0000
,  // measure 15
0000
0001
1000
0000
,  // measure 16
0100
0000
0000
0100
0000
0000
1000
0000
,  // measure 17
0000
0100
0010
0000
,  // measure 18
0001
0000
0000
0001
0000
0000
1000
0000
,  // measure 19
0010
0100
0010
0000
,  // measure 20
1000
0000
0000
1001
0000
0000
0001
0000
,  // measure 21
0010
0000
0100
1000
,  // measure 22
0002
0000
0100
0100
,  // measure 23
1003
0000
0000
1000
0000
0000
0001
0000
,  // measure 24
0000
0010
0000
0000
0010
0000
0100
0000
,  // measure 25
0010
0000
0100
1000
,  // measure 26
0001
0001
0100
0010
,  // measure 27
1000
0200
0010
0000
,  // measure 28
0310
0000
0100
1000
,  // measure 29
1001
0000
0001
0000
,  // measure 30
0100
0000
0000
0001
0000
0000
0010
0000
,  // measure 31
0000
0100
1000
0000
,  // measure 32
0010
0000
0000
0100
0000
0000
0010
0000
,  // measure 33
1000
1000
0001
0010
,  // measure 34
0001
0000
0100
0000
,  // measure 35
0001
0001
1000
0010
,  // measure 36
1000
0000
0100
0000
,  // measure 37
0010
0010
0100
1000
,  // measure 38
0010
0000
0100
0001
,  // measure 39
0100
0000
0001
1000
,  // measure 40
0000
0001
0000
0010
0000
0100
0000
0000
,  // measure 41
1000
0000
0100
1000
,  // measure 42
0000
0100
0000
1000
0000
0000
0000
0000
,  // measure 43
0001
0000
0100
0001
,  // measure 44
2000
0000
3010
0000
,  // measure 45
1000
1000
0001
0001
,  // measure 46
0010
0000
0000
0010
0000
0000
0000
0000
,  // measure 47
0001
0001
1000
1000
,  // measure 48
0020
0000
0230
0000
,  // measure 49
0302
0000
1003
1000
,  // measure 50
0001
0000
0010
0010
,  // measure 51
0001
0000
0001
0001
,  // measure 52
1000
0000
0010
1000
,  // measure 53
0001
0100
0001
0001
,  // measure 54
1000
0000
0100
0100
,  // measure 55
0010
0100
1000
0010
,  // measure 56
0100
0000
0001
0100
,  // measure 57
0001
0001
1000
0100
,  // measure 58
0010
0000
0110
0000
,  // measure 59
0100
0000
0000
0100
0000
0000
1000
0000
,  // measure 60
0001
0000
0100
0001
,  // measure 61
2000
0000
0001
3001
,  // measure 62
1000
0100
0010
0100
,  // measure 63
0000
0010
0000
0000
0010
0000
0001
0000
,  // measure 64
1000
0000
0010
1000
,  // measure 65
0001
0001
0100
0001
,  // measure 66
0010
0020
0130
0000
,  // measure 67
0100
0200
1300
0100
,  // measure 68
1000
0000
0000
1000
0000
0000
0000
0001
,  // measure 69
0000
0000
0001
1000
,  // measure 70
0100
0000
0000
0100
0000
0000
0000
0010
,  // measure 71
0000
0000
0100
1000
,  // measure 72
0020
0000
0000
0130
0000
0000
0000
0000
,  // measure 73
0200
0000
0000
0001
0000
0000
0301
0000
,  // measure 74
0101
0101
0101
0101
,  // measure 75
1001
0000
0000
1000
,  // measure 76
0100
0000
0010
0000
,  // measure 77
0100
0000
1000
0001
,  // measure 78
1000
0000
0010
0000
,  // measure 79
0110
0110
0110
0110
,  // measure 80
1001
0000
0000
0000
;
