#TITLE:The 6th KAC DJ TOTTO's SELECTION;
#SUBTITLE:;
#ARTIST:remixed by DJ TOTTO Gt.TATSUYA;
#TITLETRANSLIT:;
#SUBTITLETRANSLIT:;
#ARTISTTRANSLIT:;
#GENRE:;
#CREDIT:;
#BANNER:[Round 2] - The 6th KAC DJ TOTTO's SELECTION.png;
#BACKGROUND:[Round 2] - The 6th KAC DJ TOTTO's SELECTION-bg.png;
#LYRICSPATH:;
#CDTITLE:;
#MUSIC:[Round 2] - The 6th KAC DJ TOTTO's SELECTION.ogg;
#OFFSET:0.393566;
#SAMPLESTART:10.400000;
#SAMPLELENGTH:15.000000;
#SELECTABLE:YES;
#DISPLAYBPM:179.000000:234.000000;
#BPMS:0.000000=200.000000
,88.000000=100.000000
,89.000000=200.000000
,99.000000=179.000000
,121.000000=89.500000
,121.500000=358.000000
,122.000000=179.000000
,131.000000=89.500000
,131.500000=179.000000
,132.500000=89.500000
,133.000000=179.000000
,151.000000=89.500000
,152.000000=179.000000
,166.500000=179.524002
,167.500000=180.552002
,168.500000=181.593994
,169.500000=182.621002
,170.500000=183.647995
,171.500000=184.647995
,172.500000=185.671005
,173.500000=186.667007
,174.500000=187.673004
,175.500000=188.662994
,176.500000=189.649994
,177.500000=190.634003
,178.500000=191.613998
,179.500000=192.591003
,180.500000=193.548004
,181.500000=194.516006
,182.500000=195.000000
,196.000000=390.000000
,196.500000=195.000000
,196.750000=97.500000
,197.000000=195.000000
,236.000000=97.500000
,237.000000=195.000000
,243.000000=97.500000
,244.000000=195.000000
,247.000000=97.500000
,247.500000=195.000000
,250.500000=97.500000
,251.000000=195.000000
,259.000000=234.000000
,289.000000=117.000000
,290.000000=234.000000
,315.000000=117.000000
,315.500000=234.000000
,316.500000=117.000000
,317.000000=234.000000
,326.000000=117.000000
,327.000000=234.000000
,341.000000=117.000000
,342.000000=234.000000
,346.000000=117.000000
,348.000000=234.000000
,362.000000=117.000000
,363.000000=234.000000
,371.000000=117.000000
,371.500000=234.000000
,373.500000=117.000000
,374.000000=234.000000
;
#STOPS:121.500000=0.251000,
164.000000=0.084000,
164.250000=0.084000,
164.500000=0.084000,
164.750000=0.084000,
165.000000=0.042000,
165.125000=0.042000,
165.250000=0.042000,
165.375000=0.041000,
165.500000=0.042000,
165.625000=0.042000,
165.750000=0.042000,
165.875000=0.041000,
319.500000=0.256000
;
#BGCHANGES:;
#KEYSOUNDS:;
#ATTACKS:;

//---------------dance-single - ----------------
#NOTES:
     dance-single:
     :
     Challenge:
     10:
     0.825516,1.164143,0.284061,0.357105,0.762907,712.000000,677.000000,35.000000,44.000000,0.000000,0.000000,0.825516,1.164143,0.284061,0.357105,0.762907,712.000000,677.000000,35.000000,44.000000,0.000000,0.000000:
// measure 0
0000
0000
0000
0000
,  // measure 1
0000
0000
0000
0000
,  // measure 2
0000
0000
0000
0000
,  // measure 3
0000
0000
0000
0000
,  // measure 4
0000
0000
0000
0000
,  // measure 5
0000
0000
0000
0000
,  // measure 6
0000
0000
0000
0000
,  // measure 7
2000
0000
3020
0000
,  // measure 8
0130
0001
0000
0010
0000
0100
1000
0001
0100
0010
0000
0000
,  // measure 9
1000
0000
1000
0010
0000
0010
0001
0000
0001
0010
0000
0010
,  // measure 10
0100
0000
0100
0001
0100
0001
1000
0010
1000
0001
0010
0001
,  // measure 11
1000
0100
0010
0001
0010
0100
1000
0001
0100
0010
1000
0010
,  // measure 12
0100
0000
1001
0000
0101
0000
0110
0000
1001
0000
1100
0000
,  // measure 13
1000
0000
1000
0001
0100
0010
2000
0000
0000
3001
0000
0000
,  // measure 14
0001
0000
0001
1000
0100
0010
0002
0000
0000
0103
0000
0100
,  // measure 15
0010
0000
0000
1000
0100
0010
0001
0000
0000
0100
0001
1000
,  // measure 16
0001
0010
0001
0010
0100
0010
0001
0100
0010
1000
0001
0100
,  // measure 17
0110
0000
1001
0000
,  // measure 18
0001
0010
0100
1000
0010
0100
0002
0000
0000
1003
0000
0000
,  // measure 19
1010
0000
0101
0000
,  // measure 20
0002
0000
0000
1003
0000
0000
0010
0100
0010
1000
0100
0010
,  // measure 21
0011
0100
1100
0000
,  // measure 22
0200
0000
0000
1300
0010
1000
0200
0000
0000
1300
0000
1000
,  // measure 23
0001
0000
0001
0010
0100
1000
0001
0000
0001
0100
1000
0100
,  // measure 24
0001
1000
0100
0010
0001
0100
0010
1000
0001
2000
0000
0000
,  // measure 25
0000
0000
0000
0000
0000
0000
0000
0000
3000
0000
0000
0000
1010
0000
0000
0110
,  // measure 26
0000
0000
0101
0000
0001
0000
0010
0000
0100
0000
0000
0000
1000
0000
0000
0010
,  // measure 27
0000
0000
0100
0000
0010
0000
1000
0000
0100
0000
1000
0000
0001
0000
0000
0010
,  // measure 28
0000
0000
0100
0000
0010
0000
0001
0000
0100
0000
1000
0000
0100
0000
0000
0001
,  // measure 29
0000
0000
1000
0000
0100
0000
0001
0000
0100
0000
1000
0000
0010
0000
0000
1000
,  // measure 30
0000
0000
0000
0000
0000
0000
0000
0000
0001
0000
0000
0000
0000
0000
0000
0000
0020
0000
0000
0000
0100
0000
0000
0000
2000
3000
0000
0000
0000
0000
0000
0000
0031
0000
0000
0000
0000
0000
0000
0000
0000
0000
0000
0000
0100
0000
0000
0000
0000
0000
0000
0000
0000
0000
0000
0000
0001
0000
0000
0000
0000
0000
0000
0000
,  // measure 31
1000
0000
0010
0000
0100
0000
0001
0000
0010
0000
0000
0100
0000
0000
0001
0000
,  // measure 32
0100
0000
1000
0000
0010
0000
0100
0000
0001
0000
0001
0000
2000
3000
0010
0100
,  // measure 33
0010
0100
0002
0003
0101
0000
0000
1100
0000
0000
0101
0000
0100
0000
0010
0000
,  // measure 34
1000
0000
0001
0000
1000
0000
0000
0100
0010
0000
0001
0000
0100
0000
0010
1000
,  // measure 35
0010
0100
0001
0000
0010
0000
0000
0100
0010
0000
0001
0000
1000
0000
0001
0100
,  // measure 36
0010
1000
0001
0000
1000
0000
0000
0010
1000
0000
0100
0000
0010
0000
0000
0001
,  // measure 37
1000
0000
0000
0000
0100
0000
0000
0000
0001
0000
0000
0000
0000
0000
0100
0000
0000
0000
0000
0000
1000
0000
0000
0000
0020
0000
0000
0000
0130
0010
0100
0010
,  // measure 38
1000
0000
0000
1000
0100
0000
0010
0000
0100
0000
1000
0010
0100
0001
1000
0000
,  // measure 39
0001
0000
0000
0010
0100
0000
1000
0000
0010
0000
0100
0001
1000
0010
0100
0000
,  // measure 40
0101
0000
0000
0001
1000
0000
0100
0000
1100
0000
0000
1000
0001
0000
0010
0000
,  // measure 41
1200
0300
0000
0000
0200
0300
0000
0000
0020
0030
0000
0000
0020
0030
0000
0000
0001
0000
0100
0000
0001
0000
0100
0000
0010
0000
1000
0000
0010
0000
1000
0000
0001
0000
0000
0000
0000
0000
0000
0000
0000
0000
0000
0000
0100
0000
0000
0000
0000
0000
0000
0000
0000
0000
0000
0000
0010
0000
0000
0000
0000
0000
0000
0000
,  // measure 42
1000
0000
0100
0000
0010
0000
0100
0000
1000
0000
0000
0010
0000
0000
0100
0000
,  // measure 43
0001
0000
0010
0000
0100
0000
0010
0000
1000
0000
0000
0010
0000
0000
0001
0000
,  // measure 44
1000
0000
0010
0000
0001
0000
0010
0000
0100
0000
0000
0001
0000
0000
0010
0000
,  // measure 45
1000
0010
0100
1000
1100
0000
0010
0000
,  // measure 46
0101
0010
1100
0001
,  // measure 47
0110
0000
1000
0000
0001
0100
1000
0100
,  // measure 48
0001
0010
1000
0010
0002
0000
0000
0000
,  // measure 49
0000
0000
0203
0000
0301
0010
1000
0010
,  // measure 50
0001
0100
1000
0100
0010
1000
0100
0010
,  // measure 51
0001
0010
1000
0010
0100
0001
0100
0010
,  // measure 52
1000
0010
0001
1000
0010
0010
0200
0302
,  // measure 53
1003
0100
1000
0100
0020
0000
0032
0000
1003
0000
0010
0000
0001
0000
0010
0000
,  // measure 54
1000
0100
0010
0001
0200
0000
0310
0100
,  // measure 55
0001
0010
1000
0010
0002
0000
0103
0010
,  // measure 56
1000
0000
0100
0000
0001
0000
0100
1000
0001
0000
0010
0001
0100
0000
0001
1000
,  // measure 57
0010
0000
0000
0100
0000
0000
0002
0000
0000
0000
0000
0000
1003
0000
0000
0000
0001
0000
0000
0000
1000
0000
0000
0000
,  // measure 58
0100
0010
0001
0000
1000
0000
0001
0000
0001
0000
0100
0000
,  // measure 59
0010
1000
0001
0020
0000
0000
0130
0000
1000
0000
0010
0000
0000
0000
0100
0000
0000
0000
0001
0000
1000
0000
0100
0000
,  // measure 60
0000
0000
0001
0000
0000
0000
0100
0000
1000
0000
0010
0000
0000
0000
0100
0000
0000
0000
0001
1000
0001
2000
0000
0000
,  // measure 61
3001
0100
0001
0100
0010
0000
0000
1000
0001
1000
0001
0000
2000
0000
3001
0000
,  // measure 62
0000
0001
1000
0000
0100
0000
0010
0000
0010
0000
0002
0000
0103
0000
1000
0000
,  // measure 63
0100
0000
0000
0000
0000
0000
0001
0000
0000
0000
0000
0000
0010
0000
0000
0000
0000
0000
0001
0000
0000
1000
0000
0000
0000
0000
0000
0100
0000
0000
0010
0000
0000
0000
0000
0000
0001
0000
0000
0000
0000
0000
0000
0000
0101
0000
0000
0000
,  // measure 64
0000
1100
0000
1010
0000
0110
0000
0101
0000
2001
0000
0000
,  // measure 65
0000
0000
0000
0000
,  // measure 66
0000
0000
0000
0000
0000
0000
3000
0000
0000
0010
0100
0010
,  // measure 67
0100
0010
0100
0010
0100
0010
0100
0010
0100
0010
0100
0010
,  // measure 68
0100
0000
0010
0000
0100
0000
0000
0000
0000
0000
0000
0000
0000
0000
0000
0000
0000
0000
0001
0000
0000
0001
0000
0000
,  // measure 69
0000
1000
1000
0000
0001
0001
0000
1000
,  // measure 70
0010
0000
1001
0000
1001
0000
0001
0100
,  // measure 71
0100
0001
0000
1000
1000
0100
0000
1000
,  // measure 72
0010
0100
0002
1003
0001
0100
0001
0100
,  // measure 73
0010
0100
0010
0100
0010
1000
0010
1000
,  // measure 74
0001
0000
1000
0000
0001
1000
0001
1000
0100
0000
1000
0000
0100
0000
1000
0000
,  // measure 75
0100
0010
0100
0010
0001
1000
0001
1000
,  // measure 76
0001
0000
0010
0100
0010
0000
0010
0000
0001
0000
0100
0000
0001
0000
0100
0000
,  // measure 77
1000
0100
1000
0100
0010
0100
0010
0100
,  // measure 78
0001
0000
1000
0000
0100
0010
0100
0010
0001
0000
0100
0000
0020
0000
1030
0001
,  // measure 79
1000
0200
1300
1000
0001
0001
0010
0110
,  // measure 80
0010
0100
1000
0010
1000
0001
0100
1000
,  // measure 81
0100
0001
1000
0010
0200
0301
1000
0100
,  // measure 82
0001
0100
0010
0001
0100
1000
0001
0010
,  // measure 83
0100
0000
0001
0000
1000
0100
1000
0100
1000
0000
0000
0000
0010
0000
0100
0000
,  // measure 84
0010
0100
0001
1000
0100
0010
0001
0100
,  // measure 85
0010
0000
1000
0000
0002
0000
1003
1000
0001
0010
0001
0000
1000
0100
1000
0000
,  // measure 86
0100
0010
0100
0000
1000
0001
1000
0000
0020
0000
0130
0100
0002
0000
1003
0000
,  // measure 87
0100
0000
1000
0000
0000
0000
0100
1000
0100
0000
0010
0000
0000
0000
0010
0000
,  // measure 88
0001
0000
0010
0100
0010
0000
0100
0000
1000
0000
0000
0010
0000
0000
0100
0000
,  // measure 89
0000
0000
0001
0000
0000
0000
0100
0001
0100
0000
0010
0000
0000
0000
1000
0000
,  // measure 90
0100
0000
0000
0000
0100
0000
0000
0000
0010
0000
0000
0000
0010
0000
0000
0000
0002
0000
0000
0000
1003
0100
1000
0100
0010
0000
0000
0000
0010
0000
0000
0000
,  // measure 91
0000
0000
0001
1000
0001
0000
0100
0000
0000
0000
0010
0000
1000
0000
0100
1000
,  // measure 92
0001
0000
0010
0000
0001
0000
0000
0010
0000
0000
1100
0000
0002
0000
0103
0000
,  // measure 93
0000
0000
0100
0000
0010
0000
2000
0000
3001
0010
0001
0000
1000
0100
1000
0000
,  // measure 94
0001
0100
0001
0000
1000
0010
1000
0000
2002
0000
0000
0000
0000
0000
0000
0000
,  // measure 95
0000
0000
0000
0000
0000
3003
0000
0000
;
