#TITLE:Synthesizers;
#SUBTITLE:;
#ARTIST:The Hair Kid;
#TITLETRANSLIT:;
#SUBTITLETRANSLIT:;
#ARTISTTRANSLIT:;
#CREDIT:;
#BANNER:Synthesizers.PNG;
#BACKGROUND:Synthesizers-bg.PNG;
#LYRICSPATH:;
#CDTITLE:;
#MUSIC:Synthesizers.mp3;
#OFFSET:-0.020;
#SAMPLESTART:60.490;
#SAMPLELENGTH:15.120;
#SELECTABLE:YES;
#DISPLAYBPM:127.000;
#BPMS:0.000=126.995;
#STOPS:;
#BGCHANGES:;

//---------------dance-single - ----------------
#NOTES:
     dance-single:
     :
     Hard:
     8:
     0.526,0.512,0.160,0.200,0.288:
2002
0000
0000
0000
,
3003
0000
0000
0000
0000
0000
0000
0110
,
0220
0000
0000
0000
,
0330
0000
0000
0000
0000
0000
0000
1001
,
2002
0000
0000
0000
,
3003
0000
0000
0000
0000
0000
0000
0110
,
0220
0000
0000
0000
,
0330
0000
0000
0000
,
1000
0000
0001
0100
0001
0000
1000
0000
,
0100
0010
0001
0100
0001
0000
1000
0000
,
0001
0100
0010
1000
0100
0010
0001
0001
,
0001
0100
0010
1000
0100
1000
0001
0100
,
0010
0010
0010
0000
1000
0001
1000
0100
,
0010
0010
0010
0000
0001
1000
0001
0100
,
0010
0100
0001
0000
1000
0100
0010
0000
,
0001
0000
1000
0000
0001
1000
0001
0000
1000
0000
0010
0000
0100
0000
0000
0000
,
0101
0000
1001
0000
1000
0100
0010
0000
,
0001
1000
0001
0000
0100
0000
0010
0000
1000
0000
0100
0000
0010
0000
0010
0000
,
0100
1000
0100
0010
0100
0000
0010
0001
,
1000
0001
1000
0000
0001
0000
0100
0000
0010
0000
0000
0000
1000
0000
0100
0000
,
0010
0000
0010
0000
0100
0000
1000
0000
0001
0000
0100
0000
0010
0000
0100
0010
,
0100
0000
0001
0000
0100
0000
0000
0000
0001
0000
1000
0001
1000
0000
0100
0000
,
1000
0100
1000
0001
0100
0010
0100
0000
,
0001
0100
0010
0001
0010
1000
0001
0000
,
1001
0000
0000
0000
0001
0100
0001
0000
1000
0100
1000
0000
0001
0000
0000
0000
,
1000
0000
0100
0000
0010
0001
0200
0000
0000
0000
0001
0000
0301
0000
0000
0000
,
0001
0000
0100
0000
0001
0000
0000
0000
1000
0100
0000
1000
0100
0000
0000
0000
,
1000
0001
1000
0000
0001
0000
0200
0000
0000
0000
0010
0000
0310
0000
0000
0000
,
1000
0100
1000
0001
0010
0100
0010
0000
,
0001
0100
0001
1000
0010
0100
0001
0000
,
1002
1000
0100
0103
,
0001
0000
0100
0001
0100
0000
0001
0000
1000
0000
0100
0000
0010
0000
0001
0000
,
1000
0100
1000
0000
0001
0000
0100
0000
0010
0000
0000
1000
0000
0000
1000
0001
,
0000
1000
0001
0000
0010
0000
0100
0000
0010
0000
0000
0001
0000
0000
1000
0000
,
0001
0000
0100
0001
0100
0000
0001
0000
1000
0000
0000
0100
0000
0000
1000
0100
,
0000
0010
0001
0000
1000
0000
0001
0000
0100
0000
0000
0010
0000
0000
0100
0000
,
0001
1000
0001
0000
0010
0000
0001
0000
0100
0000
0000
0010
0000
0000
0010
0100
,
0000
0010
0100
0000
0001
0000
1000
0000
0100
0000
0000
1001
0000
0000
0100
0000
,
0001
0000
0100
0010
1000
0000
0001
0000
1000
0000
0000
0100
0000
0000
0010
0001
,
0000
0010
0001
0000
1000
0000
0001
0000
0100
0000
0000
0010
0000
0000
0100
0000
,
2002
0000
0000
0000
0000
0000
0000
0000
0000
0000
0000
0000
3003
0000
0000
1001
,
0000
1001
0000
0000
0001
0000
0100
0000
0001
0000
0000
0000
1100
0000
0000
0000
,
1000
0000
0100
0000
0010
0000
0001
0000
0100
0000
0000
0001
0000
0000
1000
0100
,
0000
0100
1000
0000
0001
0000
0100
0000
0010
0000
0000
1000
0001
0000
0000
0000
,
1000
0010
0000
1000
0010
0000
0100
0000
0001
0000
0010
0000
0001
0000
1000
0100
,
0000
1000
0000
0001
0100
0000
0010
0000
0100
0000
0000
0000
1001
0000
0000
0000
,
0100
0010
0100
0000
0010
0000
0001
0000
1000
0000
0001
0000
1000
0000
0001
0100
,
0000
1000
0000
0100
0001
0000
1000
0000
0100
0000
0000
0010
0000
0000
0001
0000
,
2000
0000
0010
0000
0001
0001
3001
0000
,
1000
0001
1000
0000
0010
0000
0200
0000
0000
0000
0010
0000
0310
0000
0000
0000
,
0020
0000
1000
0000
0100
0100
0130
0000
,
1000
0001
1000
0000
0001
0000
2000
0000
0000
0000
0001
0000
3001
0000
0000
0000
,
0001
0001
0002
0000
1000
1000
1003
0000
,
1000
0100
1000
0000
0001
0000
0200
0000
0000
0000
0001
0000
0301
0000
0000
0000
,
1002
1000
1000
0000
0100
0100
0103
0000
,
0001
1000
0001
1000
0001
0000
2000
0000
0000
0000
0001
0000
3001
0000
0000
0000
,
1000
0100
1000
0100
1000
0000
0001
0000
0100
0000
0000
0001
0000
0000
0100
0010
,
0000
0010
0100
0000
0001
0000
1000
0000
0100
0000
1000
0002
0000
0000
0103
0000
,
0010
0000
1000
0001
1000
0000
0100
0000
0010
0000
0000
0100
0000
0010
0001
0010
,
0000
0001
1000
0000
0010
0000
1000
0000
0001
0000
0000
1000
0100
0000
0010
0000
,
0001
1000
0001
1000
0001
0000
1000
0000
0100
0000
0000
1000
0000
0000
0001
1000
,
0000
1000
0001
0000
0100
0000
0010
0000
1000
0000
0000
0100
0000
0000
0010
0001
,
0010
0001
2000
0000
0010
0001
3001
0000
,
1000
0010
0100
0001
0010
0110
0000
2002
,
3003
0000
0000
0000
;

//---------------dance-single - ----------------
#NOTES:
     dance-single:
     :
     Medium:
     5:
     0.374,0.410,0.080,0.200,0.000:
2002
0000
0000
0000
,
3003
0000
0000
0000
0000
0000
0000
0100
,
0200
0000
0000
0000
,
0300
0000
0000
0000
0000
0000
0000
0001
,
0002
0000
0000
0000
,
0003
0000
0000
0000
0000
0000
0000
1000
,
2000
0000
0000
0000
,
3000
0000
0000
0000
,
0001
0000
1000
0000
0100
1000
0100
0000
,
1000
0000
0001
0000
0010
0001
0100
0000
,
0010
0100
0010
0000
1000
0000
0001
0000
,
1000
0100
1000
0000
0001
0100
0001
0000
,
1000
0000
0100
0000
1000
0001
0100
0000
,
0001
0000
0100
0000
0010
0100
0001
0000
,
1000
0100
0010
0000
0001
0010
0001
0000
,
1000
0000
0001
0000
0100
0010
0100
0010
,
1000
0000
0001
0100
0001
0000
1000
0100
,
0010
0001
1000
0000
0001
0000
0010
0001
,
2000
0000
0010
0000
3001
0000
0001
0100
,
0002
0000
0010
0000
1003
0000
1000
0100
,
0010
0000
0010
0001
0100
0000
0010
0000
,
1000
0000
0001
0100
0010
0000
0100
0000
,
1001
0000
0110
0000
0010
1000
0001
0000
,
1000
0100
0010
0001
1000
0000
0001
0000
,
0110
0000
1001
0000
1000
0100
1000
0000
,
0001
0000
0100
0002
0000
1000
1003
0000
,
1000
0000
1100
0000
1000
0001
0100
0000
,
0001
0100
0010
2000
0000
0001
3001
0000
,
1000
0001
0100
0000
0010
0000
0100
0000
,
0001
0010
0100
0000
0010
0000
0001
0000
,
2002
0000
0000
3003
,
1000
0100
1000
0001
,
0100
0001
0100
0000
0001
0000
1000
0000
,
0001
0000
0010
0001
0100
0000
0001
0000
,
1000
0100
0010
0000
0100
0000
1000
0000
,
0001
0000
0100
0010
0100
0000
0001
0000
,
1000
0000
0001
0100
0010
0000
0100
0000
,
0001
0000
1000
0100
1000
0000
0001
0000
,
1000
0000
0100
0010
0001
0000
1000
0000
,
0010
0100
0010
0100
0001
0000
1000
0000
,
2002
0000
0000
0000
0000
0000
0000
0000
0000
0000
0000
0000
0000
0000
0000
3003
,
0000
0000
0001
0100
0001
0000
1000
0000
,
0100
1000
0100
0000
1000
0000
0001
0000
,
0010
0001
0100
0010
0100
0000
0010
0000
,
1000
0001
1000
0000
0001
0000
0100
0000
,
0001
0010
0001
1000
0100
0000
1000
0000
,
0001
0000
0100
0010
1000
0000
0001
0000
,
1000
0100
1000
0001
0100
0000
0010
0000
,
1002
0000
0100
0000
,
0103
0010
1000
0002
0000
0100
0103
0000
,
2000
0000
0100
0000
,
3001
0100
0001
2000
0000
0100
3100
0000
,
1000
0100
2000
0000
3001
0100
0002
0000
,
1003
0100
0010
0002
0000
0100
0103
0000
,
0001
0100
0020
0000
0130
0010
2000
0000
,
3001
0010
0001
2000
0000
0001
3001
0000
,
1000
0100
1000
0000
0001
0000
0100
0000
,
0010
0100
0010
0100
0010
0000
0100
0000
,
0001
1000
0001
0000
1000
0000
0100
0000
,
0010
0001
0010
0001
1000
0000
0001
0000
,
0100
0010
1000
0000
0100
0000
0010
0000
,
0001
0010
0001
1000
0010
0000
0100
0000
,
0001
1000
0001
0000
0100
0010
0010
0000
,
1000
0000
0100
0000
0010
0001
0000
2002
,
3003
0000
0000
0000
;

//---------------dance-single - ----------------
#NOTES:
     dance-single:
     :
     Easy:
     3:
     0.221,0.256,0.064,0.112,0.000:
1001
0000
0000
0000
,
0000
0000
0000
0000
,
0110
0000
0000
0000
,
0000
0000
0000
0000
,
1001
0000
0000
0000
,
0000
0000
0000
0000
,
0110
0000
0000
0000
,
0000
0000
0000
0000
,
1000
0000
0001
0000
,
0100
0010
0100
0000
,
0001
0000
1000
0000
,
0100
0010
0001
1000
,
0001
0000
0100
0000
,
0001
0100
0001
0000
,
1000
0000
0100
0000
,
1000
0001
0100
0010
,
1000
0000
1000
0000
,
0001
0000
0001
0100
,
0010
0010
0010
0000
,
0100
0100
0100
0000
,
0010
1000
0001
0000
,
1000
0001
0010
0001
,
0100
0001
0100
0000
,
0001
1000
0001
0000
,
1001
1000
1000
0100
,
0010
0200
0000
0310
,
0100
0010
0001
1000
,
0001
2000
0000
3001
,
1000
0001
0100
0000
,
0001
1000
0100
0000
,
2002
0000
0000
3003
,
1000
0001
0100
0010
,
0100
0100
0100
0000
,
0001
0001
0001
0000
,
1000
0100
1000
0000
,
0001
0010
0001
0000
,
1000
0010
0100
0000
,
0001
0010
0100
0000
,
0001
1000
0001
0100
,
0010
1000
0100
0020
,
0030
0000
0000
0000
,
1001
0001
0100
0000
,
0001
1000
0100
0000
,
1000
0100
0010
0001
,
0100
0010
0100
0000
,
0010
1000
0001
0000
,
1000
0100
1000
0001
,
0100
0010
0100
0001
,
2000
0000
3200
0000
,
0320
0000
0000
0030
,
0002
0000
0203
0000
,
0320
0000
0000
0030
,
1000
0100
1000
0010
,
0200
0000
0000
0300
,
0010
0100
0001
0010
,
0002
0000
1000
1003
,
1001
0001
0100
0000
,
0001
0100
0010
0100
,
0001
1000
0100
0000
,
1000
0100
0010
0001
,
1000
0001
1000
0000
,
0001
0100
0010
0100
,
0001
1000
0100
0000
,
1000
0100
0010
0002
,
0003
0000
0000
0000
;

//---------------dance-single - ----------------
#NOTES:
     dance-single:
     :
     Beginner:
     1:
     0.129,0.153,0.064,0.000,0.000:
1001
0000
0000
0000
,
0000
0000
0000
0000
,
1001
0000
0000
0000
,
0000
0000
0000
0000
,
1001
0000
0000
0000
,
0000
0000
0000
0000
,
1001
0000
0000
0000
,
0000
0000
0000
0000
,
0001
0000
0100
0000
,
0001
0000
0001
0000
,
1000
0000
0100
0000
,
1000
0000
0000
0000
,
0001
0000
1000
0000
,
0001
0000
0000
0000
,
0100
0000
0010
0000
,
0100
0000
0100
0000
,
0100
0000
0010
0000
,
1000
0000
0000
0000
,
0001
0000
1000
0000
,
0001
0000
0000
0000
,
1000
0000
0100
0000
,
0010
0000
0001
0000
,
0100
0000
0100
0000
,
0100
0000
0000
0000
,
1001
0000
0001
0000
,
0100
0000
0000
0000
,
0001
0000
1000
0000
,
0100
0000
0100
0000
,
0010
0000
0001
0000
,
0100
0000
0010
0000
,
0110
0000
0000
0000
,
1001
0000
0000
0000
,
0001
0000
0001
0000
,
0100
0000
0100
0000
,
0001
0000
1000
0000
,
0100
0100
0100
0000
,
1000
0000
1000
0000
,
0001
0000
0100
0000
,
0010
0000
1000
0000
,
0001
0001
0001
0000
,
0100
0000
0000
0000
,
1001
0000
1000
0000
,
0100
0000
0000
0000
,
0010
0000
0001
0000
,
0100
0000
0000
0000
,
0001
0000
1000
0000
,
0001
0000
0000
0000
,
0100
0000
0010
0000
,
0100
0000
0100
0000
,
0100
0000
0000
0000
,
0010
0000
0010
0000
,
0010
0000
0000
0000
,
1000
0000
1000
0000
,
1000
0000
0000
0000
,
0001
0000
0001
0000
,
0001
0000
0001
0001
,
0001
0000
1000
0000
,
0100
0000
0010
0000
,
0001
0000
0100
0000
,
0001
0000
0100
0000
,
0010
0000
1000
0000
,
0001
0000
0010
0000
,
0001
0000
1000
0000
,
0100
0000
1000
1000
;

//---------------dance-single - ----------------
#NOTES:
     dance-single:
     :
     Challenge:
     10:
     0.787,0.820,0.328,0.168,0.944: // measure 1
2002
0000
0000
0000
0000
0000
0000
0000
0000
0000
0000
0000
0000
0000
0000
3003
,  // measure 2
0000
0000
0000
0000
0000
0000
0000
1100
,  // measure 3
2002
0000
0000
0000
,  // measure 4
3003
0000
0000
0000
0000
0000
0000
0101
,  // measure 5
2002
0000
0000
0000
,  // measure 6
3003
0000
0000
0000
0000
0000
0000
0110
,  // measure 7
2002
0000
0000
0000
,  // measure 8
3003
0000
0000
0000
,  // measure 9
0001
0100
0001
0100
0001
0000
1000
0000
0100
0010
0001
0010
0000
0000
0001
1000
,  // measure 10
0010
0100
0001
0010
0000
0001
0100
0010
1000
0100
1000
0000
0002
0000
0000
0000
,  // measure 11
0103
0010
0100
0010
1000
0001
1000
0001
0010
0100
0010
0000
0001
1000
0001
1000
,  // measure 12
0100
0010
0001
0100
0010
1000
0010
0100
0001
1000
0100
1000
0001
0010
0100
0010
,  // measure 13
0001
1000
0001
1000
0001
0000
0100
0010
1000
0001
1000
0001
1000
0000
0100
0000
,  // measure 14
0010
0001
0100
1000
0100
0000
0100
0001
0100
1000
0100
0010
1000
0001
1000
0000
,  // measure 15
0100
0010
0001
1000
0100
1000
0010
0000
0100
0001
0010
0100
0010
0000
1001
0000
,  // measure 16
0100
0000
0010
1000
0100
0000
0010
0001
0100
0000
0010
1000
0100
0000
0010
0001
,  // measure 17
0100
0000
0001
0001
0100
0000
1000
1000
0100
0000
0010
0100
0001
1000
0100
0010
,  // measure 18
0001
0100
0010
1000
0100
0000
0001
0000
0100
0000
1000
0010
0100
0001
1000
0000
,  // measure 19
0110
0000
0001
0100
0010
0000
1000
0100
0010
0000
0001
1000
0100
0001
0100
1000
,  // measure 20
0010
0100
0001
0010
0100
0000
0010
0001
1000
0000
0100
0000
1000
0100
1000
0000
,  // measure 21
0001
0100
0010
0100
0001
0000
1000
0010
0100
0010
1000
0001
0010
0000
0001
1000
,  // measure 22
0001
0000
0000
0100
0000
0000
0010
0000
0000
0000
0000
0000
0100
0000
0000
0010
0000
0000
1000
0000
0000
0100
0000
0000
0010
0000
0000
0001
0000
0000
1000
0000
0001
0000
1000
0000
0001
0000
0000
0000
0000
0000
1100
0000
0000
0000
0000
0000
,  // measure 23
1001
0000
0001
0000
0101
0000
0100
0010
1000
0100
0010
0100
0010
0000
0001
0000
,  // measure 24
1001
0000
1000
0000
1000
0100
0010
0001
0100
0000
0100
0001
1000
0000
0000
0000
,  // measure 25
0001
0100
0010
0000
1000
0100
0010
0000
0001
1000
0100
1000
0010
0000
0100
0001
,  // measure 26
0010
0100
0010
0001
1000
0001
2000
0000
0000
0000
0100
0000
3100
0000
0000
0000
,  // measure 27
1000
0000
0100
0000
1000
0000
0001
0000
0100
0001
0000
1000
0100
0000
1000
0000
,  // measure 28
0001
0010
0001
0100
0010
0000
1000
0000
0010
0000
0110
0000
1001
0000
0000
0000
,  // measure 29
1000
0100
0010
0001
1000
0010
1000
0000
0001
0100
0001
0000
1001
0000
0100
0000
,  // measure 30
0010
1000
0100
0010
0100
0010
0001
0000
1000
0000
0001
0100
0001
0000
1000
0100
,  // measure 31
1000
0001
0100
0001
1000
0100
0010
0001
0100
0010
1000
0010
0100
0001
0010
0000
,  // measure 32
1001
0000
0000
0000
0000
0000
1000
0000
0100
0000
0010
0000
0001
0000
0000
0000
0000
0000
0101
0000
0000
0000
0000
0000
0001
0000
0000
0100
0000
0000
0010
0000
0000
1000
0000
0000
0100
0000
0000
0010
0000
0000
0001
0000
0000
1000
0000
0000
,  // measure 33
0100
1000
0001
1000
0100
0000
0010
0000
0001
0000
0100
0000
0010
0000
0100
0001
,  // measure 34
0000
0001
0100
0000
0010
0000
1000
0000
0100
0000
0010
0000
1001
0000
1000
0000
,  // measure 35
0001
0000
0100
0010
1000
0100
0001
0000
0100
0000
1000
0000
0001
0000
1000
0010
,  // measure 36
0000
0010
0100
0001
0010
0000
0001
0000
1100
0000
1000
0000
0101
0000
0001
0000
,  // measure 37
1000
0100
1000
0001
0100
0000
0010
0000
0100
0000
0001
1000
0000
0001
0010
0100
,  // measure 38
0000
0010
0001
1000
0010
0000
0100
0000
0010
0000
0100
0000
1001
0000
0000
0000
,  // measure 39
1000
0000
0100
1000
0001
0100
0010
0000
0100
0000
0010
0000
0100
0001
0010
0100
,  // measure 40
0000
0010
0001
1000
0001
0000
0100
0000
1001
0000
0000
0001
0100
0000
0001
0000
,  // measure 41
2002
0000
0000
0000
0000
0000
0000
0000
0000
0000
0000
0000
0000
0000
3003
1001
,  // measure 42
0000
1001
0000
0001
0100
0010
0100
0000
0001
0000
1000
0100
0010
0000
0001
0000
,  // measure 43
1000
0001
0100
0001
1000
0000
0100
0000
0010
0000
0001
0100
0000
0010
0000
1001
,  // measure 44
0000
1000
0100
0010
0002
0000
0103
0010
2000
0000
0000
3100
0000
0001
0100
0000
,  // measure 45
1000
0001
0100
0010
0100
0000
0001
0000
0100
0010
1000
0100
0000
1100
0000
1001
,  // measure 46
0000
0110
0000
1000
0100
1000
0001
0000
0020
0000
0031
0100
0010
0000
0110
0000
,  // measure 47
1000
0100
0000
0010
0001
0000
0100
0000
0010
1000
0001
0100
0000
0101
0000
1001
,  // measure 48
0000
1100
0000
0000
1000
0100
0010
0001
0100
0010
1000
0100
0010
0001
0100
0000
,  // measure 49
0001
0000
0010
0000
0001
0000
0000
0000
1000
0100
0000
1000
0100
0000
0000
0000
,  // measure 50
1000
0001
1000
0001
1000
0000
0200
0000
0000
0000
0010
0000
0310
0000
0000
0000
,  // measure 51
1000
0001
1000
0000
0001
0000
0000
0000
0100
0000
0001
0100
0001
0000
0000
0001
,  // measure 52
1000
0001
1000
0001
1000
0000
0020
0000
0000
0000
0100
0000
0130
0000
0000
0000
,  // measure 53
0010
0000
1000
0000
0100
0000
0000
0100
0010
0001
0100
0000
0010
0000
0000
0000
,  // measure 54
1000
0100
1000
0001
0100
0000
0020
0000
0000
0000
0100
0000
0130
0000
0000
0000
,  // measure 55
1000
0000
0000
0000
0000
0000
0100
0000
0000
0010
0000
0000
0001
0000
0000
0000
0000
0000
0010
0000
0000
0001
0000
0000
0100
0000
0000
0000
0001
0000
0000
0000
1000
0000
0000
0000
0001
0000
0000
0000
0000
0000
0000
0000
0000
1000
0000
0000
,  // measure 56
0100
0010
0001
0100
0010
0000
2001
0000
0000
0000
0001
0000
3001
1000
0001
1000
,  // measure 57
0001
0100
0001
0100
0010
1000
0100
0000
1100
0000
0000
1001
0000
0001
0100
0010
,  // measure 58
0000
0100
0010
0100
0001
0000
1000
0000
0100
0000
0010
0001
0000
1000
0001
0000
,  // measure 59
0100
0010
0100
0001
1000
0100
0010
0000
0001
0000
1000
0010
0000
0010
0100
0001
,  // measure 60
0000
1000
0100
0001
0100
0000
1000
0000
0001
0000
0100
0010
0100
0000
0001
0000
,  // measure 61
1000
0100
1000
0001
0100
0010
0100
0001
1000
0000
0001
0100
0000
0010
1000
0100
,  // measure 62
0000
0010
0001
1000
0001
0100
1000
0100
0001
0000
1000
0100
0000
0010
0001
0100
,  // measure 63
0001
0100
0001
0000
1000
0000
0100
0000
0010
0000
0110
0000
1001
0000
0001
0100
,  // measure 64
0000
0010
1000
0100
0010
0001
0100
0001
0100
0000
0110
0000
0000
0000
2002
0000
,  // measure 65
3003
0000
0000
0000
;
