#TITLE:Surf;
#SUBTITLE:;
#ARTIST:Hyper Potions;
#TITLETRANSLIT:;
#SUBTITLETRANSLIT:;
#ARTISTTRANSLIT:;
#GENRE:;
#CREDIT:;
#BANNER:[Round 2] - Surf.png;
#BACKGROUND:[Round 2] - Surf-bg.png;
#LYRICSPATH:;
#CDTITLE:;
#MUSIC:[Round 2] - Surf.ogg;
#OFFSET:-0.416000;
#SAMPLESTART:49.964001;
#SAMPLELENGTH:12.500000;
#LASTBEATHINT:290.088165;
#SELECTABLE:YES;
#DISPLAYBPM:78.000000:155.000000;
#BPMS:0.000000=77.500000
,32.000000=155.000000
,284.000000=77.500000
;
#STOPS:59.750000=1.548000
;
#BGCHANGES:;
#KEYSOUNDS:;
#ATTACKS:;

//---------------dance-single - ----------------
#NOTES:
     dance-single:
     :
     Hard:
     9:
     0.578553,0.751039,0.370230,0.604458,0.317340,536.000000,487.000000,49.000000,80.000000,8.000000,0.000000,0.578553,0.751039,0.370230,0.604458,0.317340,536.000000,487.000000,49.000000,80.000000,8.000000,0.000000:
0000
0000
0000
0000
,
0000
0000
0000
0000
,
0000
0000
0000
0000
,
0000
0000
0000
0000
,
1000
0100
0010
0002
0000
0000
0103
0000
0001
0100
0010
2000
0000
0000
3010
0000
,
1000
0100
0010
0002
0000
0000
1003
0000
0010
1000
0001
0100
0000
0001
0010
0000
,
0001
0100
0010
2000
0000
0000
3100
0000
1000
0100
0010
0002
0000
0000
0013
0000
,
0001
0100
0010
2000
0000
0000
3001
0000
0010
0001
1000
0100
0000
1000
0010
0100
,
M001
0000
0000
0100
0001
0000
0010
0000
0100
0000
0000
0010
0100
0000
1000
0000
,
0010
0000
0000
1000
0010
0000
0100
0000
0010
0000
0100
0001
1000
0000
1000
0000
,
1000
0000
0000
0010
1000
0000
0100
0000
0010
0000
0000
0100
0010
0000
0001
0100
,
0001
0000
0000
0010
0100
0000
0010
0100
1000
0000
1000
0001
0000
0001
1000
0000
,
0100
0000
1000
0100
1000
0000
1000
0000
0010
0000
1000
0010
1000
0000
1000
0000
,
0100
0000
0010
0001
0010
0000
0010
0000
0001
0000
0100
0010
0100
0000
0100
0000
,
0001
0100
0001
0100
0010
1000
0010
1000
0001
0010
0001
0010
0100
1000
0100
10M0
,
1001
1000
0010
0220
0000
0030
0301
0101
,
0000
0001
0010
2200
0000
3000
0310
0000
,
1001
0001
0010
0220
0000
0300
0031
0001
,
1000
0010
0001
2000
0000
3100
0001
0000
,
1001
0001
0100
0220
0300
1000
1030
1010
,
0000
1000
0100
0022
0000
0003
0130
0000
,
2000
0100
0010
0002
0000
3000
0103
0100
,
0010
0001
1000
0200
0000
0301
0010
0001
,
1001
0001
0100
0220
0000
0300
1030
1010
,
0000
1000
0100
0022
0000
0003
0130
0000
,
1001
1000
0100
0220
0000
0030
1300
1000
,
0001
0100
0010
1000
1000
0001
0010
0100
,
1001
1000
0010
0220
0030
0001
0301
0101
,
0000
0001
0010
2200
0000
3000
0310
0000
,
0002
0010
0100
2000
0000
0003
3010
0100
,
0010
1000
0001
0010
0100
0100
0010
0010
,
0001
0000
0001
0100
0000
0100
0001
0000
1000
0000
0100
0000
0010
0000
0001
0000
,
1000
0000
1000
0100
0000
0100
1000
0000
0001
0000
0100
0000
0010
0000
1000
0000
,
0001
0000
0001
0010
0000
0010
0001
0000
0100
0000
0001
0000
0010
0000
0100
0000
,
1000
0000
1000
0010
0000
0010
1000
0000
0100
0000
1000
0000
0010
0000
0100
0000
,
0001
0000
0001
1000
0000
1000
0001
0000
0100
0000
0001
0000
1000
0000
0100
0000
,
0010
0000
0010
0100
0000
0100
0010
0000
0001
0000
1000
0000
0010
0000
0100
0000
,
0002
0010
0100
2003
,
3010
0000
1000
0001
0000
0010
0100
0000
2000
0000
30M1
0000
0000
0000
0000
0000
,
0001
0100
0001
0000
1000
0100
1000
0000
0001
0100
0001
0000
0020
0000
0000
0000
,
0130
0010
0100
0000
1000
0001
1000
0000
0020
0000
0000
0000
M130
0000
0000
0000
,
0001
0010
0001
0000
1000
0010
1000
0000
0001
0000
0000
0001
0100
0000
0010
0000
,
1000
0010
1000
0000
0200
0000
0000
0000
2300
0000
0000
0000
3M01
0000
0000
0000
,
0010
0001
0010
0000
0100
1000
0100
0000
1000
0010
1000
0000
0002
0000
0000
0000
,
1003
0100
1000
0000
0001
0010
0001
0000
2000
0000
0000
0000
301M
0000
0000
0000
,
1000
0100
1000
0000
0001
0010
0001
0000
0100
0000
0000
0100
0010
0000
1000
0000
,
1100
0000
0000
0011
0000
0000
2002
0000
0000
0000
0M00
0000
0000
0000
3003
0000
,
0011
0000
0000
0000
1100
0000
0000
0000
2000
0000
0000
3020
0000
0000
0130
0000
,
0101
0000
0000
0000
1010
0000
0000
0000
0020
0000
0000
2030
0000
0000
3001
0000
,
1100
0000
0000
0000
0011
0000
0000
0000
0002
0000
0000
0203
0000
0000
0310
0000
,
1010
0000
0000
0000
0101
0000
0000
0000
0100
0000
0001
1000
0001
1000
0001
0000
,
1001
0000
0000
0000
0110
0000
0000
0000
0020
0000
0000
2030
0000
0000
3100
0000
,
0110
0000
0000
0000
1001
0000
0000
0000
0002
0000
0000
0203
0000
0000
0310
0000
,
1000
0010
1000
0000
0001
0010
0001
0000
0100
0000
0000
0100
0010
0000
1000
0000
,
0001
0010
0100
2000
0000
0000
3010
0000
,
0110
0100
0001
0021
0000
0230
1000
1000
,
0000
0320
0000
0031
0010
0100
1000
0100
,
0110
0100
1000
1020
0000
0230
0001
0302
,
0000
0103
0010
2000
0000
3001
0010
0100
,
1100
1000
0010
0210
0000
0302
0010
0010
,
0000
2003
0000
3100
0010
0100
1000
0001
,
2000
0100
0010
3002
0000
0203
0010
0010
,
0000
0301
0010
0100
1000
0100
0010
0001
,
0101
0100
0010
0120
0000
2030
0100
0100
,
0000
3002
0000
0103
0010
0100
0001
1000
,
1010
0010
0100
0210
0000
0302
0010
0010
,
0000
1003
0010
0200
0000
0301
1000
0100
,
1100
1000
0010
0210
0000
0302
0010
0010
,
0000
2003
0000
3100
0010
0100
1000
0001
,
0201
0000
0000
2300
0000
0000
3020
0000
,
0000
0032
0000
0000
1003
0000
0110
0000
,
010M
0000
0000
0000
;

//---------------dance-single - ----------------
#NOTES:
     dance-single:
     :
     Easy:
     3:
     0.214798,0.295051,0.158670,0.173782,0.003778,199.000000,178.000000,21.000000,23.000000,8.000000,0.000000,0.214798,0.295051,0.158670,0.173782,0.003778,199.000000,178.000000,21.000000,23.000000,8.000000,0.000000:
0000
0000
0000
0000
,
0000
0000
0000
0000
,
0000
0000
0000
0000
,
0000
0000
0000
0000
,
0000
1000
0000
1000
,
0000
0001
0000
0010
,
0000
0001
0000
0001
,
0000
1000
0000
0010
,
011M
0000
0100
0000
,
0100
0000
0001
0000
,
0001
0000
0010
0000
,
0010
0000
0100
0000
,
1000
0000
1000
0000
,
0001
0000
0001
0000
,
0110
0000
0000
0000
0000
0000
0000
0000
1001
0000
0000
0000
0000
0000
0000
0M00
,
1001
0000
1000
0000
,
1001
0000
0001
0000
,
1002
0000
0013
0000
,
0100
0100
1000
1000
,
1001
0000
0001
0000
,
1001
0000
1000
0000
,
1200
1000
1000
1000
,
0310
0010
0001
0001
,
2001
0000
3010
0000
,
1002
0000
0013
0000
,
1001
0000
0110
0000
,
0100
0100
0010
0010
,
1002
0000
0103
0000
,
2001
0000
3100
0000
,
0120
0100
0100
0100
,
0031
0001
1000
1000
,
0010
1000
1000
0001
,
1000
0001
0001
0100
,
0001
0100
0100
0010
,
0110
0000
1001
0000
,
1000
0100
0100
0010
,
0010
0001
0001
0100
,
0200
0010
0010
0010
,
0301
0000
0000
0000
2002
30M3
0000
0000
,
0001
0001
0001
0001
,
0100
0100
0200
M300
,
0010
0010
0010
0010
,
1000
1000
2000
3M00
,
0001
0001
0010
0010
,
0100
0100
0020
003M
,
0100
0100
0010
0010
,
0002
0000
0000
0000
0000
0M00
0000
0000
,
1003
1000
1000
0000
,
0100
0100
0100
0000
,
0010
0010
0010
0000
,
0001
0001
0001
0000
,
0010
0010
0010
0000
,
0100
0100
0100
0000
,
1000
1000
1000
0000
,
0001
0001
0001
0000
,
0100
0000
0001
0000
,
1000
0000
0100
0000
,
0010
0000
0001
0000
,
1000
0000
0010
0000
,
1000
0000
0100
0000
,
0010
0000
0001
0000
,
0200
0010
0010
0010
,
0301
0000
1001
0000
,
0002
0000
0010
0000
,
0203
0000
0010
0000
,
0302
0000
0100
0000
,
2003
0000
0100
0000
,
3020
0000
0100
0000
,
2030
0000
0001
0000
,
3200
0000
0000
0320
,
0000
0000
0130
0000
,
10M1
0000
0000
0000
;

//---------------dance-single - ----------------
#NOTES:
     dance-single:
     :
     Medium:
     7:
     0.388580,0.429165,0.188893,0.241783,0.007556,360.000000,335.000000,25.000000,32.000000,8.000000,0.000000,0.388580,0.429165,0.188893,0.241783,0.007556,360.000000,335.000000,25.000000,32.000000,8.000000,0.000000:
// measure 0
0000
0000
0000
0000
,  // measure 1
0000
0000
0000
0000
,  // measure 2
0000
0000
0000
0000
,  // measure 3
0000
0000
0000
0000
,  // measure 4
1000
0010
0000
0100
0001
0100
0000
0010
,  // measure 5
1000
0100
0000
0001
0100
0010
0001
1000
,  // measure 6
0001
0010
0000
0100
1000
0100
0000
0010
,  // measure 7
0001
0100
0000
1000
0100
0010
1000
0001
,  // measure 8
10M0
1000
0100
0100
,  // measure 9
0010
0000
0010
0000
0001
0000
0001
0100
,  // measure 10
0001
0001
0010
0010
,  // measure 11
0100
0000
0100
0000
1000
0000
0100
1000
,  // measure 12
0001
0100
0001
0000
0100
0010
0100
0000
,  // measure 13
0010
1000
0010
0000
1000
0001
1000
0000
,  // measure 14
0001
0000
0010
0000
0100
0000
1000
0000
0010
0000
0100
0000
0001
0000
1000
0M00
,  // measure 15
0000
1000
0010
0200
0000
0000
0301
0000
,  // measure 16
0000
0100
0010
2000
0000
0000
3001
0000
,  // measure 17
0000
0100
0010
2000
0000
0000
3001
0000
,  // measure 18
0010
0100
1000
0001
0000
0001
0010
0000
,  // measure 19
0000
0001
0010
0200
0000
0000
1300
0000
,  // measure 20
0000
0100
0010
0002
0000
0000
1003
0000
,  // measure 21
2200
3000
0310
0001
,  // measure 22
0010
0100
1000
0001
0000
0001
0100
0010
,  // measure 23
0000
0001
0010
0200
0000
0000
0301
0000
,  // measure 24
0000
1000
0010
0200
0000
0000
0301
0000
,  // measure 25
0000
0010
0100
2000
0000
0000
3001
0000
,  // measure 26
0100
0010
1000
0001
0000
0001
0100
0000
,  // measure 27
0000
1000
0100
0020
0000
0000
1030
0000
,  // measure 28
0000
0100
0010
0002
0000
0000
0013
0000
,  // measure 29
0022
0003
0130
1000
,  // measure 30
0010
0000
0100
0000
0001
0001
1000
1000
,  // measure 31
0001
0000
0100
0000
0001
0010
0100
0010
,  // measure 32
0100
0000
1000
0000
0001
0100
0010
0100
,  // measure 33
0010
0000
0001
0000
1000
0100
0010
1000
,  // measure 34
0001
0000
1000
0000
0100
0100
0010
0010
,  // measure 35
0001
0000
0010
0000
0100
0010
0100
0010
,  // measure 36
0001
0000
0100
0000
0010
0100
0010
0000
,  // measure 37
2020
0030
3100
0010
,  // measure 38
0001
0100
0001
0100
0010
100M
0000
0000
,  // measure 39
0100
1000
0100
1000
0001
0100
0010
0000
,  // measure 40
0100
0001
0100
0001
0020
0000
M030
0000
,  // measure 41
0001
0100
0001
0100
0110
0000
1010
0000
,  // measure 42
1000
0001
0010
0000
0200
0000
03M0
0000
,  // measure 43
1000
0100
1000
0100
0010
0001
0100
0000
,  // measure 44
0001
0010
0001
0010
0200
0000
030M
0000
,  // measure 45
1000
0100
1000
0100
0110
0000
0011
0000
,  // measure 46
0001
0000
0000
1000
0000
0000
2002
0000
0000
0000
0M00
0000
0000
0000
3003
0000
,  // measure 47
0101
0101
0010
1000
,  // measure 48
1100
1100
0010
0001
,  // measure 49
1010
1010
0100
0001
,  // measure 50
0011
0000
0011
0000
1000
0100
0010
0001
,  // measure 51
1001
0110
0010
0100
,  // measure 52
0110
1001
0001
1000
,  // measure 53
1010
0101
0011
1100
,  // measure 54
0001
0010
0100
2000
0000
0000
3010
0000
,  // measure 55
1000
0100
0000
1000
0000
0010
0000
0200
,  // measure 56
0000
0000
0300
0100
0010
1000
0001
0010
,  // measure 57
0001
0100
0000
0001
0000
0010
0000
0100
,  // measure 58
0000
1000
0010
1000
0000
0001
0100
0001
,  // measure 59
0100
0010
0000
0001
0000
0010
0000
0200
,  // measure 60
0000
0000
0300
0100
0010
1000
0100
1000
,  // measure 61
2002
0000
3000
0000
0013
0000
0100
1000
,  // measure 62
0000
0001
0010
0001
0000
1000
0010
1000
,  // measure 63
0100
1000
0000
1000
0000
0010
0000
0200
,  // measure 64
0000
0000
0300
0100
0010
1000
0001
0100
,  // measure 65
0010
0001
0000
1000
0000
0100
0000
0001
,  // measure 66
0000
0000
1000
0100
0000
0001
0100
0010
,  // measure 67
0001
0100
0000
0001
0000
0010
0000
0200
,  // measure 68
0000
0000
0300
0100
0010
0001
1000
0010
,  // measure 69
0200
0000
0000
0302
0000
0000
0023
0000
,  // measure 70
0000
0230
0000
0000
1300
0000
0001
0000
,  // measure 71
M100
0000
0000
0000
;
