#TITLE:Lost Cause;
#SUBTITLE:;
#ARTIST:Intriga;
#TITLETRANSLIT:;
#SUBTITLETRANSLIT:;
#ARTISTTRANSLIT:;
#GENRE:;
#CREDIT:;
#BANNER:Lost Cause - Intrigabn.png;
#BACKGROUND:Lost Cause - Intrigabg.png;
#LYRICSPATH:Lost Cause - Intriga.lrc;
#CDTITLE:encorerebirth.png;
#MUSIC:Lost Cause.ogg;
#OFFSET:0.018;
#SAMPLESTART:39.088;
#SAMPLELENGTH:12.901;
#SELECTABLE:YES;
#BPMS:0.000=147.000
,168.000=73.500
,176.000=110.250
,188.000=147.000
;
#STOPS:
;
#BGCHANGES:;
#KEYSOUNDS:;
#ATTACKS:;

//---------------dance-single - Spork!----------------
#NOTES:
     dance-single:
     Spork! - Beginner:
     Beginner:
     2:
     0.141,0.194,0.026,0.173,0.000,91.000,3.000,20.000,0.000,0.000,0.000,0.141,0.194,0.026,0.173,0.000,91.000,3.000,20.000,0.000,0.000,0.000:
0000
0000
0000
0000
,
0000
0000
0000
0000
,
0000
0000
0000
0000
,
0000
0000
0000
0000
,
0001
0000
0000
0000
,
0100
0000
0000
0000
,
0001
0000
0000
0000
,
0010
0000
0000
0000
,
0020
0000
0030
0000
,
0001
0000
1000
0000
,
0002
0000
0003
0000
,
0100
0000
0010
0000
,
0020
0000
0030
0000
,
1000
0000
0001
0000
,
2000
0000
3000
0000
,
0100
0000
0100
0000
,
1000
0000
1000
0000
,
0001
0000
0001
0000
,
1000
0000
1000
0000
,
0001
0000
0001
0000
,
0100
0000
0100
0000
,
0010
0000
0010
0000
,
0100
0000
0100
0000
,
0010
0000
0010
0000
,
1000
0000
0100
0000
,
0010
0000
0001
0000
,
1000
0000
0100
0000
,
0010
0000
0001
0000
,
0001
0000
0100
0000
,
0010
0000
1000
0000
,
0001
0000
0100
0000
,
0010
0000
1000
0000
,
0002
0000
0003
0000
,
0110
0000
0000
0000
,
2000
0000
3000
0000
,
0110
0000
0000
0000
,
0020
0000
0030
0000
,
1001
0000
0000
0000
,
0200
0000
0000
0000
,
0000
0000
0000
0000
,
0310
0000
0000
0000
,
0000
0000
0000
0000
,
1000
0000
0000
0000
,
1000
0000
0000
0000
,
0001
0000
0000
0000
,
0000
0000
0001
0000
,
0000
0000
0000
0000
,
1000
0000
1000
0000
,
0100
0000
0100
0000
,
0010
0000
0010
0000
,
0001
0000
1000
0000
,
0001
0000
0001
0000
,
0100
0000
0100
0000
,
0010
0000
0010
0000
,
1000
0000
0001
0000
,
2000
0000
3000
0000
,
0020
0000
0030
0000
,
0020
0000
0230
0000
,
0302
0000
2003
0000
,
3002
0000
0003
0000
,
0200
0000
0300
0010
,
0020
0000
2030
0000
,
3001
0001
0002
0000
,
2003
0000
0000
0000
,
3000
0000
0000
0000
;

//---------------dance-single - Spork!----------------
#NOTES:
     dance-single:
     Spork! - Expert:
     Challenge:
     10:
     0.661,0.647,0.320,0.294,0.680,463.000,37.000,34.000,52.000,0.000,0.000,0.661,0.647,0.320,0.294,0.680,463.000,37.000,34.000,52.000,0.000,0.000: // measure 0
0000
0000
0000
0000
,  // measure 1
0000
0000
0000
0000
,  // measure 2
0000
0000
0000
0000
,  // measure 3
0000
0000
0000
0000
,  // measure 4
0001
0000
0000
0000
0100
0000
0010
1000
0000
0010
1000
0000
0000
0000
0100
0000
,  // measure 5
0000
1000
0000
0000
0010
0000
0100
0010
0000
0100
0010
0000
0000
0000
0010
0000
,  // measure 6
1000
0000
0000
0000
0100
0000
0010
0001
0000
0010
0001
0000
0000
0000
0100
0000
,  // measure 7
0000
0001
0000
0000
0010
0000
0100
0010
0000
0100
0010
0000
0001
1000
0001
0000
,  // measure 8
1000
0000
0010
0000
0100
0000
0001
0100
0000
0100
0001
0000
0010
0100
0010
0000
,  // measure 9
0001
0000
1000
0000
0010
0000
0100
0010
0000
0010
0100
0000
0001
0010
0001
0000
,  // measure 10
1000
0000
0100
0000
0010
0000
0100
1000
0000
1000
0001
0000
0100
0000
0010
0000
,  // measure 11
0100
0000
0001
0000
0010
0000
0001
1000
0000
1000
0001
0000
0100
0000
0010
0000
,  // measure 12
1000
0000
0000
0000
1200
0000
0000
0010
0300
0010
0100
0000
1000
0010
1000
0000
,  // measure 13
0001
0000
0000
0000
0201
0000
0000
0010
0300
0010
0100
0000
0001
0100
0001
0000
,  // measure 14
1000
0000
0000
0000
2010
0000
0000
0001
3000
0001
0010
0000
0100
0010
0001
0000
,  // measure 15
0010
0000
0000
0000
0012
0000
0000
1000
0003
1000
0100
0000
0010
0100
1000
0000
,  // measure 16
0001
0000
0200
0000
0000
0000
1300
0000
0000
0100
0000
0000
0001
0000
0001
0000
,  // measure 17
1000
0000
0020
0000
0000
0000
0031
0000
0000
0010
0000
0000
0100
0000
0100
0000
,  // measure 18
0001
0000
0020
0000
0000
0000
1030
0000
0000
0010
0000
0000
0001
0000
0001
0000
,  // measure 19
1000
0000
0200
0000
0000
0000
0301
0000
0000
0100
0000
0000
0010
0000
0010
0000
,  // measure 20
0001
0000
0101
0000
0000
0000
1020
0000
0000
0100
0030
0000
0010
0000
0010
0000
,  // measure 21
1000
0000
1100
0000
0000
0000
0021
0000
0000
0100
0030
0000
0010
0000
0100
0000
,  // measure 22
1000
0000
1010
0000
0000
0000
0201
0000
0000
0010
0300
0000
0010
0000
0100
0000
,  // measure 23
0101
0000
0000
1100
0000
0000
0101
0000
0001
0100
0001
0010
0001
1000
0010
1000
,  // measure 24
0100
0000
0010
0000
1000
0000
0020
0000
0000
0001
0030
0000
0100
0000
0010
0000
,  // measure 25
1000
0000
0100
0000
0001
0000
0200
0000
0000
0010
0300
0010
0100
1000
0100
0010
,  // measure 26
0001
0100
1000
0200
0000
0310
1000
0001
,  // measure 27
0100
0000
0010
0000
0001
0000
0020
0000
1000
0000
0030
1000
0100
0000
0010
0000
,  // measure 28
0100
0000
1100
0000
0000
0000
0201
0000
0000
0010
0300
0000
0010
0000
0100
0000
,  // measure 29
0001
0000
0011
0000
0000
0000
1020
0000
0000
0100
0030
0000
0100
0000
0001
0000
,  // measure 30
2000
0100
0010
3001
,  // measure 31
1000
0000
0001
0000
0100
0000
0010
0000
0010
0100
0001
1000
0010
0100
0001
1000
,  // measure 32
0M01
0M10
100M
01M0
100M
0M10
0001
0100
,  // measure 33
0010
1000
0010
0100
0010
0000
0100
0000
0001
0000
1000
0010
0000
1000
0000
0001
,  // measure 34
10M0
01M0
M001
0M10
M001
01M0
1000
0001
,  // measure 35
0100
0001
0100
0010
0100
0000
0010
1000
0010
0000
0100
0000
0001
1000
0001
1000
,  // measure 36
00M1
01M0
100M
0M10
100M
01M0
0001
0010
,  // measure 37
0100
1000
0100
0010
0100
0000
1000
0000
0010
0000
1000
0001
0000
0100
0000
0010
,  // measure 38
M100
0000
0001
0000
1000
0100
0000
0100
0010
0000
0010
0001
0010
0000
0011
0000
,  // measure 39
1001
0000
0000
1100
0000
0000
0101
0000
0000
1100
0000
0000
1001
0000
0000
0000
,  // measure 40
0200
0000
0000
0000
0000
0000
0000
0300
,  // measure 41
0020
0000
0000
0000
0000
0000
0000
0030
,  // measure 42
110M
0000
001M
0000
M001
0000
01M0
0000
M000
00M0
0000
0M00
0000
0000
0000
0000
1010
0000
0000
0000
0000
0000
0M01
0000
M000
00M0
0000
0M00
0000
0000
0000
0000
,  // measure 43
0101
0000
0000
0000
M000
0000
0M10
0000
M000
000M
0000
0M00
0000
0000
0000
0000
0011
0000
0000
0000
M000
0000
M100
0000
000M
0000
0M00
0000
0010
0000
0M00
0000
,  // measure 44
10M1
0000
0000
0100
0000
0000
10M0
0000
0000
0M01
0000
0000
0000
0000
00M0
0000
0000
0000
0100
0000
0000
0000
0000
0000
1010
0000
0000
0000
0000
0000
0000
0000
,  // measure 45
0000
M100
0000
0000
0000
0000
000M
0010
0000
0000
0000
0000
0000
0001
0000
0000
0101
0000
0000
0000
0000
0000
00M0
0000
0000
M001
0000
0000
0000
0000
0M00
0010
,  // measure 46
0000
0000
0000
0000
0000
0000
0000
0000
0000
0000
0000
0000
0000
0000
0000
0000
0110
0000
0000
0000
0000
0000
0010
0000
0000
0000
0000
0000
0001
0000
0000
0000
0000
0000
1000
0000
0000
0000
0000
0000
0001
0000
0000
1000
0000
0000
0001
0000
0000
1000
0000
0000
0001
0000
0000
0100
0000
0000
0000
0000
0000
0010
0000
0000
,  // measure 47
1000
0000
0001
0000
1000
0010
0000
1000
0100
0000
1000
0001
1000
0000
0001
0010
,  // measure 48
0000
1000
0010
0000
0100
0010
0000
0100
1000
0000
0010
0100
0000
1000
0000
0100
,  // measure 49
0000
0001
1000
0000
0001
0010
0000
0001
0100
0000
0001
1000
0001
0000
1000
0010
,  // measure 50
0000
0100
0010
0000
0001
0010
0000
0100
0001
0000
1000
0001
0000
0010
0000
1000
,  // measure 51
0000
0010
0001
0000
0100
0001
0000
1000
0001
0000
0010
0001
0010
0000
0100
0010
,  // measure 52
0000
0100
0001
0000
0100
1000
0000
0010
1000
0000
0001
1000
0000
0010
0000
0001
,  // measure 53
0000
0010
1000
0000
0100
1000
0000
0001
1000
0000
0010
1000
0010
0000
0100
0010
,  // measure 54
0000
0100
1000
0000
0100
0001
0000
1000
0001
0000
0010
0100
0000
0001
0000
0100
,  // measure 55
2000
0000
0010
3000
0100
0000
0010
0000
0100
0000
0001
0000
0011
0000
0010
0000
,  // measure 56
0001
0000
0100
0000
0001
0000
0100
0000
0020
0000
1000
0030
1100
0000
0100
0000
,  // measure 57
1000
0000
0001
0000
1000
0000
0001
0000
0200
0000
0010
0300
0110
0000
0100
0000
,  // measure 58
0002
0000
0010
0003
0011
0000
0001
0000
0020
0000
0100
0030
1100
0000
1000
0000
,  // measure 59
0002
0000
0100
0003
1000
0000
0100
0000
0010
0000
1000
0000
1100
0000
0100
0000
,  // measure 60
2000
0000
0010
3000
0001
0000
0010
0000
0100
0000
0001
0000
0020
0000
0001
0030
,  // measure 61
2000
0001
3020
1000
,  // measure 62
0230
0302
0023
0000
,  // measure 63
0230
0000
0000
0000
,  // measure 64
0000
0000
0000
0000
0000
0000
0000
0000
0000
0000
0000
0000
00M0
00M0
0000
00M0
,  // measure 65
0300
0000
0000
0000
;

//---------------dance-single - Spork!----------------
#NOTES:
     dance-single:
     Spork! - Light:
     Easy:
     5:
     0.325,0.310,0.165,0.294,0.009,210.000,19.000,34.000,0.000,0.000,0.000,0.325,0.310,0.165,0.294,0.009,210.000,19.000,34.000,0.000,0.000,0.000:
0000
0000
0000
0000
,
0000
0000
0000
0000
,
0000
0000
0000
0000
,
0000
0000
0000
0000
,
0020
0100
1030
1000
,
0200
1000
0310
0010
,
0002
0010
1003
0001
,
2000
0100
3001
1000
,
0001
0100
0001
0100
,
0010
1000
0010
1000
,
0100
0010
0100
0010
,
0001
1000
0001
1000
,
0020
0100
1030
0100
,
0200
0010
1300
0001
,
0020
0100
0031
0100
,
0200
0010
0301
1000
,
0001
0100
0010
1001
,
1000
0100
0010
1001
,
0001
0010
0100
1001
,
1000
0010
0100
1001
,
0100
0001
0010
1001
,
0100
1000
0010
1001
,
0010
1000
0100
1001
,
1000
0000
0000
0100
0000
0000
0010
0000
0000
0001
0000
0000
1000
0000
0000
0000
,
0010
1000
0001
0110
,
0100
0001
1000
0110
,
0100
1000
0001
0110
,
0010
0001
1000
0110
,
1000
0100
0001
0110
,
0001
0100
1000
0110
,
0001
0010
1000
0110
,
0002
0000
2003
0000
,
3010
0010
0010
0010
,
0100
0010
0200
0000
0001
0000
0301
0000
,
0010
0010
0010
0010
,
0100
0010
0200
0000
0310
0000
1001
0000
,
0001
0001
0001
0001
,
0100
0010
0200
0000
0010
0000
0310
0000
,
1000
1000
0100
0100
,
0010
0010
0001
0001
,
0200
0000
0000
0000
,
0320
0000
0000
0000
,
1030
0000
0100
0000
,
1000
0000
0001
0000
,
0001
0000
0000
0100
,
0000
0000
0001
0000
,
0000
1000
0000
0000
,
1020
0100
1000
1030
,
0100
0010
0001
0100
,
0201
0010
0001
0301
,
0010
0100
1000
0001
,
0021
0100
0001
0031
,
0100
0010
1000
0100
,
1200
0010
1000
1300
,
0010
0100
0001
1000
,
0002
0000
0013
0001
,
0200
0000
0310
1000
,
0002
0000
2003
0000
,
3002
0000
0023
0000
,
0230
0000
1300
0100
,
0020
0000
0031
2000
,
3002
0000
0203
0000
,
0320
2030
3200
0000
,
0320
0000
0000
0000
,
0000
0000
0000
0000
,
0030
0000
0000
0000
;

//---------------dance-single - Spork!----------------
#NOTES:
     dance-single:
     Spork! - Heavy:
     Hard:
     9:
     0.584,0.535,0.121,0.121,0.437,444.000,14.000,14.000,0.000,0.000,0.000,0.584,0.535,0.121,0.121,0.437,444.000,14.000,14.000,0.000,0.000,0.000: // measure 0
0000
0000
0000
0000
,  // measure 1
0000
0000
0000
0000
,  // measure 2
0000
0000
0000
0000
,  // measure 3
0000
0000
0000
0000
,  // measure 4
0001
0000
0000
0000
0010
0000
0100
0010
0000
0100
0010
0000
0000
0000
0001
0000
,  // measure 5
0000
0100
0000
0000
0010
0000
1000
0010
0000
1000
0001
0000
0000
0000
0001
0000
,  // measure 6
1000
0000
0000
0000
0100
0000
0010
0100
0000
0010
0100
0000
0000
0000
1000
0000
,  // measure 7
0000
0010
0000
0000
0100
0000
0001
0010
0000
0001
0100
0000
0010
0100
0010
0000
,  // measure 8
1000
0100
0001
0100
1000
0100
0010
0010
,  // measure 9
0001
0100
1000
0100
0001
0100
0010
0010
,  // measure 10
1000
0010
0001
0010
1000
0010
0100
0100
,  // measure 11
0001
0010
1000
0010
0001
0010
0100
0100
,  // measure 12
1000
0000
2010
0000
3001
0010
1000
0010
,  // measure 13
0001
0000
0102
0000
1003
0100
0001
0100
,  // measure 14
1000
0000
2100
0000
3001
0100
1000
0100
,  // measure 15
0001
0000
0012
0000
1003
0010
0001
0010
,  // measure 16
1000
0000
0000
0100
0000
0000
0010
0000
0000
0000
0100
0000
0010
0000
0001
0000
,  // measure 17
0100
0000
0000
0010
0000
0000
0100
0000
0010
1000
0000
1000
0001
0000
0100
0000
,  // measure 18
0001
0000
0000
0010
0000
0000
0100
0000
0000
0000
0010
0000
0001
0000
1000
0000
,  // measure 19
0100
0000
0000
1000
0000
0000
0010
0000
0100
0001
0000
0001
1000
0000
0001
0000
,  // measure 20
0100
0010
0000
1000
0000
0000
0001
0000
0000
0000
0100
0000
1000
0000
0100
0000
,  // measure 21
0001
1000
0000
0100
0000
0000
0010
0000
0100
1000
0000
1000
0001
0000
0100
0000
,  // measure 22
0010
0100
0000
0001
0000
0000
1000
0000
0000
0000
0100
0000
0001
0000
0100
0000
,  // measure 23
1100
0000
0000
0110
0000
0000
1001
0000
1000
0000
0010
0000
0001
0000
0010
0000
,  // measure 24
1000
0000
0000
0100
0000
0000
0010
0000
0000
0000
1000
0000
0010
0000
0001
0000
,  // measure 25
0100
0010
0000
1000
0000
0000
0001
0000
0001
0010
0000
0100
1000
0000
1000
0000
,  // measure 26
0001
0000
0000
0100
0000
0000
0010
0000
0000
0000
0001
0000
0010
0000
1000
0000
,  // measure 27
0100
1000
0000
0010
0000
0000
1000
0000
1000
0100
0000
0010
0001
0000
1000
0000
,  // measure 28
0001
0000
0010
0000
0100
0000
1000
0010
0000
1000
0010
0000
0100
0000
0001
0000
,  // measure 29
1000
0000
0100
0000
0010
0000
0001
0100
0000
0001
0100
0000
0010
0000
1000
0000
,  // measure 30
0200
0010
2300
0010
,  // measure 31
3001
0000
0100
0000
0010
0000
1000
0000
0001
1000
0001
1000
0001
1000
0001
1000
,  // measure 32
0001
0010
1000
0100
0001
0010
1000
0100
,  // measure 33
0001
0000
0001
0000
0001
0000
0010
0000
0100
0000
0100
0010
0000
0010
0001
0000
,  // measure 34
1000
0010
0001
0100
1000
0010
0001
0100
,  // measure 35
1000
0000
1000
0000
1000
0000
0010
0000
0100
0000
0001
0000
0010
0100
0010
0100
,  // measure 36
1000
0100
0001
0010
1000
0100
0001
0010
,  // measure 37
1000
0000
1000
0000
1000
0000
0100
0000
0010
0000
0010
0100
0000
0100
1000
0000
,  // measure 38
0001
0010
1000
0010
0001
0100
1000
0100
,  // measure 39
0110
0000
0000
0101
0000
0000
0011
0000
0000
1010
0000
0000
1001
0000
0000
0000
,  // measure 40
2000
0000
0000
0000
,  // measure 41
3002
0000
0000
0000
,  // measure 42
1003
0100
0010
0000
0001
1000
0010
0000
,  // measure 43
0100
0000
0001
0000
1000
0000
0000
0000
0001
0000
0010
0000
0100
0010
0000
0010
,  // measure 44
0001
0000
0000
1000
0000
0000
0001
0000
0000
0100
0000
0000
0110
0000
0000
0010
,  // measure 45
0000
0000
1000
0000
0000
0100
0000
0000
1001
0000
0000
0100
0000
0000
0001
0000
,  // measure 46
0000
0000
0000
0000
0010
0000
0000
0000
0000
0000
0000
0000
0000
0000
0000
0000
0010
0000
0000
0000
0000
0000
0100
0000
0000
0000
0000
0000
1000
0000
0000
0000
0000
0000
0001
0000
0000
0000
0000
0000
1000
0000
0000
0001
0000
0000
1000
0000
0000
0001
0000
0000
1000
0000
0000
0000
0000
0000
0000
0000
0000
0000
0000
0000
,  // measure 47
0001
0000
0100
0000
0010
0000
0001
0000
0010
0000
1000
0000
0100
0000
0010
0001
,  // measure 48
0000
0001
1000
0000
1000
0001
0000
0001
0100
0000
0100
0010
0000
0010
0000
0010
,  // measure 49
1000
0000
0100
0000
0010
0000
1000
0000
0010
0000
0001
0000
0100
0000
0010
1000
,  // measure 50
0000
1000
0001
0000
0001
0010
0000
0010
0100
0000
0100
1000
0000
0001
0000
0001
,  // measure 51
1000
0000
0010
0000
0100
0000
1000
0000
0100
0000
0001
0000
0010
0000
0100
1000
,  // measure 52
0000
1000
0001
0000
0001
1000
0000
1000
0010
0000
0010
0100
0000
0100
0000
0100
,  // measure 53
0001
0000
0010
0000
0100
0000
0001
0000
0100
0000
1000
0000
0010
0000
0100
0001
,  // measure 54
0000
0001
1000
0000
1000
0100
0000
0100
0010
0000
0010
0001
0000
1000
0000
1000
,  // measure 55
0001
0010
0100
1000
0010
0001
0010
0010
,  // measure 56
1000
0100
0010
0001
0100
1000
0100
0100
,  // measure 57
0001
1000
0010
0010
1000
0001
0100
0100
,  // measure 58
0001
0000
0010
0000
0100
0000
0010
0001
0010
0000
0001
1000
0000
0001
0000
0001
,  // measure 59
1000
0010
0100
0001
0010
1000
0010
0010
,  // measure 60
0001
0100
0010
1000
0100
0001
0100
1000
,  // measure 61
0002
0010
0203
0001
,  // measure 62
0320
2030
3200
0000
,  // measure 63
0320
0000
0000
0000
,  // measure 64
0000
0000
0000
0000
,  // measure 65
0030
0000
0000
0000
;

//---------------dance-single - Spork!----------------
#NOTES:
     dance-single:
     Spork! - Standard:
     Medium:
     7:
     0.453,0.450,0.165,0.372,0.100,304.000,19.000,43.000,0.000,0.000,0.000,0.453,0.450,0.165,0.372,0.100,304.000,19.000,43.000,0.000,0.000,0.000: // measure 0
0000
0000
0000
0000
,  // measure 1
0000
0000
0000
0000
,  // measure 2
0000
0000
0000
0000
,  // measure 3
0000
0000
0000
0000
,  // measure 4
0001
0010
0200
0010
,  // measure 5
1300
0001
0200
0010
,  // measure 6
0301
1000
0020
0100
,  // measure 7
1030
0100
0020
0100
,  // measure 8
0031
0000
0010
0000
0100
1000
0010
0000
,  // measure 9
1000
0000
0010
0000
0100
0001
0010
0000
,  // measure 10
0001
0000
0100
0000
0010
1000
0100
0000
,  // measure 11
1000
0000
0100
0000
0010
0001
0100
0000
,  // measure 12
0010
0000
1001
0000
1000
0001
0100
0100
,  // measure 13
0010
0000
1001
0000
0001
1000
0010
0010
,  // measure 14
1000
0000
0110
0000
0100
0001
1000
1000
,  // measure 15
0001
0000
0110
0000
0010
1000
0001
0001
,  // measure 16
1000
0000
0100
0000
0000
0000
0100
0000
0000
0100
0000
0000
0010
0000
0010
0000
,  // measure 17
0001
0000
0100
0000
0000
0000
0100
0000
0000
0100
0000
0000
0010
0000
0010
0000
,  // measure 18
1000
0000
0010
0000
0000
0000
0010
0000
0000
0010
0000
0000
0100
0000
0100
0000
,  // measure 19
0001
0000
0010
0000
0000
0000
0010
0000
0000
0010
0000
0000
0100
0000
0100
0000
,  // measure 20
1000
0000
0001
0000
0000
0000
0100
0000
0000
0100
0000
0000
0001
0000
0010
0000
,  // measure 21
0001
0000
1000
0000
0000
0000
0100
0000
0000
0100
0000
0000
1000
0000
0010
0000
,  // measure 22
0200
0010
0302
0010
,  // measure 23
1003
0000
0000
1000
0000
0000
1000
0000
0001
0000
1000
0000
0001
0000
1000
0000
,  // measure 24
0100
0000
0010
0000
0000
0000
0001
0000
0000
0001
0000
0000
0001
0000
0001
0000
,  // measure 25
0100
0000
0010
0000
0000
0000
1000
0000
0000
1000
0000
0000
1000
0000
1000
0000
,  // measure 26
0001
0000
0010
0000
0000
0000
0100
0000
0000
0100
0000
0000
0100
0000
0100
0000
,  // measure 27
1000
0000
0010
0000
0000
0000
0100
0000
0000
0100
0000
0000
0100
0000
0100
0000
,  // measure 28
0001
0000
0101
0000
0001
0010
0100
1000
,  // measure 29
0010
0000
1010
0000
1000
0100
0010
0001
,  // measure 30
0200
0001
0320
1000
,  // measure 31
1030
0001
1000
0001
0010
0100
0010
0100
,  // measure 32
2000
3200
0302
0023
,  // measure 33
1030
0100
0010
0001
1000
0000
0100
0010
,  // measure 34
0002
0203
2300
3020
,  // measure 35
0031
0100
0010
1000
0001
0000
1001
0000
,  // measure 36
0002
0023
2030
3200
,  // measure 37
0301
0010
0100
1000
0001
0000
0010
0100
,  // measure 38
2000
3020
0230
0302
,  // measure 39
2003
3002
0023
0230
,  // measure 40
2300
0000
0000
0000
,  // measure 41
3002
0000
0000
0000
,  // measure 42
1003
0000
0000
1000
0000
0000
0000
0000
0010
0000
0000
0010
0000
0000
0000
0000
,  // measure 43
0100
0000
0000
0100
0000
0000
0000
0000
0001
0000
0000
0001
0000
0000
1000
0000
,  // measure 44
0001
0000
0000
0010
0000
0000
0100
0000
0000
0100
0000
0000
1000
0000
0000
0010
,  // measure 45
0000
0000
0100
0000
0000
0100
0000
0000
0001
0000
0000
1000
0000
0000
0010
0000
,  // measure 46
0000
0010
0000
0000
0200
0000
0000
0000
0000
0000
0310
0000
0000
0000
0000
0000
,  // measure 47
0100
0000
0110
0000
1000
0100
0010
0000
,  // measure 48
0100
1000
0001
0001
0010
0001
0100
0100
,  // measure 49
0010
0000
0110
0000
0001
0010
0100
0000
,  // measure 50
0010
0001
1000
1000
0100
1000
0010
0010
,  // measure 51
0100
0000
0110
0000
0001
0100
0010
0000
,  // measure 52
0100
0001
1000
1000
0010
1000
0100
0100
,  // measure 53
0010
0000
0110
0000
1000
0010
0100
0000
,  // measure 54
0010
1000
0001
0001
0010
0001
1000
1000
,  // measure 55
0100
0000
0000
0000
0010
0000
0000
0000
0100
0000
0000
0100
0010
0000
0000
0000
,  // measure 56
0001
1000
1002
1003
,  // measure 57
0010
0100
0120
0130
,  // measure 58
0102
1003
1020
1030
,  // measure 59
1200
0000
0000
0000
0310
0000
0000
0000
0100
0000
0000
0100
1000
0000
0000
0000
,  // measure 60
1020
0130
0001
0011
,  // measure 61
0210
0000
2300
0000
,  // measure 62
3020
2030
3200
0000
,  // measure 63
0320
0000
0000
0000
,  // measure 64
0000
0000
0000
0000
,  // measure 65
0030
0000
0000
0000
;
