#TITLE:Hunny Bunny;
#SUBTITLE:;
#ARTIST:U1 overground;
#TITLETRANSLIT:;
#SUBTITLETRANSLIT:;
#ARTISTTRANSLIT:;
#GENRE:;
#CREDIT:;
#BANNER:[Round 2] - Hunny Bunny.png;
#BACKGROUND:[Round 2] - Hunny Bunny-bg.png;
#LYRICSPATH:;
#CDTITLE:cdtitle.png;
#MUSIC:[Round 2] - Hunny Bunny.ogg;
#OFFSET:0.008000;
#SAMPLESTART:47.987999;
#SAMPLELENGTH:15.000000;
#SELECTABLE:YES;
#BPMS:0.000000=160.000000
,60.000000=80.000000
,62.000000=160.000000
,186.000000=80.000000
,202.000000=160.000000
;
#STOPS:185.937500=1.500000
;
#BGCHANGES:;
#KEYSOUNDS:;
#ATTACKS:;

//---------------dance-single - xRGTMx----------------
#NOTES:
     dance-single:
     xRGTMx-SX:
     Challenge:
     12:
     0.884793,1.303871,0.025806,0.421505,1.268817,720.000000,717.000000,3.000000,49.000000,36.000000,0.000000,0.884793,1.303871,0.025806,0.421505,1.268817,720.000000,717.000000,3.000000,49.000000,36.000000,0.000000:
// measure 0
0000
0000
0000
0000
,  // measure 1
0000
0000
0000
0000
,  // measure 2
0000
0000
0000
0000
,  // measure 3
0000
0000
0000
0000
,  // measure 4
1000
0100
0020
0000
0031
0010
0001
1000
0010
1000
0100
0010
0200
0000
0000
0000
,  // measure 5
0310
0001
2000
0000
3001
0100
0001
1000
0100
0010
0100
0010
0001
1000
0001
0010
,  // measure 6
0100
0010
0001
1000
0010
0100
0010
1000
0100
0010
0001
1000
0010
0100
0001
1000
,  // measure 7
0200
M00M
0000
00MM
0000
M0M0
0000
M00M
,  // measure 8
0310
0000
0100
0000
0000
1000
0000
0000
0001
0000
0000
1000
0100
0000
0010
0000
,  // measure 9
0001
0000
0000
0000
1000
0000
0000
0000
0000
0000
0001
0000
0000
0000
0000
0000
0100
0000
0000
0000
0000
0000
0010
0000
0100
0000
0000
0000
0001
0000
1000
0100
,  // measure 10
1000
0000
0010
0000
0000
1000
0000
0000
0001
0000
0000
1000
0100
0000
0010
0000
,  // measure 11
0001
0000
0000
0000
1000
0000
0000
0000
0000
0000
0001
0000
0000
0000
0000
0000
0100
0000
0000
0000
0000
0000
0000
0000
0010
0000
1000
0000
0001
0000
0100
0001
,  // measure 12
0100
0000
0010
0000
0000
1000
0000
0000
0001
0000
0000
1000
0100
0000
0010
0000
,  // measure 13
0001
0000
0000
0000
1000
0000
0000
0000
0000
0000
0001
0000
0000
0000
0000
0000
0100
0000
0000
0000
0000
0000
0000
0000
0010
0000
1000
0000
0001
0000
1000
0100
,  // measure 14
1000
0000
0010
0000
0000
1000
0000
0000
0100
0000
0000
1000
0001
0000
0100
0000
,  // measure 15
M020
0000
0000
0000
103M
0010
0100
4000
,  // measure 16
3100
0000
0000
0000
0000
0000
0001
0000
0000
0100
0000
0000
0001
0000
0000
0000
0000
0000
0010
0000
0100
0000
0010
0000
0100
0000
0000
0000
0000
0000
0010
0000
0000
0000
0000
0000
0100
0000
0000
1000
0000
0000
0001
0000
0000
1000
0000
0000
,  // measure 17
0010
0000
0100
M00M
0100
0000
1000
0100
1000
0000
0100
0000
0010
0000
4000
0000
,  // measure 18
3010
0000
0000
0000
0000
0000
0001
0000
0000
0010
0000
0000
0001
0000
0000
0000
0000
0000
0100
0000
0010
0000
0100
0000
0010
0000
0000
1000
0000
0000
0000
0000
0000
1000
0000
0000
0001
0000
0000
0000
0000
0000
4000
0000
0000
0000
0000
0000
,  // measure 19
3001
0000
0000
0010
0000
0000
0001
0000
0000
1000
0000
0000
0100
0000
0000
0000
0000
0000
0010
0000
0100
0000
0010
0000
0100
0000
0000
0000
0000
0000
1000
0000
0000
0000
0000
0000
0200
0000
0000
0000
0000
0000
0001
0000
0000
0000
0000
0000
,  // measure 20
0001
0000
0001
0000
0001
0000
0301
0000
0100
0000
1000
0001
0100
0000
0004
0000
,  // measure 21
1003
0000
0100
M00M
0100
0000
0001
0100
0010
1000
0000
1000
0001
0000
0400
0000
,  // measure 22
0310
0000
0000
0000
0000
0000
1000
0000
0000
0001
0000
0000
1000
0000
0000
0000
0000
0000
0100
0000
0010
0000
0100
0000
0010
0000
0000
0001
0000
0000
0000
0000
0000
0100
0000
0000
0001
0000
0000
0000
0000
0000
4000
0000
0000
0000
0000
0000
,  // measure 23
3001
0000
0000
0100
0000
0000
0010
0000
0000
0100
0000
0000
0001
0000
0000
0000
0000
0000
1000
0000
0001
0000
1000
0000
0001
0000
0000
0010
0000
0000
0100
0000
0000
1000
0000
0000
0001
0000
0000
0100
0000
0000
0010
0000
0000
0M00
0000
0000
,  // measure 24
0010
0001
1000
0100
0010
0001
0100
00M0
0100
1000
0010
1000
0001
0010
0100
1000
,  // measure 25
0001
0100
0010
0100
0001
1000
0100
1000
0001
0010
0100
1000
0010
0M00
0010
0001
,  // measure 26
1000
0010
0100
00M0
0100
1000
0001
0100
0010
0100
0001
1000
0100
0010
0001
0100
,  // measure 27
0010
0000
1000
0010
1000
0000
0001
0000
0100
0000
0000
0000
0001
0000
0000
0000
1000
0000
0010
0000
0100
0000
0000
0000
0010
0000
0M00
0000
0010
0000
0001
0000
,  // measure 28
1000
0000
0100
00M0
0100
0001
0010
0001
1000
0100
0010
0001
0100
00M0
0100
1000
,  // measure 29
0001
0100
0010
0M00
0010
0001
0100
0010
1000
0010
1000
0100
0010
0001
0100
0001
,  // measure 30
1000
0100
1000
0010
0100
0001
0010
0001
0100
0010
1000
0001
0010
0100
4000
0000
,  // measure 31
0000
0000
0000
0000
3001
0010
0100
0004
,  // measure 32
0103
0000
0000
0000
0000
0000
1000
0000
0000
0100
0000
0000
1000
0000
0000
0000
0000
0000
0010
0000
0100
0000
0010
0000
0100
0000
0000
0000
0000
0000
0010
0000
0000
0000
0000
0000
0100
0000
0000
0001
0000
0000
1000
0000
0000
0001
0000
0000
,  // measure 33
0010
0000
0100
M00M
0100
0000
0001
0100
0001
0000
0100
0000
0010
0000
0004
0000
,  // measure 34
0013
0000
0000
0000
0000
0000
1000
0000
0000
0010
0000
0000
1000
0000
0000
0000
0000
0000
0100
0000
0010
0000
0100
0000
0010
0000
0000
0001
0000
0000
0000
0000
0000
0001
0000
0000
1000
0000
0000
0000
0000
0000
0004
0000
0000
0000
0000
0000
,  // measure 35
1003
0000
0000
0010
0000
0000
1000
0000
0000
0001
0000
0000
0100
0000
0000
0000
0000
0000
0010
0000
0100
0000
0010
0000
0100
0000
0000
0000
0000
0000
0001
0000
0000
1000
0000
0000
0100
0000
0000
0000
0000
0000
0004
0000
0000
0000
0000
0000
,  // measure 36
0103
0000
0000
0000
0000
0000
0010
0000
0000
0001
0000
0000
1000
0000
0000
0000
0000
0000
0010
0000
0100
0000
0010
0000
0100
0000
0000
0000
0000
0000
0001
0000
0000
0100
0000
0000
0010
0000
0000
0000
0000
0000
4000
0000
0000
0000
0000
0000
,  // measure 37
3020
0000
0130
M00M
0100
0000
1000
0001
1000
0100
0000
0010
0100
0000
0004
0000
,  // measure 38
0103
0000
0000
0000
0000
0000
1000
0000
0000
0001
0000
0000
0100
0000
0000
0000
0000
0000
0010
0000
0100
0000
0010
0000
0100
0000
0000
0001
0000
0000
0000
0000
0000
0001
0000
0000
0010
0000
0000
0000
0000
0000
4000
0000
0000
0000
0000
0000
,  // measure 39
3010
0000
0000
0100
0000
0000
0010
0000
0000
0001
0000
0000
1000
0000
0000
0000
0000
0000
0001
0000
1000
0000
0001
0000
1000
0000
0000
0000
0000
0000
0020
0000
0000
0000
0000
0000
0031
0000
0000
0000
0000
0000
0020
0000
0000
0000
0000
0000
,  // measure 40
1000
0000
0230
0000
0320
0030
0200
0300
0001
0000
0020
0030
0100
0020
0030
1000
,  // measure 41
0020
0031
0200
0320
1030
0020
0031
0020
,  // measure 42
1000
0000
0230
0000
0320
0030
0200
0300
0001
0000
0020
0030
0100
0020
0030
0001
,  // measure 43
2000
0000
0000
3001
0200
0000
0320
0000
1030
0000
0010
0M00
0010
0000
0001
0000
,  // measure 44
0100
00M0
0100
0000
1000
0000
0100
00M0
0100
0000
0001
0000
0010
0M00
0010
0000
,  // measure 45
1000
0000
1000
0000
0001
0000
0001
0000
1000
0000
0010
0M00
0010
0000
0001
0000
,  // measure 46
0100
0000
0000
0000
00M0
0000
0000
0000
0100
0000
0000
0000
0000
0000
0000
0000
1000
0000
0000
0000
0000
0000
0000
0000
0001
0000
0000
0000
0000
0000
0000
MM00
0010
0000
0000
0000
0000
0000
0000
0000
0020
0000
0000
0000
0000
0000
0000
0000
0030
0000
0000
0000
0000
0000
0000
0000
0001
0000
0000
0000
0000
0000
0000
0000
,  // measure 47
2000
0000
0000
0000
0000
3000
0000
0000
0001
0100
0000
0000
0010
0000
0100
0001
0010
0000
0000
0000
0020
0000
0000
0000
0030
0000
0000
0000
0001
0000
0000
0000
,  // measure 48
2000
0000
0000
0000
0000
0000
0000
0000
0000
0000
0000
0000
3010
0000
0000
0000
1000
0000
0010
0000
1000
0000
0001
0000
0010
0000
0100
0000
0010
0000
0100
0000
1000
0000
0000
0000
0001
0000
0100
0000
0000
0000
0000
0000
0010
0000
0000
0000
1010
0000
0000
0000
1000
0000
0000
0000
0100
0000
0000
0000
0010
0000
0001
0010
,  // measure 49
0002
0000
0000
0000
0100
0000
0000
0000
1003
0000
0000
0000
0001
0000
0000
0000
0101
0000
0000
0000
0100
0000
0000
0000
0010
0000
1000
0000
0001
0000
0000
0000
1000
0100
1000
0100
1000
0000
0000
0000
0001
0000
0000
0000
0100
0000
0000
0000
0010
0000
0000
0000
1000
0000
0000
0000
0001
0000
0000
0000
0010
0000
0000
0000
,  // measure 50
0400
0000
0000
0000
0000
0000
0000
0000
M32M
0000
0032
0000
0013
0100
1000
0001
,  // measure 51
1000
0010
0100
0010
1000
0100
1000
0001
0020
0000
0032
0000
0013
0100
1000
0001
,  // measure 52
0100
0010
1000
0010
0100
1000
0100
0001
2000
0000
3200
0000
0310
0100
1000
0000
,  // measure 53
0001
0100
0010
0001
0010
1000
0100
0010
0001
0100
0001
1000
0001
0010
0001
1000
,  // measure 54
0100
0010
0100
1000
0001
0100
0001
1000
0020
0000
2030
0000
3010
0100
0001
1000
,  // measure 55
0001
0010
0100
0010
0001
0100
0001
1000
0010
0100
1000
0100
0010
1000
0100
0010
,  // measure 56
0100
0001
0100
0010
0100
1000
0002
0000
0103
0010
0100
0000
0001
1000
0001
0000
,  // measure 57
0010
0100
1000
0100
1000
0001
1000
0001
0010
0100
0000
0100
0010
0001
1000
0001
,  // measure 58
0100
0001
1000
0010
1000
0001
0010
0100
1000
0000
0000
0010
0100
0000
4000
0000
,  // measure 59
3100
0000
0004
0000
0103
0000
0010
0100
0001
0000
0040
0000
0230
0000
1000
0000
,  // measure 60
0320
0000
0100
0000
0032
0000
1000
0003
0001
0000
0100
0010
0100
0000
4000
0000
,  // measure 61
3100
0000
0040
0000
1030
0000
0001
0100
0001
0000
0000
0010
0100
0000
0004
0000
,  // measure 62
0203
0000
0000
0000
0000
0000
0010
0000
0000
0000
0000
0000
2300
0000
0000
0000
0000
0000
0010
0000
0000
0000
0000
0000
3002
0000
0000
0000
0000
0000
0000
0000
0000
0103
0000
0000
0001
0000
0010
0000
0001
0000
1000
0000
0001
0000
0100
0000
,  // measure 63
0010
1000
0010
0100
0010
1000
0001
0100
0001
0010
0001
1000
0100
0010
0100
1000
,  // measure 64
0001
0000
0100
0000
0001
0000
1000
0000
0010
0000
1000
0000
0001
0000
0010
0000
0100
0000
1000
0000
0001
0000
0100
0000
0010
0000
0000
1000
0000
0000
0100
0000
0000
1000
0000
0000
0001
0000
0000
0100
0000
0000
0010
0000
0000
0100
0000
0000
,  // measure 65
0001
0000
0000
1000
0000
0000
0100
0000
0000
0010
0000
0000
0001
0000
0000
1000
0000
0000
0010
0000
0000
0100
0000
0000
0010
0000
1000
0000
0010
0000
0100
0000
0001
0000
0100
0000
0010
0000
1000
0000
0001
0000
1000
0000
0001
0000
0010
0000
,  // measure 66
0400
0000
0000
0000
0000
0000
0000
0300
2002
0000
0000
0000
0000
0000
0000
0000
,  // measure 67
0000
0000
0000
0000
,  // measure 68
0000
0000
0000
0000
,  // measure 69
0000
0000
0000
0000
,  // measure 70
0000
0000
3003
0000
;

//---------------dance-single - xRGTMx----------------
#NOTES:
     dance-single:
     xRGTMx-SH:
     Hard:
     11:
     0.777880,1.182581,0.120430,0.619355,0.761290,633.000000,619.000000,14.000000,72.000000,12.000000,0.000000,0.777880,1.182581,0.120430,0.619355,0.761290,633.000000,619.000000,14.000000,72.000000,12.000000,0.000000:
// measure 0
0000
0000
0000
0000
,  // measure 1
0000
0000
0000
0000
,  // measure 2
0000
0000
0000
0000
,  // measure 3
0000
0000
0000
0000
,  // measure 4
1000
0000
0100
0000
1000
0010
0100
0000
0001
0100
0001
0000
2000
0000
0000
0000
,  // measure 5
3001
0000
0100
0000
0001
0010
0100
0000
1000
0100
1000
0100
0010
0001
0010
0001
,  // measure 6
1000
0010
1000
0000
0001
0100
0001
0000
1000
0100
1000
0000
0001
0010
0001
0000
,  // measure 7
0200
M00M
0000
00MM
0000
M0M0
0000
M00M
,  // measure 8
0310
0020
0130
0002
,  // measure 9
2003
0000
0000
0000
3100
0000
0000
0000
1000
0100
1000
0000
0001
0000
0100
0001
,  // measure 10
0010
0020
0130
2000
,  // measure 11
3002
0000
0000
0000
0103
0000
0010
0000
1000
0010
1000
0001
1000
0100
0010
0100
,  // measure 12
0010
0020
0130
2000
,  // measure 13
3002
0000
0000
0000
0103
0000
0000
0000
0001
0100
0001
0000
1000
0000
0100
1000
,  // measure 14
0010
1000
0000
0010
0100
0010
0100
0001
1000
0100
1000
0001
0100
0001
1000
0100
,  // measure 15
002M
0000
0000
0000
M031
0010
0100
4000
,  // measure 16
3001
0000
0100
0001
0100
0000
0010
0000
1000
0000
0001
0000
0010
0001
1000
0001
,  // measure 17
0100
0000
0010
0000
0010
0000
1000
0100
1000
0000
0010
0000
0100
0000
0004
0000
,  // measure 18
1003
0000
0100
1000
0100
0000
0010
0000
0001
0010
0000
0001
1000
0000
0040
0000
,  // measure 19
0130
0000
0001
0100
0001
0000
1000
0100
1000
0000
0001
0000
0200
0000
0010
0000
,  // measure 20
0010
0000
0010
0000
0010
0000
0310
0000
0100
0000
0010
1000
0010
0000
4000
0000
,  // measure 21
3100
0000
0010
0100
0010
0000
0001
1000
0001
0100
0000
0001
1000
0000
0004
0000
,  // measure 22
1003
0000
0100
1000
0100
0000
0010
0001
1000
0010
0000
0100
0001
0000
4000
0000
,  // measure 23
3100
0010
0100
1000
0001
0000
0010
0000
0012
0000
1000
0000
0103
0000
0201
0000
,  // measure 24
0001
0310
0120
0100
1030
2010
0010
3002
,  // measure 25
1000
0000
1003
0000
0200
0000
1300
0010
2000
0000
0001
0000
3100
0000
1200
0000
,  // measure 26
1000
0000
0310
0000
0120
0000
0100
0000
0031
0000
0010
0000
0100
0000
0010
0001
,  // measure 27
1000
0001
0100
0001
0102
1000
0013
0021
,  // measure 28
0001
0130
0210
0010
1300
2100
0100
3002
,  // measure 29
1000
0000
1003
0000
0020
0000
1030
0100
2000
0000
0001
0000
3010
0000
1010
0000
,  // measure 30
1000
0100
1000
0002
0100
0023
0100
0034
,  // measure 31
0000
0000
0000
0000
1003
0010
0100
0004
,  // measure 32
1003
0000
0100
1000
0100
0000
0010
0000
0001
0000
1000
0000
0010
1000
0001
1000
,  // measure 33
0100
0000
0010
0000
0010
0000
0001
0100
0001
0000
0010
0000
0100
0000
4000
0000
,  // measure 34
3001
0000
0100
0001
0100
0000
0010
0000
1000
0010
0000
1000
0001
0000
0040
0000
,  // measure 35
0130
0000
1000
0100
1000
0000
0001
0100
0001
0000
1000
0000
0100
0000
4000
0000
,  // measure 36
3001
0000
0100
0001
0100
0000
0010
0000
1000
0010
0000
1000
0001
0000
1000
0000
,  // measure 37
0100
0000
0040
0000
0130
0000
1000
0001
0100
0001
0000
0001
1000
0000
0004
0000
,  // measure 38
0013
0000
0100
0010
0100
0000
1000
0000
0001
0100
0000
0001
1000
0000
0400
0000
,  // measure 39
0310
0001
0010
0100
1000
0000
0001
0000
1000
0000
0020
0000
0130
0000
0020
0000
,  // measure 40
1030
0000
0200
0000
0320
0030
0200
0300
1000
0000
0020
0030
1000
0020
0030
0100
,  // measure 41
0020
1030
0200
0320
0031
0020
0130
0020
,  // measure 42
0031
0000
0200
0000
0320
0030
0200
0300
0001
0000
0020
0030
0100
0020
0030
0001
,  // measure 43
2000
0000
0000
3001
0200
0000
0320
0000
1030
0000
0010
0000
0010
0000
0001
0000
,  // measure 44
0010
0010
1000
0100
0100
0001
0100
0100
,  // measure 45
1000
1000
0001
0001
1000
0010
0010
0001
,  // measure 46
0010
0000
0000
0000
0000
0000
0000
0000
0010
0000
0000
0000
0000
0000
0000
0000
1000
0000
0000
0000
0000
0000
0000
0000
0001
0000
0000
0000
0000
0000
0000
MM00
0010
0000
0000
0000
0000
0000
0000
0000
0020
0000
0000
0000
0000
0000
0000
0000
0030
0000
0000
0000
0000
0000
0000
0000
0001
0000
0000
0000
0000
0000
0000
0000
,  // measure 47
2000
0000
0000
0000
0000
3000
0000
0000
0001
0100
0000
0000
0010
0000
0100
0001
0010
0000
0000
0000
0020
0000
0000
0000
0030
0000
0000
0000
0001
0000
0000
0000
,  // measure 48
2000
0000
0000
0000
0000
0000
3010
0000
1000
0010
1000
0001
0010
0100
0010
0100
1000
0000
0001
0100
0000
0000
0010
0000
1010
0000
1000
0000
0100
0000
0010
0000
,  // measure 49
0002
0000
0100
0000
1003
0000
0001
0000
0101
0000
0100
0000
0010
1000
0001
0000
1000
0100
1000
0000
0001
0000
0100
0000
0010
0000
1000
0000
0001
0000
0010
0000
,  // measure 50
0400
0000
0000
0000
0000
0000
0000
0000
0320
0000
0032
0000
0013
0100
1000
0000
,  // measure 51
0001
0100
0001
0000
1000
0100
1000
0001
0020
0000
0032
0000
0013
0100
1000
0000
,  // measure 52
0001
0010
0001
0010
0100
1000
0010
0000
2000
0000
3200
0000
0310
0001
0010
0000
,  // measure 53
0100
1000
0001
0000
0100
0010
0100
0000
0010
1000
0010
1000
0001
0010
0100
0010
,  // measure 54
0001
0100
0001
0100
0010
1000
0100
1000
0020
0000
2030
0000
3010
0100
0001
0000
,  // measure 55
1000
0100
1000
0000
0001
0100
0001
0000
0010
0001
0010
0100
1000
0010
1000
0001
,  // measure 56
0100
0010
0100
0001
1000
0100
0010
0001
1000
0010
1000
0000
0001
0010
0001
0010
,  // measure 57
0100
1000
0100
0000
1000
0001
1000
0001
0100
0010
0000
0100
0010
0100
0001
1000
,  // measure 58
0001
0010
0100
1000
0010
0100
0010
1000
0001
0000
0000
0010
0100
0000
4000
0000
,  // measure 59
3100
0000
0040
0000
0130
0000
1000
0001
0100
0000
0040
0000
0230
0000
0001
0000
,  // measure 60
0320
0000
0100
0000
2030
0000
0100
0000
3001
0000
0100
0010
0100
0000
0004
0000
,  // measure 61
0103
0000
0040
0000
1030
0000
0001
1000
0100
0000
0000
0010
0100
0000
4000
0000
,  // measure 62
3002
0000
0100
0000
0023
0000
0100
0000
0032
0000
0000
1003
0010
0100
0010
0100
,  // measure 63
0001
0010
0100
0010
0001
1000
0100
1000
0010
0100
0010
1000
0001
0100
0001
1000
,  // measure 64
0100
0010
0001
0100
0010
1000
0100
0010
0001
0010
0100
1000
0001
0100
0001
1000
,  // measure 65
0010
0100
0001
1000
0100
1000
0001
0100
0001
0010
0100
1000
0010
0100
0001
0010
,  // measure 66
0400
0000
0000
0000
0000
0000
0000
0300
2002
0000
0000
0000
0000
0000
0000
0000
,  // measure 67
0000
0000
0000
0000
,  // measure 68
0000
0000
0000
0000
,  // measure 69
0000
0000
0000
0000
,  // measure 70
0000
0000
3003
0000
;
