#VERSION:0.83;
#TITLE:Hormiga obrera;
#SUBTITLE:;
#ARTIST:Shawn the Horny Master;
#TITLETRANSLIT:;
#SUBTITLETRANSLIT:;
#ARTISTTRANSLIT:;
#GENRE:ALTERNATIVE HOUSE;
#ORIGIN:;
#CREDIT:;
#BANNER:[Round 2] - Hormiga obrera.png;
#BACKGROUND:[Round 2] - Hormiga obrera-bg.png;
#PREVIEWVID:;
#JACKET:[Round 2] - Hormiga obrera-jacket.png;
#CDIMAGE:;
#DISCIMAGE:;
#LYRICSPATH:;
#CDTITLE:;
#MUSIC:[Round 2] - Hormiga obrera.ogg;
#OFFSET:-0.379217;
#SAMPLESTART:103.776283;
#SAMPLELENGTH:14.769226;
#SELECTABLE:YES;
#BPMS:0.000=130.000;
#STOPS:;
#DELAYS:;
#WARPS:;
#TIMESIGNATURES:0.000=4=4;
#TICKCOUNTS:0.000=4;
#COMBOS:0.000=1;
#SPEEDS:0.000=1.000=0.000=0;
#SCROLLS:0.000=1.000;
#FAKES:;
#LABELS:0.000=Song Start;
#BGCHANGES:;
#KEYSOUNDS:;
#ATTACKS:
;

//---------------dance-single - ----------------
#NOTEDATA:;
#CHARTNAME:;
#STEPSTYPE:dance-single;
#DESCRIPTION:;
#CHARTSTYLE:;
#DIFFICULTY:Challenge;
#METER:10;
#RADARVALUES:0.681761,0.606823,0.527672,0.310395,1.187261,615.000000,547.000000,68.000000,40.000000,10.000000,0.000000,1.000000,0.000000,0.000000,0.681761,0.606823,0.527672,0.310395,1.187261,615.000000,547.000000,68.000000,40.000000,10.000000,0.000000,1.000000,0.000000,0.000000;
#CREDIT:DDRDAIKENKAI;
#NOTES:
// measure 0
0000
0000
0000
0000
,  // measure 1
0000
0000
0000
0000
,  // measure 2
0000
0000
0000
0000
,  // measure 3
0000
0000
0000
0000
,  // measure 4
1001
0000
0001
0100
0000
0010
0000
1000
0000
0100
0000
0010
0000
0000
0011
0000
,  // measure 5
1100
0000
0100
1000
0000
0010
0000
0100
0000
0001
0000
1000
0000
1010
0000
0000
,  // measure 6
0101
0000
0001
1000
0000
0010
0000
0100
0000
0001
0000
1000
0000
0000
0110
0000
,  // measure 7
1001
0000
0000
0000
0000
0000
0000
0000
0011
0000
0000
0110
0000
0000
1100
0000
,  // measure 8
1010
0000
0010
0001
0000
0010
0000
1000
0000
0100
0000
0010
0000
0000
0011
0000
,  // measure 9
0101
0000
0100
1000
0000
0100
0000
0001
0000
0010
0000
0100
0000
0110
0000
0000
,  // measure 10
1001
0000
1000
0100
0000
1000
0000
0001
0000
0100
0000
0010
0000
0000
0110
0000
,  // measure 11
1010
0000
0010
0100
0000
0001
0000
1000
0000
0100
0000
0011
0000
0000
0011
0000
,  // measure 12
1001
0000
0001
0100
0000
0001
0000
1000
0000
0010
0000
0001
0000
0000
0011
0000
,  // measure 13
0110
0000
0010
1000
0000
0100
0000
0010
0000
1000
0000
0010
0000
0011
0000
0000
,  // measure 14
1001
0000
1000
0100
0000
0010
0000
0000
1001
0000
0000
0001
0000
0000
1000
0000
,  // measure 15
1001
0000
0000
0000
0000
0000
0001
0100
0001
1000
0010
1000
,  // measure 16
0001
0000
0100
0010
0000
1000
0000
0100
0000
1000
0000
0010
0000
0100
0001
0010
,  // measure 17
0001
0000
1000
0100
0000
1000
0000
0001
0000
0100
0000
0010
1000
0000
1001
0000
,  // measure 18
0001
0000
0010
1000
0000
0010
0000
0001
0000
1000
0000
0100
0000
0001
0100
1000
,  // measure 19
0001
0000
0010
0100
0000
1000
0000
0010
0000
0100
0000
0001
0000
0000
1001
0000
,  // measure 20
0011
0000
0010
0001
0000
0100
0000
0010
0000
1000
0000
0100
0000
0010
0001
0010
,  // measure 21
0100
0000
1000
0010
0000
0100
0000
0001
0000
1000
0000
0100
0010
0000
0021
0000
,  // measure 22
0000
0000
0130
1000
0000
0010
0000
0001
0000
0010
0000
1000
0000
0001
0100
0010
,  // measure 23
0110
0000
0010
1000
0000
0001
0000
0100
0000
0010
0000
1000
0000
0000
0004
0000
,  // measure 24
1003
0000
0010
0100
0000
0001
0000
0010
0000
0001
0000
0100
0000
0010
1000
0100
,  // measure 25
1000
0000
0001
0010
0000
0001
0000
1000
0000
0010
0000
0100
0001
0000
1001
0000
,  // measure 26
1000
0000
0100
0001
0000
0100
0000
1000
0000
0001
0000
0010
0000
1000
0010
0001
,  // measure 27
1000
0000
0100
0010
0000
0001
0000
0100
0000
0010
0000
1000
0000
0000
1001
0000
,  // measure 28
1100
0000
0100
1000
0000
0010
0000
0100
0000
0001
0000
0010
0000
0100
1000
0100
,  // measure 29
0010
0000
0001
0100
0000
0010
0000
1000
0000
0001
0000
0010
0100
0000
1200
0000
,  // measure 30
0000
0000
0310
0001
0000
0100
0000
1000
0000
0100
0000
0001
0000
1000
0010
0100
,  // measure 31
0110
0000
0100
0001
0000
1000
0000
0010
0000
0100
0000
0001
1000
0000
1001
0000
,  // measure 32
0110
0000
0000
0001
2000
0000
3100
0000
M100
0000
0000
0001
2000
0000
3010
0000
,  // measure 33
M010
0000
0000
0100
2000
0000
3100
0000
M100
0000
0000
0001
0010
0000
0010
0001
,  // measure 34
0200
0000
0000
0310
2000
0000
3010
0000
M010
0000
0000
0001
0020
0000
0130
1000
,  // measure 35
0002
0000
0000
0023
0100
0000
0230
0000
2300
0000
0000
3020
0000
0000
0130
0000
,  // measure 36
0102
0000
0000
0103
0020
0000
0130
0000
01M0
0000
0000
1000
0002
0000
0013
0000
,  // measure 37
001M
0000
0000
0100
2000
0000
3100
0000
M100
0000
0000
0010
2000
0000
3010
0000
,  // measure 38
M020
0000
0000
0031
2000
0000
3100
0000
M100
0000
0000
0010
2000
0000
3010
0000
,  // measure 39
M010
0000
0000
0010
0100
0000
0001
0000
1000
0000
0000
1010
0000
0000
0110
0000
,  // measure 40
0101
0000
0001
1000
0000
0100
0000
1000
0000
0010
0000
1000
0001
0000
0100
0000
,  // measure 41
0010
0000
1000
0010
0000
0100
0000
0010
0000
0001
0000
0010
0100
0000
1000
0000
,  // measure 42
0100
0000
0001
1000
0000
0001
0000
0100
0000
0001
0000
1000
0001
0000
0010
0000
,  // measure 43
0100
0000
0001
0100
0000
0010
0000
0100
0000
1000
0000
1100
0000
0000
0101
0000
,  // measure 44
1000
0000
0000
0000
0002
0000
0023
0000
2030
0000
0000
3002
0000
0000
0203
0000
,  // measure 45
2300
0000
0000
3020
0000
0000
0032
0000
0000
2003
0000
0000
3200
0000
0302
0000
,  // measure 46
0013
0000
0100
1000
0000
0001
0000
0010
0000
0100
0000
1000
0010
0000
0100
0000
,  // measure 47
0001
1000
0001
1000
0001
1000
0101
0000
0000
1100
0000
0000
,  // measure 48
1001
0000
0000
0000
0002
0003
0000
0000
1000
0000
0001
0000
0000
0000
0001
0000
0100
0000
0002
0003
0000
0000
0001
0000
0010
0000
0000
0000
0100
0000
0000
0000
,  // measure 49
1000
0000
0000
0000
0200
0300
0000
0000
0010
0000
0100
0000
0000
0000
0100
0000
1000
0000
0200
0300
0000
0000
0100
0000
0001
0000
0000
0000
0100
0000
0000
0000
,  // measure 50
1000
0000
0000
0000
0002
0003
0000
0000
1000
0000
0010
0000
0000
0000
0010
0000
1000
0000
0020
0030
0000
0000
0010
0000
0001
0000
0000
0000
0010
0000
0000
0000
,  // measure 51
0100
0000
0000
0000
0002
0003
0000
0000
0100
0000
1000
0000
0000
0000
1000
0000
0100
0000
2000
3000
0000
0000
0100
0000
0001
0000
0000
0000
0101
0000
0000
0000
,  // measure 52
1100
0000
0100
0010
0000
0001
0000
1000
0001
0000
0010
0100
0000
1000
0000
0001
,  // measure 53
0100
0000
0010
1000
0000
0100
0000
1000
0010
0000
0100
0001
0000
0010
0000
0001
,  // measure 54
1000
0000
0000
0000
0000
0000
0001
0000
0000
0100
0000
0000
0000
0000
0000
0001
0000
0000
1000
0000
0000
0000
0000
0000
0001
0000
0000
0100
0000
0000
0000
0000
0000
0001
0000
0000
1000
0000
0000
0000
1000
0000
0000
0000
1000
0000
0000
0000
,  // measure 55
0001
0000
0100
0010
0000
1000
0000
0001
0000
0100
0000
0010
1000
0000
1001
0000
,  // measure 56
0110
0000
0010
1000
0000
0100
0000
0001
0000
0100
0000
1000
0000
0010
0100
0001
,  // measure 57
0010
0000
1000
0010
0000
0001
0000
0100
0000
0010
0000
1000
0001
0000
1001
0000
,  // measure 58
0101
0000
0001
0010
0000
0001
0000
0100
0000
0010
0000
1000
0000
0100
0010
0001
,  // measure 59
1000
0000
0100
0010
0000
0100
0000
0001
0000
0100
0000
0010
0000
0000
0110
0000
,  // measure 60
0011
0000
0001
0010
0000
0100
0000
1000
0000
0001
0000
0010
0000
0100
1000
0100
,  // measure 61
0010
0000
0001
0100
0000
0010
0000
1000
0000
0100
0000
0010
0001
0000
0101
0000
,  // measure 62
1100
0000
1000
0010
0000
0100
0000
0010
0000
1000
0000
0001
0000
0010
0100
1000
,  // measure 63
0010
0000
0100
0001
0000
1000
0000
0100
0000
0010
0000
0001
0000
0000
0000
0000
,  // measure 64
1001
0000
1000
0010
0000
0100
0000
0001
0000
0010
0000
0100
0000
0000
1100
0000
,  // measure 65
0011
0000
0010
0001
0000
0100
0000
0010
0000
1000
0000
0001
0000
0101
0000
0000
,  // measure 66
1010
0000
1000
0001
0000
0100
0000
0010
0000
1000
0000
0001
0000
0000
1001
0000
,  // measure 67
0110
0000
0000
0000
0000
0000
0000
0000
1100
0000
0000
0101
0000
0000
1100
0000
,  // measure 68
1001
0000
0000
0000
;

//---------------dance-single - ----------------
#NOTEDATA:;
#CHARTNAME:;
#STEPSTYPE:dance-single;
#DESCRIPTION:;
#CHARTSTYLE:;
#DIFFICULTY:Hard;
#METER:8;
#RADARVALUES:0.511043,0.554055,0.473353,0.395754,0.306515,461.000000,400.000000,61.000000,51.000000,0.000000,0.000000,0.000000,0.000000,0.000000,0.511043,0.554055,0.473353,0.395754,0.306515,461.000000,400.000000,61.000000,51.000000,0.000000,0.000000,0.000000,0.000000,0.000000;
#CREDIT:DDRDAIKENKAI;
#NOTES:
// measure 0
0000
0000
0000
0000
,  // measure 1
0000
0000
0000
0000
,  // measure 2
0000
0000
0000
0000
,  // measure 3
0000
0000
0000
0000
,  // measure 4
1001
0000
0001
0000
0000
0100
0000
0010
0000
0000
0000
1000
0000
0000
1010
0000
,  // measure 5
0110
0000
0100
0000
0000
0001
0000
1000
0000
0000
0000
0100
0000
0110
0000
0000
,  // measure 6
0011
0000
0001
0000
0000
1000
0000
0100
0000
0000
0000
1000
0000
0000
1001
0000
,  // measure 7
0110
0000
0000
0000
0000
0000
0000
0000
1001
0000
0000
1001
0000
0000
1001
0000
,  // measure 8
0101
0000
0100
0000
0020
0000
0000
1030
0100
0000
0000
0100
1000
0000
0010
0000
,  // measure 9
0010
0000
0100
0000
2000
0000
0000
3100
0001
0000
0000
0001
0010
0100
0000
0000
,  // measure 10
0110
0000
0010
0000
0002
0000
0000
0103
0010
0000
0000
0010
1000
0000
1000
0000
,  // measure 11
0100
0000
1000
0000
0020
0000
0000
0130
0001
0000
0000
0010
0000
0000
0010
0000
,  // measure 12
1001
0000
0001
0000
2000
0000
0000
3010
0001
0000
0000
0001
0010
0000
1000
0000
,  // measure 13
1000
0000
0100
0000
0002
0000
0000
0103
0010
0000
0000
0010
0001
0100
0000
0000
,  // measure 14
0110
0000
1001
0000
,  // measure 15
1100
0000
0000
0000
0000
0000
0010
0001
0010
0001
0010
0001
,  // measure 16
0100
1000
0100
0000
0001
1000
0100
0000
,  // measure 17
0010
0000
0001
0000
0100
0000
0010
0000
1000
0000
0000
0001
1000
0000
2000
0000
,  // measure 18
3001
0010
0100
0000
1000
0001
0100
0000
,  // measure 19
0010
0000
1000
0000
0100
0000
0010
0000
0001
0000
0000
1000
0000
0000
0002
0000
,  // measure 20
1003
0001
0100
0000
1000
0100
0001
0000
,  // measure 21
0010
0000
0100
0000
1000
0000
0001
0000
0100
0000
0000
0010
1000
0000
0002
0000
,  // measure 22
0000
0013
0100
0000
1000
0010
0100
0000
,  // measure 23
0101
0000
0000
0000
0000
0000
0000
0000
0000
0000
0000
0010
1000
0000
1001
0000
,  // measure 24
1100
0100
0001
0100
1000
0010
0001
0010
,  // measure 25
1000
0000
0100
0000
0010
0000
0001
0000
0100
0000
0000
0010
1000
0000
1001
0000
,  // measure 26
0001
0010
1000
0010
0001
0100
1000
0100
,  // measure 27
0001
0000
0010
0000
0100
0000
1000
0000
0010
0000
0000
0100
0001
0000
1001
0000
,  // measure 28
1100
0100
0010
0100
0001
0100
0010
0100
,  // measure 29
1000
0000
0010
0000
0100
0000
0010
0000
0001
0000
0000
0010
0100
0000
0120
0000
,  // measure 30
0000
1030
0011
0000
1001
0000
1100
0000
,  // measure 31
0110
0000
0100
1000
0000
0001
0000
0100
0000
0010
0000
1000
0001
0000
0100
0000
,  // measure 32
0010
2010
0001
0100
,  // measure 33
0010
0000
0100
0000
0001
0000
3100
0010
,  // measure 34
0002
0000
1000
0000
0010
0000
0103
0001
,  // measure 35
2000
0000
0000
3020
0000
0000
0230
0000
0302
0000
0000
0023
0000
0000
0230
0000
,  // measure 36
2300
0000
3001
0200
0010
0000
1000
0000
,  // measure 37
0010
0000
0000
0302
0000
0000
2003
0000
3200
0000
0000
0320
0000
0000
0230
0000
,  // measure 38
2300
0001
0010
0100
,  // measure 39
3002
0000
0000
0000
0023
0000
0000
0000
0130
0000
0000
0110
0000
0000
1100
0000
,  // measure 40
1002
1000
0100
0010
,  // measure 41
0100
0000
0000
0000
1000
0000
0000
0000
0013
0000
0000
0002
0000
0000
0203
0000
,  // measure 42
0320
0000
0001
0000
1000
0000
0130
0002
,  // measure 43
0010
0000
0000
0000
1000
0000
0000
0000
0010
0000
0000
0100
0000
0000
0100
0000
,  // measure 44
1003
0000
0000
0000
0002
0000
0023
0000
0230
0000
0000
0302
0000
0000
0203
0000
,  // measure 45
2300
0000
0000
3020
0000
0000
0230
0000
0000
2300
0000
0000
3200
0000
0320
0000
,  // measure 46
2030
3200
0320
0032
,  // measure 47
1003
0001
1000
0001
1000
0001
1100
0000
0000
0101
0000
0000
,  // measure 48
2000
0001
0010
0100
,  // measure 49
3020
0001
0100
1000
,  // measure 50
0230
0001
0010
1000
,  // measure 51
0301
0000
0000
0000
0001
0000
0000
0000
0001
0000
0000
1000
0001
0000
0101
0000
,  // measure 52
1100
0000
0000
0100
0010
0000
0000
0000
0110
0000
0000
0010
0001
0000
0000
0000
,  // measure 53
0011
0000
0000
0001
0100
0000
0000
0000
0101
0000
0000
0100
0010
0000
0000
0000
,  // measure 54
0110
0000
0000
0000
0000
0000
0000
0000
0000
1010
0000
0000
0000
0000
0000
0000
0000
0000
0110
0000
0000
0000
0000
0000
0000
0000
0000
0101
0000
0000
0000
0000
0000
0000
0000
0000
0001
0000
0000
0000
1000
0000
0000
0000
0001
0000
0000
0000
,  // measure 55
1001
0000
0000
0000
0000
0000
0000
0000
0000
0000
0000
0001
0010
0000
0110
0000
,  // measure 56
1100
0100
0010
0100
0001
0100
0010
0100
,  // measure 57
1000
0000
0010
0000
0100
0000
0001
0000
0010
0000
0000
0100
1000
0000
1001
0000
,  // measure 58
0001
0100
0010
0100
1000
0100
0010
0100
,  // measure 59
0001
0000
0010
0000
0100
0000
1000
0000
0010
0000
0000
1000
0100
0000
0110
0000
,  // measure 60
0011
0001
0100
0001
0010
0001
1000
0001
,  // measure 61
1000
0000
0100
0000
1000
0000
0010
0000
1000
0000
0000
0100
0010
0000
0011
0000
,  // measure 62
0101
0100
1000
0100
0001
0010
1000
0010
,  // measure 63
0001
0100
0010
1000
0001
0100
0010
1000
,  // measure 64
1001
0000
0001
0000
0000
0100
0000
0010
0000
0000
0000
1000
0000
0000
1010
0000
,  // measure 65
0110
0000
0100
0000
0000
0001
0000
1000
0000
0000
0000
0100
0000
0110
0000
0000
,  // measure 66
0011
0000
0001
0000
0000
1000
0000
0100
0000
0000
0000
1000
0000
0000
1001
0000
,  // measure 67
0110
0000
0000
0000
0000
0000
0000
0000
1010
0000
0000
1010
0000
0000
1010
0000
,  // measure 68
1001
0000
0000
0000
;

//---------------dance-single - ----------------
#NOTEDATA:;
#CHARTNAME:;
#STEPSTYPE:dance-single;
#DESCRIPTION:;
#CHARTSTYLE:;
#DIFFICULTY:Medium;
#METER:6;
#RADARVALUES:0.402405,0.448521,0.364714,0.031040,0.112518,363.000000,316.000000,47.000000,4.000000,0.000000,0.000000,0.000000,0.000000,0.000000,0.402405,0.448521,0.364714,0.031040,0.112518,363.000000,316.000000,47.000000,4.000000,0.000000,0.000000,0.000000,0.000000,0.000000;
#CREDIT:DDRDAIKENKAI;
#NOTES:
// measure 0
0000
0000
0000
0000
,  // measure 1
0000
0000
0000
0000
,  // measure 2
0000
0000
0000
0000
,  // measure 3
0000
0000
0000
0000
,  // measure 4
1001
0000
0000
0000
0000
0000
0000
1000
,  // measure 5
1100
0000
0000
0000
0000
0000
0000
0000
0000
0000
0000
0000
0000
0010
0000
0000
,  // measure 6
0011
0000
0000
0000
0000
0000
0000
0001
,  // measure 7
0101
0000
0000
0000
0000
0000
0000
0000
1010
0000
0000
1010
0000
0000
1010
0000
,  // measure 8
1000
0000
0001
0000
1000
0000
0100
0010
,  // measure 9
0001
0000
0100
0000
0010
0000
1000
0001
,  // measure 10
0010
0000
0100
0000
1000
0000
0001
0100
,  // measure 11
0010
0000
0000
0000
1000
0000
0000
0000
0100
0000
0000
0010
0000
0000
0010
0000
,  // measure 12
0100
0000
1000
0000
0010
0000
0100
0001
,  // measure 13
0010
0000
0100
0000
1000
0000
0001
0100
,  // measure 14
0110
0000
1001
0000
,  // measure 15
0110
0000
1001
1001
,  // measure 16
0001
0010
0001
0000
1000
0000
0100
0000
,  // measure 17
0001
0100
1000
0000
0001
0000
1001
0000
,  // measure 18
0100
0010
1000
0000
0001
0000
0010
0000
,  // measure 19
0100
0010
0001
0000
1000
0000
1000
0001
,  // measure 20
0001
0100
0010
0000
1000
0000
0010
0000
,  // measure 21
0100
0001
0010
0000
0100
0000
1000
0002
,  // measure 22
0000
1003
0100
0000
0001
0100
1000
0000
,  // measure 23
1001
0000
0000
0000
0000
0000
0000
0000
0000
0000
0000
1000
0001
0000
0001
0000
,  // measure 24
0100
0010
0100
0000
0001
0010
0100
0000
,  // measure 25
1000
0000
0010
0000
1000
0000
0100
0000
0010
0000
0000
0001
1000
0000
0000
0000
,  // measure 26
0100
1000
0001
0000
0100
0001
1000
0000
,  // measure 27
0001
0000
0010
0000
0001
0000
0100
0000
0010
0000
0000
1000
0001
0000
0000
0000
,  // measure 28
0010
0100
0010
0000
0001
1000
0100
0000
,  // measure 29
1000
0000
0010
0000
0100
0000
0001
0000
0100
0000
0000
0010
1000
0000
0002
0000
,  // measure 30
0000
0013
0110
0000
1100
0000
0011
0000
,  // measure 31
1001
0000
0000
0000
0000
0000
0000
0000
0000
0000
0000
1000
0010
0000
0100
0000
,  // measure 32
0001
0011
1000
1010
,  // measure 33
0001
0000
0011
0000
1000
0001
0100
0010
,  // measure 34
1000
1100
0001
0101
,  // measure 35
1000
0000
1100
0000
1000
0001
0100
0000
,  // measure 36
0110
0101
0010
1100
,  // measure 37
0010
0000
0101
0000
0001
0100
0010
1000
,  // measure 38
0100
0011
0100
1010
,  // measure 39
0100
0000
0000
0000
0001
0000
0000
0000
0010
0000
0000
0100
0000
0000
0100
0000
,  // measure 40
1000
0101
0010
1100
,  // measure 41
0001
0000
1010
0000
0100
0001
1000
0100
,  // measure 42
1000
0011
0100
1010
,  // measure 43
0001
0000
0000
0000
1010
0000
0000
0000
0100
0000
0000
0010
0000
0000
0001
0000
,  // measure 44
1000
0000
0000
0000
0001
0000
0010
0000
0001
0000
0000
1000
0000
0000
0100
0000
,  // measure 45
0010
0000
0000
0001
0000
0000
0010
0000
0000
0100
0000
0000
0010
0000
0001
0000
,  // measure 46
0020
0100
0001
0130
,  // measure 47
0001
0001
1100
0101
,  // measure 48
1001
0000
1000
0000
0001
0000
0010
0100
,  // measure 49
1000
0000
0010
0000
1000
0000
0100
0010
,  // measure 50
0001
0000
0100
0000
0010
0000
1000
0010
,  // measure 51
1000
0000
0000
0000
1000
0000
0000
0000
1000
0000
0000
1000
0001
0000
0000
0001
,  // measure 52
1000
0000
0000
0100
0010
0000
0000
0000
0001
0000
0000
0100
0010
0000
0000
0000
,  // measure 53
1000
0000
0000
0100
0010
0000
0000
0000
0001
0000
0000
0100
0010
0000
0000
0010
,  // measure 54
1000
0000
0000
1000
0000
0000
1000
0000
0000
1000
0000
0000
0002
0000
0000
0000
,  // measure 55
1003
0000
0000
0000
0000
0000
0000
0000
0000
0000
0000
0001
1000
0000
0000
0000
,  // measure 56
0001
0100
0001
0000
1000
0010
1000
0000
,  // measure 57
0001
0000
0100
0000
0001
0000
1000
0000
0010
0000
0000
0100
0001
0000
0000
0000
,  // measure 58
1000
0100
1000
0000
0001
0010
0001
0000
,  // measure 59
1000
0000
0100
0000
1000
0000
0001
0000
0010
0000
0000
0100
1000
0000
0000
0000
,  // measure 60
0010
1000
0100
0000
0010
0001
0100
0000
,  // measure 61
0010
0000
1000
0000
0100
0000
0010
0000
0001
0000
0000
1000
0001
0000
0000
0000
,  // measure 62
0100
0001
0010
0000
0100
1000
0010
0000
,  // measure 63
0100
0000
0001
0000
0010
0000
0100
0000
1000
0000
0000
0001
1000
0000
0000
0000
,  // measure 64
1001
0000
0000
0000
0000
0000
0000
0001
,  // measure 65
0101
0000
0000
0000
0000
0000
0000
0000
0000
0000
0000
0000
0000
1000
0000
0000
,  // measure 66
1010
0000
0000
0000
0000
0000
0000
0100
,  // measure 67
1100
0000
0000
0000
0000
0000
0000
0000
0011
0000
0000
0011
0000
0000
0011
0000
,  // measure 68
1001
0000
0000
0000
;

//---------------dance-single - ----------------
#NOTEDATA:;
#CHARTNAME:;
#STEPSTYPE:dance-single;
#DESCRIPTION:;
#CHARTSTYLE:;
#DIFFICULTY:Beginner;
#METER:1;
#RADARVALUES:0.131918,0.263836,0.155198,0.093119,0.000000,119.000000,99.000000,20.000000,12.000000,0.000000,0.000000,0.000000,0.000000,0.000000,0.131918,0.263836,0.155198,0.093119,0.000000,119.000000,99.000000,20.000000,12.000000,0.000000,0.000000,0.000000,0.000000,0.000000;
#CREDIT:DDRDAIKENKAI;
#NOTES:
// measure 0
0000
0000
0000
0000
,  // measure 1
0000
0000
0000
0000
,  // measure 2
0000
0000
0000
0000
,  // measure 3
0000
0000
0000
0000
,  // measure 4
1001
0000
0000
0000
,  // measure 5
0110
0000
0000
0000
,  // measure 6
1001
0000
0000
0000
,  // measure 7
0110
0000
1001
0000
,  // measure 8
1000
0000
0000
0000
,  // measure 9
0001
0000
0000
0000
,  // measure 10
1000
0000
0000
0000
,  // measure 11
0001
0000
0000
0100
,  // measure 12
0100
0000
0000
0000
,  // measure 13
0010
0000
0000
0000
,  // measure 14
0110
0000
1001
0000
,  // measure 15
0110
0000
0010
0010
,  // measure 16
0010
0000
0000
0000
,  // measure 17
1000
0000
0000
0000
,  // measure 18
0001
0000
0000
0000
,  // measure 19
1000
0000
0000
0000
,  // measure 20
0100
0000
0000
0000
,  // measure 21
0010
0000
0000
0000
,  // measure 22
0000
0001
0000
0001
,  // measure 23
0001
0000
0000
1000
,  // measure 24
1000
0000
0010
0000
,  // measure 25
1000
0000
0100
0000
,  // measure 26
0010
0000
0001
0000
,  // measure 27
0100
0000
0010
0000
,  // measure 28
1000
0000
0001
0000
,  // measure 29
1000
0000
0001
0001
,  // measure 30
0000
0100
0100
0100
,  // measure 31
0100
0000
0000
0000
,  // measure 32
0020
0000
0030
0000
,  // measure 33
2000
0000
3000
0000
,  // measure 34
0200
0000
0300
0000
,  // measure 35
1000
0000
0001
0000
,  // measure 36
0200
0000
0300
0000
,  // measure 37
0020
0000
0030
0000
,  // measure 38
2000
0000
3000
0000
,  // measure 39
0002
0000
0003
0000
,  // measure 40
2001
0000
3000
0000
,  // measure 41
0002
0000
0003
0000
,  // measure 42
0020
0000
0030
0000
,  // measure 43
0200
0000
0300
0000
,  // measure 44
1000
0000
0100
0000
,  // measure 45
0010
0000
0001
0000
,  // measure 46
0200
0000
0300
0000
,  // measure 47
0010
0010
0010
0000
,  // measure 48
0110
0000
0000
0000
,  // measure 49
0000
0000
0000
0000
,  // measure 50
0000
0000
0000
0000
,  // measure 51
0000
0000
0000
1001
,  // measure 52
1001
0000
0110
0000
,  // measure 53
1001
0000
0110
0000
,  // measure 54
1000
1000
1000
0000
,  // measure 55
1001
0000
0000
0000
,  // measure 56
0001
0001
0000
1000
,  // measure 57
0000
0010
0000
0100
,  // measure 58
0000
0001
0000
1000
,  // measure 59
0000
0100
0000
0010
,  // measure 60
0010
0010
0000
0100
,  // measure 61
0000
1000
0000
0010
,  // measure 62
0000
0100
0000
0001
,  // measure 63
0000
0010
0000
0110
,  // measure 64
0110
0000
0000
0000
,  // measure 65
1000
0000
0000
0000
,  // measure 66
0010
0000
0000
0000
,  // measure 67
0100
0000
0110
0000
,  // measure 68
1001
0000
0000
0000
;

//---------------dance-single - ----------------
#NOTEDATA:;
#CHARTNAME:;
#STEPSTYPE:dance-single;
#DESCRIPTION:;
#CHARTSTYLE:;
#DIFFICULTY:Easy;
#METER:3;
#RADARVALUES:0.253859,0.316603,0.333675,0.193997,0.000000,229.000000,186.000000,43.000000,25.000000,0.000000,0.000000,0.000000,0.000000,0.000000,0.253859,0.316603,0.333675,0.193997,0.000000,229.000000,186.000000,43.000000,25.000000,0.000000,0.000000,0.000000,0.000000,0.000000;
#CREDIT:DDRDAIKENKAI;
#NOTES:
// measure 0
0000
0000
0000
0000
,  // measure 1
0000
0000
0000
0000
,  // measure 2
0000
0000
0000
0000
,  // measure 3
0000
0000
0000
0000
,  // measure 4
1001
0000
0000
0000
,  // measure 5
0110
0000
0000
0000
,  // measure 6
1001
0000
0000
0000
,  // measure 7
0110
0000
1001
1001
,  // measure 8
1000
1000
0100
0010
,  // measure 9
0001
0100
0010
1000
,  // measure 10
0001
0010
0100
1000
,  // measure 11
0001
0100
0010
1000
,  // measure 12
1001
0001
1000
0100
,  // measure 13
0010
0100
1000
0001
,  // measure 14
1001
0000
0110
0000
,  // measure 15
1001
0000
0110
0110
,  // measure 16
1000
0100
0001
0100
,  // measure 17
1000
1000
1000
1000
,  // measure 18
0001
0010
1000
0010
,  // measure 19
0001
0001
0001
0001
,  // measure 20
0100
0001
0010
0001
,  // measure 21
0100
0100
0100
0100
,  // measure 22
0000
0010
1000
0100
,  // measure 23
1000
0000
0000
1001
,  // measure 24
0001
0010
0100
1000
,  // measure 25
0001
0100
0010
0010
,  // measure 26
1000
0100
0010
0001
,  // measure 27
1000
0010
0100
0100
,  // measure 28
0001
1000
0001
0100
,  // measure 29
0010
1000
0001
0001
,  // measure 30
0000
1001
0110
0110
,  // measure 31
2002
0000
0000
3003
,  // measure 32
2000
0000
3002
0000
,  // measure 33
0203
0000
0310
1000
,  // measure 34
0200
0000
0320
0000
,  // measure 35
0032
0000
1003
0010
,  // measure 36
0200
0000
0320
0000
,  // measure 37
2030
0000
3002
0000
,  // measure 38
0023
0000
0230
0000
,  // measure 39
1300
0010
0100
0001
,  // measure 40
2000
0000
3200
0000
,  // measure 41
0320
0000
0031
1000
,  // measure 42
0020
0000
0230
0000
,  // measure 43
0302
0000
1003
0100
,  // measure 44
0002
0000
0000
0000
,  // measure 45
0203
0000
0000
0000
,  // measure 46
2300
0000
0000
0000
,  // measure 47
3001
0001
1001
1001
,  // measure 48
0110
0000
1100
0000
,  // measure 49
0110
0000
0011
0000
,  // measure 50
1001
0000
1010
0000
,  // measure 51
0101
0000
0100
0110
,  // measure 52
1001
0000
0110
0000
,  // measure 53
1001
0000
0110
0000
,  // measure 54
1001
1000
1000
0001
,  // measure 55
2002
0000
0000
3003
,  // measure 56
1000
0100
0010
0100
,  // measure 57
1000
1000
1000
1001
,  // measure 58
0001
0010
0100
0010
,  // measure 59
0001
0001
0001
1001
,  // measure 60
0100
0010
1000
0010
,  // measure 61
0100
0100
0100
0110
,  // measure 62
0001
0010
0001
0100
,  // measure 63
0010
0010
0010
0010
,  // measure 64
1010
0000
0000
0000
,  // measure 65
0101
0000
0000
0000
,  // measure 66
1100
0000
0000
0000
,  // measure 67
0011
0000
0110
0110
,  // measure 68
1001
0000
0000
0000
;
