#VERSION:0.83;
#TITLE:FANTASTIC THREE;
#SUBTITLE:;
#ARTIST:ジャカルタファンクブラザーズ;
#TITLETRANSLIT:;
#SUBTITLETRANSLIT:;
#ARTISTTRANSLIT:;
#GENRE:;
#ORIGIN:;
#CREDIT:;
#BANNER:[Round 2] - FANTASTIC THREE.png;
#BACKGROUND:[Round 2] - FANTASTIC THREE-bg.png;
#PREVIEWVID:;
#JACKET:[Round 2] - FANTASTIC THREE-jacket.png;
#CDIMAGE:;
#DISCIMAGE:;
#LYRICSPATH:;
#CDTITLE:;
#MUSIC:FANTASTIC THREE.mp3;
#OFFSET:-0.250000;
#SAMPLESTART:87.150284;
#SAMPLELENGTH:20.756752;
#SELECTABLE:YES;
#BPMS:0.000=185.000;
#STOPS:264.000=0.041,
264.125=0.041,
264.250=0.041,
264.375=0.041,
264.500=0.081,
264.750=0.081,
265.000=0.162,
265.500=0.162;
#DELAYS:;
#WARPS:;
#TIMESIGNATURES:0.000=4=4;
#TICKCOUNTS:0.000=4;
#COMBOS:0.000=1;
#SPEEDS:0.000=1.000=0.000=0;
#SCROLLS:0.000=1.000;
#FAKES:;
#LABELS:0.000=Song Start;
#BGCHANGES:;
#KEYSOUNDS:;
#ATTACKS:
;

//---------------dance-single - ----------------
#NOTEDATA:;
#CHARTNAME:;
#STEPSTYPE:dance-single;
#DESCRIPTION:;
#CHARTSTYLE:;
#DIFFICULTY:Hard;
#METER:10;
#RADARVALUES:0.683871,1.008386,0.239355,0.453949,0.350779,580.000000,551.000000,29.000000,55.000000,0.000000,0.000000,2.000000,0.000000,0.000000,0.683871,1.008386,0.239355,0.453949,0.350779,580.000000,551.000000,29.000000,55.000000,0.000000,0.000000,2.000000,0.000000,0.000000;
#CREDIT:;
#NOTES:
0000
0000
0000
0000
,
0000
0000
0000
0000
,
0000
0000
0000
0000
,
0000
0000
0000
0000
,
0000
0000
0000
0000
,
0000
0000
0000
0000
,
0000
0000
0000
0000
,
0000
0000
0000
0000
,
0000
0000
0000
0000
,
1002
0000
0000
0000
0000
0000
0000
0000
4000
0000
0000
0000
,
0000
0000
0000
0000
3000
0000
0003
0000
0000
0100
0000
0000
0010
0000
0000
1000
0000
0000
0100
0000
0000
0001
0000
0000
,
0200
0000
0000
0000
0000
0000
0000
0300
,
0010
0010
0100
1000
0001
0000
1100
0000
,
0201
0000
0000
0000
0000
0000
0000
0040
0000
0000
0000
0000
,
0330
0000
1000
0100
0010
1000
0001
0100
,
0101
0100
0110
0010
,
1010
0000
1001
0000
,
1001
0000
1000
0010
0100
0000
0001
0010
,
0100
0000
0010
0001
1000
0000
0101
0000
,
0001
0000
1000
0001
0010
0000
0100
0010
,
0001
0000
0010
0100
1100
0000
0011
0000
,
0001
1000
0100
1000
0000
0010
0100
0010
,
0000
0100
0001
0100
0110
0000
1001
0000
,
0002
0203
2300
3020
,
0031
0000
1000
0000
0001
0000
1000
0000
0010
0100
0010
0100
0001
0000
0000
0000
,
1000
0100
0010
0100
1000
0001
0010
0001
,
1000
0010
1000
0000
0100
0010
0001
1000
,
0001
1000
0010
1000
0100
0010
0100
1000
,
0001
0010
0001
0100
0001
1000
0010
1000
,
0100
0010
0001
0100
0001
1000
0010
1000
,
0001
0100
0010
0000
0010
0100
0001
1000
,
0100
0010
0100
1000
0001
0010
0100
0010
,
0001
0001
1000
1000
0010
0000
1001
0000
,
0001
0100
0001
0010
0001
1000
0100
1000
,
0010
1000
0100
0000
0010
0100
1000
0001
,
0100
0001
0010
0100
1000
0100
0001
0100
,
0010
0001
0101
0000
1010
0000
1001
0000
,
0001
0010
0001
0100
0001
1000
0100
0010
,
0100
1000
0001
0000
0100
0001
0010
0001
,
1000
0100
0010
0100
1000
0001
0100
0010
,
1000
0100
0110
0000
0011
0000
1010
0000
,
1000
0000
0001
0100
0002
0000
0103
0001
0200
0000
0301
0100
0001
0000
0200
0000
,
0310
0000
1000
0010
2000
0000
3010
1000
0020
0000
1030
0010
1000
0010
1000
0000
,
0001
0000
1000
0100
2000
0000
3100
1000
0200
0000
1300
0100
2000
0000
3100
0000
,
0010
0001
0020
0000
0031
0000
0001
0010
0002
0000
0013
0001
0020
0000
0130
0000
,
0100
0000
0100
1000
0200
0000
1300
0100
2000
0000
3100
1000
0100
0000
2000
0000
,
3001
0000
0010
0001
0020
0000
0031
0010
0002
0000
0013
0001
0010
0001
0010
0000
,
0001
0000
1000
0001
0100
0001
0010
0001
1000
0100
0010
0001
0100
0000
0100
0000
,
0101
1100
0101
2001
,
0020
0000
0000
0000
0000
0000
0000
0000
0000
0000
0000
0000
3030
0000
1000
0001
,
0100
0000
0000
0000
0001
0000
1000
0001
0100
0000
0000
0000
0001
0000
1000
0001
,
0100
0010
1000
0000
0001
0100
0010
1000
,
0001
0000
0000
0000
1000
0000
0001
1000
0100
0000
0000
0000
0100
0000
1000
0001
,
0100
0010
1000
0001
1000
0010
0100
0001
,
1000
0000
0000
0000
0001
0000
1000
0001
0100
0000
0000
0000
0001
0000
1000
0001
,
0100
0010
1000
0100
0010
0001
0010
0100
,
0010
0000
0000
0000
0001
0000
1000
0001
0100
0000
0000
0000
0001
0000
1000
0001
,
0100
0010
0100
0001
1000
0100
1000
0001
,
0010
0000
0100
2002
0000
0000
0000
0000
,
0000
3003
0000
0000
,
0001
0000
1000
0220
0000
0000
0000
0000
,
0000
0330
0000
0000
,
0001
0000
1000
0202
0000
0000
0000
0000
,
0000
0303
0000
0000
,
0001
0000
1000
2020
0000
0000
0000
3030
,
1000
1000
0001
0001
0100
0100
0010
0010
,
1000
0001
1000
0001
1000
0000
0100
0000
0010
0000
0000
0000
1001
0000
1000
0000
0001
0000
0000
0000
0000
0000
0001
0000
1000
0000
0000
0000
0000
0000
1000
0000
,
0010
0000
0000
0010
1000
0000
0000
1000
0001
0000
0000
0001
0100
0000
0000
0100
,
0010
1000
0001
1000
0100
0000
0010
0001
,
0100
0001
1000
0000
0001
0010
1000
0010
,
0001
0000
0000
0000
0010
0000
0100
0000
1000
0000
0000
0001
0100
0000
0000
0100
,
0010
0000
0000
0010
0100
0000
0000
0100
0001
0000
0000
0001
1000
0000
0000
1000
,
0100
0000
0000
0100
0010
0000
0000
0010
0001
0000
0000
0000
1000
0000
0010
0000
,
0100
0000
0010
0000
0100
0000
0000
0000
0001
0000
0100
0010
0100
0010
0100
0010
,
1000
0000
0100
0000
0010
0000
0001
0000
1000
0000
0000
0001
0100
0000
0000
0010
,
1000
0000
0000
1000
0100
0000
0000
0010
0001
0000
0000
0001
0100
0000
0000
0010
,
1000
0100
0010
0001
0100
0000
0010
1000
,
0100
1000
0001
0000
1000
0100
0001
0100
,
1000
0000
0000
0000
0100
0000
0010
0000
0001
0000
0000
1000
0010
0000
0000
0010
,
0100
0000
0000
0100
0001
0000
0000
0001
1000
0000
0000
1000
0100
0000
0000
0100
,
0010
0000
0000
0010
0001
0000
0000
0001
2000
3002
2003
3020
0230
0320
2030
3002
,
2003
3002
1003
0000
0001
0100
0010
1000
,
0001
0010
0001
1000
0002
0000
0100
0000
,
0010
1003
2000
0100
,
0010
3001
0002
0100
,
0010
1003
2000
0100
,
0010
0000
0000
0000
3001
0000
0000
0000
0100
0000
0010
1000
0020
0000
1030
0010
,
2000
0000
3010
1000
0020
0000
1030
0000
0001
0000
0010
0001
0020
0000
0031
0010
,
0002
0000
0013
0001
0020
0000
0130
0000
2000
0000
3001
0000
0010
0000
0100
0000
,
1000
0100
0010
0100
1000
0001
0100
1000
,
0100
0000
0010
1000
0002
0000
0000
0000
0003
0000
0000
0000
0000
0000
0000
0000
;

//---------------pump-single - ----------------
#NOTEDATA:;
#CHARTNAME:;
#STEPSTYPE:pump-single;
#DESCRIPTION:;
#CHARTSTYLE:;
#DIFFICULTY:Hard;
#METER:18;
#RADARVALUES:0.879600,1.121976,0.189833,0.668543,0.672670,746.000000,721.000000,23.000000,81.000000,0.000000,4.000000,0.000000,0.000000,0.000000,0.879600,1.121976,0.189833,0.668543,0.672670,746.000000,721.000000,23.000000,81.000000,0.000000,4.000000,0.000000,0.000000,0.000000;
#CREDIT:;
#NOTES:
00000
00000
00000
00000
,
10000
00000
00100
00000
10000
00000
00001
01000
,
00001
01000
00100
00100
,
00000
00000
00000
00000
00000
00000
01000
00010
01000
00000
00001
00000
10000
00000
00100
00000
,
01000
00010
10000
00001
01000
00000
02002
00000
,
03003
00000
00001
00000
10000
00000
00010
01000
,
00001
01000
00001
10000
,
10010
00100
01001
00100
,
01001
00000
00010
01000
00010
00000
01000
00000
00001
00000
00100
00010
01000
00000
00001
00000
,
20000
00000
00000
00000
00000
00000
00000
00000
00000
00000
00000
00000
00000
00000
00000
00000
00000
00000
00000
00000
00000
00000
00000
00000
00000
00000
00002
00003
00002
00003
00002
00003
,
00002
00003
00002
00003
30002
00003
00000
00000
00000
00000
00000
00000
00001
00000
00000
00000
01000
00000
00000
00000
10000
00000
00000
00000
01000
00000
00000
00000
00010
00000
00000
00000
,
00200
00000
00000
00000
,
00310
01000
00001
10000
00010
00000
10002
00000
,
02003
00000
00000
00000
00000
00000
00000
00000
00020
00030
00020
00030
00020
00030
00020
00030
,
03000
00000
00010
01000
00100
01000
00010
10000
,
00002
00100
01000
00100
,
01003
00000
01100
00000
,
10100
10000
00010
01000
,
00001
00100
00001
01001
,
00001
01000
00010
01000
,
00100
01000
00110
01100
,
00100
01000
00010
10000
00000
10000
00010
01000
,
00000
01000
00001
00010
00110
00000
01100
00000
,
00100
00000
01000
00010
00100
00000
00001
10000
00010
00000
01000
00010
00100
00000
00010
01000
,
00001
00000
00001
00000
10000
00000
10000
00000
00010
01000
00010
01000
00002
00000
00000
00000
,
01003
00010
00100
00001
10000
00100
10000
00010
,
01000
00100
10000
00000
00001
00010
00001
01000
,
00010
00000
00100
00000
00001
00000
01000
00000
00010
01000
00100
00000
10000
00000
00100
00000
,
01000
00000
00001
00000
00010
00000
00100
00000
01000
00000
00100
10000
00100
00000
01000
00000
,
00001
01000
00010
10000
00100
01000
00010
00100
,
00010
01000
00001
00000
00100
00010
10000
00100
,
01000
00001
01000
00100
10000
01000
10000
00010
,
01010
00100
01010
00100
01010
00000
00200
00000
,
10300
00100
01000
00010
00100
00001
10000
00010
,
01000
00010
10000
00000
00001
00100
00010
01000
,
00001
00000
10000
00000
00010
00000
01000
00000
10000
01000
10000
00000
00100
00000
00010
00000
,
01000
00010
00110
00100
00101
00100
10001
00000
,
10000
00001
00100
00010
10000
00010
00100
00010
,
01000
00100
10000
00000
00010
01000
00100
01000
,
00001
00000
10000
00000
00010
00000
00100
00000
00001
01000
00001
00000
01000
00000
00010
00000
,
00100
00001
00010
00001
00100
00010
01000
00001
,
10000
00000
00001
00100
00002
00000
00103
00001
00200
00000
00301
00100
00002
00000
01003
00000
,
00000
00000
00010
10000
00020
00030
00010
10000
00020
00030
00010
10000
00020
00000
00130
00000
,
00000
00000
01000
00010
00200
00300
00100
00010
02000
03000
01000
00010
00200
00000
00301
00000
,
00000
10000
00010
10000
00020
00000
00130
00000
00001
10000
00001
10000
00001
00000
01000
00000
,
00100
00000
01000
00010
20000
00000
30010
00000
01000
00000
00002
00000
01003
00000
00010
00000
,
00100
00001
00100
00010
01000
00010
10000
00001
00100
00000
00010
00000
01000
00000
00001
00000
,
00200
00000
10300
00010
00100
01000
00001
01000
00010
10000
00100
01000
00010
00100
00001
00010
,
00100
01000
00100
10000
00010
01000
00001
10000
00100
00000
10000
00010
20000
00000
00000
00000
,
30100
00000
00000
00000
00000
00000
10000
01000
00100
00010
00001
00000
01010
00000
01000
00010
,
02000
00000
00000
00000
03010
00000
00100
00001
20000
00000
00000
00000
30001
00000
10000
00001
,
00100
00000
00010
00000
20000
00000
30200
20300
30200
00000
02300
00000
03020
00000
00230
00000
,
00320
00000
00000
00000
01030
00000
00100
10000
00002
00000
00000
00000
10003
00000
00001
10000
,
00010
00000
01000
00001
01000
00000
00001
10000
00001
00000
10000
00010
00100
00000
00001
00000
,
02000
00000
00000
00000
03100
00000
01000
00010
20000
00000
00000
00000
30001
00000
01000
00010
,
10000
00000
00001
00100
00001
00000
00100
00010
00100
00000
00010
01000
00100
00000
01000
00000
,
00002
00000
00000
00000
00103
00000
00010
01000
00200
00000
00000
00000
10300
00000
00010
01000
,
00100
10000
00001
01000
00010
10000
00100
01000
,
00020
00000
00000
02100
00000
00000
00000
00000
,
00000
03030
00000
00000
,
20000
00000
00000
00201
00000
00000
00000
00000
,
00000
30300
00000
00000
,
10000
00000
00000
10220
00000
00000
00000
00000
,
00000
00000
00330
00000
,
01000
00000
00000
20202
00000
00000
00000
30303
,
00001
00000
01000
00100
01000
00100
01000
00100
01000
00100
01000
00010
10000
00001
00100
00010
,
20000
30020
02030
03200
01300
00000
01000
00000
00200
00000
00000
00000
10300
00000
00000
00000
00200
00000
00000
00000
01300
00000
00000
00000
00020
00000
00000
00000
00130
00000
00000
00000
,
00002
01003
00020
00130
00020
01030
00002
00103
,
00010
01000
00010
00100
00001
00100
00010
10000
00100
00000
00000
00000
10000
00000
00010
00000
,
00100
00000
00010
00000
10000
00000
00000
00000
00001
10000
00001
01000
00100
01000
00010
00100
,
00001
00000
10000
00000
00010
00000
00100
00000
00001
00000
10000
00010
00100
00000
00100
00010
,
01000
00000
01000
00001
01000
00000
00001
10000
00001
00000
10000
00010
10000
00000
00010
01000
,
00200
00000
00000
00000
10300
00000
00000
00000
00010
00000
00000
00000
01000
00001
00010
00001
,
01000
00000
00010
00000
01000
00000
00000
00000
00001
10000
00010
00100
00001
01000
00010
10000
,
00100
01000
00010
00100
00001
10000
00100
01000
00002
00000
01003
00000
02000
00000
03100
00000
,
00200
00301
00002
00103
00200
00310
20000
30100
,
01000
00010
01000
00100
10000
00100
01000
00001
00100
00000
00000
00000
00001
00000
01000
00000
,
00100
00000
01000
00000
00001
00000
00000
00000
10000
00001
10000
00010
00100
00010
01000
00100
,
10000
00000
00001
00000
01000
00000
00100
00000
10000
00000
00001
01000
00100
00000
00100
01000
,
00010
00000
00010
10000
00010
00000
10000
00001
10000
00000
00001
01000
00001
00000
01000
00010
,
00100
00000
00010
10000
00100
00000
00000
00000
01000
00010
10000
00001
01000
00010
10000
00001
,
00100
00000
00100
00000
00001
00000
00001
00000
10000
00010
01000
00001
00100
00010
10000
00100
,
01000
10000
01000
00100
00010
10000
00001
01000
00200
00000
00310
01000
00002
00000
01003
00010
,
20000
00000
30010
01000
00001
00000
00001
00000
00000
00000
10000
00010
00100
00000
00100
00010
,
10000
00000
00100
00010
01000
00001
01000
00000
00010
00000
10000
00010
00100
00000
00100
00001
,
01000
00000
00000
00000
00000
00000
00010
00000
00000
00100
00000
00000
00001
00000
00000
00000
00000
00000
00001
00000
00000
00000
00000
00000
00000
00000
10000
00000
00001
00000
10000
00000
00000
00000
00000
00000
00010
00000
00000
00000
00000
00000
01000
00000
00000
00100
00000
00000
,
01000
00001
01000
00001
00200
00000
00000
00000
00310
00000
10000
00010
00100
00000
00100
00001
,
00010
00000
00010
00001
01000
00000
01000
00010
01000
00100
00001
10000
00001
10000
00001
10000
,
00001
00000
10000
00001
00100
00000
00010
00000
02000
00000
03100
00001
00010
00001
01000
00010
,
00100
00010
10000
01000
10000
00100
01000
00010
00100
00001
10000
00010
00100
00010
01000
00001
,
10000
00010
10000
00010
00200
00000
00000
00000
00000
00000
00300
00000
00000
00000
00000
00000
;

//---------------dance-single - ----------------
#NOTEDATA:;
#CHARTNAME:;
#STEPSTYPE:dance-single;
#DESCRIPTION:;
#CHARTSTYLE:;
#DIFFICULTY:Medium;
#METER:8;
#RADARVALUES:0.448054,0.598387,0.264116,0.272369,0.000000,380.000000,348.000000,32.000000,33.000000,0.000000,0.000000,0.000000,0.000000,0.000000,0.448054,0.598387,0.264116,0.272369,0.000000,380.000000,348.000000,32.000000,33.000000,0.000000,0.000000,0.000000,0.000000,0.000000;
#CREDIT:;
#NOTES:
// measure 0
0000
0000
0000
0000
,  // measure 1
0000
0000
0000
0000
,  // measure 2
0000
0000
0000
0000
,  // measure 3
0000
0000
0000
0000
,  // measure 4
0000
0000
0000
0000
,  // measure 5
0000
0000
0000
0000
,  // measure 6
0000
0000
0000
0000
,  // measure 7
0000
0000
0000
0000
,  // measure 8
0000
0000
0000
0000
,  // measure 9
1020
0000
0000
0000
,  // measure 10
0000
0030
0000
0100
0001
0100
0010
1000
,  // measure 11
0200
0000
0000
0000
,  // measure 12
1300
0100
0010
0001
1000
0000
1001
0000
,  // measure 13
0201
0000
0000
0000
,  // measure 14
0300
0000
0010
0100
0001
0100
0010
1000
,  // measure 15
0010
0100
0001
1000
,  // measure 16
0100
0000
0001
0000
,  // measure 17
0100
1000
0010
0001
,  // measure 18
0010
0100
0001
1001
,  // measure 19
0001
1000
0010
1000
,  // measure 20
0100
0010
0011
0011
,  // measure 21
0001
0100
0001
1000
0000
1000
0001
1000
,  // measure 22
0000
0001
1000
0001
1001
0000
0110
0000
,  // measure 23
0002
0203
0320
2030
,  // measure 24
3002
0000
0203
0000
0310
0010
0010
0000
,  // measure 25
1000
0000
0001
0100
0000
0100
0001
0000
,  // measure 26
1000
0000
0100
1000
0000
1000
0100
0000
,  // measure 27
1000
0000
0010
1000
0000
1000
0010
0000
,  // measure 28
0100
0001
0010
0100
,  // measure 29
1000
0000
0001
1000
0000
1000
0001
0000
,  // measure 30
0100
0000
0001
0100
0000
0100
0010
0000
,  // measure 31
1000
0000
1000
0100
0000
0100
1000
0000
,  // measure 32
1000
0100
0010
0001
1000
0000
1001
0000
,  // measure 33
0001
0101
0000
1100
,  // measure 34
0000
0101
0000
1001
,  // measure 35
0000
1010
0000
0011
,  // measure 36
0000
1001
0110
1001
,  // measure 37
0000
0011
0000
1010
,  // measure 38
0000
0011
0000
1001
,  // measure 39
0000
1100
0000
0101
,  // measure 40
0000
1001
0110
1001
,  // measure 41
0002
0100
0010
0100
,  // measure 42
2003
0100
0010
0100
,  // measure 43
3002
0100
0010
0100
,  // measure 44
2003
0100
0010
0100
,  // measure 45
3002
0100
0010
0100
,  // measure 46
2003
0100
0010
0100
,  // measure 47
3001
0010
0100
1000
0001
0010
0100
1000
,  // measure 48
0001
0000
0100
0000
0010
0100
0001
0000
,  // measure 49
2002
0000
0000
0000
0000
3003
0000
0001
,  // measure 50
1000
0000
0000
0001
1000
0000
0000
0001
,  // measure 51
1000
0100
1000
0000
1000
0100
0010
0001
,  // measure 52
1000
0000
0000
0001
1000
0000
0000
0001
,  // measure 53
1000
0010
1000
0001
0000
0001
1000
0000
,  // measure 54
0010
0000
0000
0100
0001
0000
0000
0100
,  // measure 55
0001
0010
0100
0000
0100
0010
0001
1000
,  // measure 56
0001
0000
0000
1000
0001
0000
0000
1000
,  // measure 57
0100
0010
0100
1000
,  // measure 58
0102
0000
0000
0020
0000
0000
0000
0000
,  // measure 59
0000
0033
0000
0000
,  // measure 60
2100
0000
0000
0020
0000
0000
0000
0000
,  // measure 61
0000
3030
0000
0000
,  // measure 62
1002
0000
0000
0200
0000
0000
0000
0000
,  // measure 63
0000
0303
0000
0000
,  // measure 64
2001
0000
0000
0200
0000
0000
3300
0000
,  // measure 65
1000
0100
0010
0001
1000
0100
0010
0001
,  // measure 66
0200
0000
0000
0300
0001
0000
0010
0000
,  // measure 67
0100
1000
0001
0010
,  // measure 68
0100
0010
0001
1000
0010
0000
0100
0010
,  // measure 69
1000
0001
0010
0000
0100
1000
0010
0100
,  // measure 70
0001
0000
1000
0010
0100
0000
0010
0000
,  // measure 71
1000
0001
0010
0100
,  // measure 72
0010
0000
0001
0000
1000
0000
0100
0010
,  // measure 73
0001
1000
0001
0000
0001
0010
0100
1000
,  // measure 74
0100
0010
0100
1000
0001
0000
0010
0000
,  // measure 75
1000
0010
0001
0100
,  // measure 76
0010
0100
0001
1000
0010
0000
1000
0001
,  // measure 77
0100
0001
1000
0000
0001
0010
0100
1000
,  // measure 78
0001
0000
1000
0001
0100
0000
0001
0000
,  // measure 79
0010
0001
0100
0010
,  // measure 80
1000
0000
0001
0000
1000
0001
1000
0001
,  // measure 81
1000
0001
1000
0000
1000
0010
0100
0001
,  // measure 82
1000
0100
0010
0001
2000
0000
0100
0000
,  // measure 83
0010
0100
3002
0100
,  // measure 84
0010
0000
0100
0003
2000
0000
0100
0000
,  // measure 85
0010
0100
3002
0100
,  // measure 86
0010
0000
0100
0003
2000
0000
0100
0000
,  // measure 87
0010
0100
3002
0100
,  // measure 88
0010
0000
0100
0000
0013
0100
1000
0100
,  // measure 89
0010
0001
1000
0100
0010
0001
1000
0010
,  // measure 90
0100
1000
0020
0000
0000
0030
0000
0000
;

//---------------dance-single - ----------------
#NOTEDATA:;
#CHARTNAME:;
#STEPSTYPE:dance-single;
#DESCRIPTION:;
#CHARTSTYLE:;
#DIFFICULTY:Easy;
#METER:5;
#RADARVALUES:0.324249,0.486860,0.115551,0.305384,0.000000,275.000000,261.000000,14.000000,37.000000,0.000000,0.000000,0.000000,0.000000,0.000000,0.324249,0.486860,0.115551,0.305384,0.000000,275.000000,261.000000,14.000000,37.000000,0.000000,0.000000,0.000000,0.000000,0.000000;
#CREDIT:;
#NOTES:
// measure 0
0000
0000
0000
0000
,  // measure 1
0000
0000
0000
0000
,  // measure 2
0000
0000
0000
0000
,  // measure 3
0000
0000
0000
0000
,  // measure 4
0000
0000
0000
0000
,  // measure 5
0000
0000
0000
0000
,  // measure 6
0000
0000
0000
0000
,  // measure 7
0000
0000
0000
0000
,  // measure 8
0000
0000
0000
0000
,  // measure 9
0020
0000
0000
0000
,  // measure 10
0030
0000
0100
0001
,  // measure 11
2000
0000
0000
0000
0000
0000
0000
3000
,  // measure 12
0001
0010
0100
1100
,  // measure 13
2000
0000
0000
0000
,  // measure 14
3000
0100
1000
0001
,  // measure 15
0100
0010
1000
0001
,  // measure 16
0010
0000
0001
0000
,  // measure 17
0100
0010
0000
1000
,  // measure 18
0000
0001
0000
1001
,  // measure 19
0000
1000
0000
0010
,  // measure 20
0000
0100
1001
1001
,  // measure 21
0001
0010
0001
1000
,  // measure 22
0100
1000
1001
0001
,  // measure 23
2000
3020
0230
0302
,  // measure 24
0023
0000
0230
0000
1300
0001
1000
0000
,  // measure 25
0010
1000
0010
1000
,  // measure 26
0001
1000
0010
1000
,  // measure 27
0100
1000
0010
0100
,  // measure 28
0001
0010
0001
1000
,  // measure 29
0100
1000
0010
1000
,  // measure 30
0001
1000
0001
0010
,  // measure 31
0001
0100
0010
1000
,  // measure 32
0001
0100
0001
0100
0001
0000
0000
0000
,  // measure 33
0001
0010
0001
1000
,  // measure 34
0100
1000
0010
1001
,  // measure 35
0001
1000
0001
0010
,  // measure 36
0001
1001
1001
1001
,  // measure 37
0001
1000
0010
1000
,  // measure 38
0100
1000
0001
1001
,  // measure 39
1000
0010
0100
0001
,  // measure 40
0010
1001
0110
1001
,  // measure 41
0002
0000
0203
0000
,  // measure 42
0320
0000
2030
0000
,  // measure 43
3200
0000
0320
0000
,  // measure 44
0032
0000
2003
0000
,  // measure 45
3020
0000
0230
0000
,  // measure 46
0302
0000
2003
0000
,  // measure 47
3010
0100
0001
1000
,  // measure 48
0001
0000
0010
0000
0100
1000
0100
0000
,  // measure 49
2002
0000
0000
3003
,  // measure 50
0001
0000
1000
0000
,  // measure 51
0001
1000
0000
1000
,  // measure 52
0010
0000
1000
0000
,  // measure 53
0010
0100
0001
1000
,  // measure 54
0100
0000
0100
0000
,  // measure 55
0100
1000
0000
1000
,  // measure 56
0001
0000
0001
0000
,  // measure 57
0010
0001
0100
0010
,  // measure 58
1000
0000
0000
0002
0000
0000
0000
0000
,  // measure 59
0000
0003
0000
0000
,  // measure 60
0010
0000
0000
0200
0000
0000
0000
0000
,  // measure 61
0000
0300
0000
0000
,  // measure 62
1000
0000
0000
0020
0000
0000
0000
0000
,  // measure 63
0000
0030
0000
0000
,  // measure 64
0100
0000
0000
0002
0000
0000
0000
0000
,  // measure 65
1003
0100
0010
0001
,  // measure 66
2000
0000
3001
0100
,  // measure 67
0001
0010
0001
1000
,  // measure 68
0100
0010
0100
1000
,  // measure 69
0010
0100
0001
1000
,  // measure 70
0100
1000
0001
0010
,  // measure 71
0001
1000
0100
1000
,  // measure 72
0010
0100
0001
1000
,  // measure 73
0100
0000
1000
0000
0001
0100
0001
0100
,  // measure 74
0001
0100
0001
0100
0010
0000
1000
0000
,  // measure 75
0010
0100
0001
0100
,  // measure 76
0010
1000
0001
0010
,  // measure 77
0100
0100
0010
0100
,  // measure 78
1000
0100
1000
0010
,  // measure 79
0100
0001
0100
0010
,  // measure 80
1000
0000
0001
0000
1000
0010
1000
0100
,  // measure 81
1000
0001
1000
0000
0010
0000
1000
0000
,  // measure 82
0010
0100
0002
0000
,  // measure 83
0023
0000
0032
0000
,  // measure 84
2003
0000
3100
1000
,  // measure 85
0010
0100
0001
0000
,  // measure 86
1000
0000
0200
0000
,  // measure 87
2300
0000
3020
0000
,  // measure 88
0230
0000
0301
0010
,  // measure 89
0100
1000
0100
0010
,  // measure 90
0001
1000
0200
0000
0000
0000
0300
0000
;

//---------------dance-single - ----------------
#NOTEDATA:;
#CHARTNAME:;
#STEPSTYPE:dance-single;
#DESCRIPTION:;
#CHARTSTYLE:;
#DIFFICULTY:Beginner;
#METER:2;
#RADARVALUES:0.136774,0.297956,0.107297,0.000000,0.000000,116.000000,103.000000,13.000000,0.000000,0.000000,0.000000,0.000000,0.000000,0.000000,0.136774,0.297956,0.107297,0.000000,0.000000,116.000000,103.000000,13.000000,0.000000,0.000000,0.000000,0.000000,0.000000,0.000000;
#CREDIT:;
#NOTES:
0000
0000
0000
0000
,
0000
0000
0000
0000
,
0000
0000
0000
0000
,
0000
0000
0000
0000
,
0000
0000
0000
0000
,
0000
0000
0000
0000
,
0000
0000
0000
0000
,
0000
0000
0000
0000
,
0000
0000
0000
0000
,
0010
0000
0000
0000
,
0000
0000
1000
0000
,
0001
0000
0000
0000
,
0100
0000
0010
0000
,
1000
0000
0000
0000
,
0000
0000
0001
0000
,
1000
0000
0000
0000
,
0000
0000
0000
0000
,
0010
0000
0000
0000
,
0100
0000
0000
0000
,
0001
0000
0000
0000
,
1000
0000
0000
0000
,
0001
0001
0000
0001
,
0000
1000
0000
0001
,
0000
0000
0000
0000
,
0000
0000
0000
0000
,
0010
0000
0000
0000
,
0001
0000
0000
0000
,
1000
0000
0000
0000
,
0010
0000
0000
0000
,
0100
0000
0000
0000
,
0010
0000
0000
0000
,
1000
0000
0000
0000
,
0001
0001
0001
0000
,
1000
0000
0000
0000
,
0010
0000
0000
0100
,
0100
0000
0000
0000
,
0010
1000
1000
1000
,
0000
0001
0000
0000
,
0000
0001
0000
1000
,
0000
0001
0000
0000
,
0000
0001
0001
0001
,
1000
0000
0000
0000
,
0010
0000
0000
0000
,
0100
0000
0000
0000
,
0001
0000
0000
0000
,
0010
0000
0000
0000
,
0001
0000
0000
0000
,
1000
0000
0000
0000
,
0100
0000
0000
0000
,
1000
0000
0000
0000
,
1001
0000
1001
0000
,
1001
0000
0000
0000
,
0110
0000
0110
0000
,
0110
0000
0000
0000
,
1001
0000
1001
0000
,
1001
0000
0000
0000
,
0110
0000
0110
0000
,
0110
0000
0000
0000
,
1000
0000
0000
0000
,
0000
0000
0000
0000
,
0100
0000
0000
0000
,
0000
0000
0000
0000
,
0010
0000
0000
0000
,
0000
0000
0000
0000
,
0001
0000
0000
0000
,
0100
0000
0000
0000
,
0010
0000
0000
1000
,
0000
0000
0000
0010
,
0000
0000
0000
0100
,
0000
0000
0000
0001
,
1000
0001
0000
0100
,
0000
0000
0000
0010
,
0000
0000
0000
1000
,
0000
0000
0000
0001
,
1000
0001
0000
0100
,
0000
0000
0000
0010
,
0000
0000
0000
1000
,
0000
0000
0000
0100
,
0010
0001
0000
1000
,
0000
0000
0000
0001
,
0000
0000
0000
0100
,
0000
0000
0000
0010
,
0100
0010
1000
0000
,
0000
0000
0001
0000
,
0000
0000
0100
0000
,
0000
0000
0010
0000
,
0000
0000
1000
0000
,
0000
0000
0001
0000
,
0000
0000
0010
0000
,
0000
0000
0100
0000
,
1000
1001
0000
0000
;
