#TITLE:Eden;
#SUBTITLE:;
#ARTIST:cYsmix;
#TITLETRANSLIT:;
#SUBTITLETRANSLIT:;
#ARTISTTRANSLIT:;
#GENRE:;
#CREDIT:;
#BANNER:Eden-bn.png;
#BACKGROUND:Eden-bg.png;
#LYRICSPATH:;
#CDTITLE:loodeecdtitle.png;
#MUSIC:Eden.ogg;
#OFFSET:-0.012;
#SAMPLESTART:56.582;
#SAMPLELENGTH:23.250;
#SELECTABLE:YES;
#DISPLAYBPM:140.000;
#BPMS:0.000=140.000,96.000=130.000,96.250=120.000,96.500=110.000,96.750=120.000,97.000=130.000,97.250=142.000,97.500=155.000,97.750=165.000,98.000=170.000,98.250=160.000,98.500=155.000,98.750=150.000,99.000=145.000,99.250=140.000,100.000=210.000,101.250=210.000,102.000=140.000,104.000=210.000,104.500=252.000,106.500=210.000,107.500=140.000,108.000=210.000,109.250=210.000,110.000=140.000,111.000=210.000,111.500=280.000,111.750=140.000,111.875=70.000,112.000=210.000,112.500=252.000,114.500=210.000,115.500=140.000,116.000=210.000,117.250=210.000,118.000=140.000,120.000=210.000,120.500=252.000,122.500=210.000,123.500=140.000,124.000=210.000,125.250=210.000,126.000=140.000,127.000=210.000,127.500=280.000,127.750=140.000,127.875=70.000,128.000=210.000,128.500=252.000,130.500=210.000,131.500=140.000,132.000=210.000,133.250=210.000,133.750=140.000,134.000=140.000,136.000=210.000,136.500=252.000,138.500=210.000,139.500=140.000,140.000=210.000,141.750=140.000,143.000=210.000,143.500=280.000,143.750=140.000,143.875=70.000,144.000=210.000,144.500=252.000,146.500=210.000,147.500=140.000,148.000=210.000,149.750=140.000,152.000=210.000,152.500=252.000,154.500=210.000,155.500=140.000,156.000=210.000,157.750=140.000,159.000=210.000,159.500=280.000,159.750=140.000,159.875=70.000,160.000=210.000,160.500=252.000,161.250=210.000,161.500=140.000,162.500=280.000,162.750=140.000,162.875=70.000,163.000=210.000,163.750=280.000,164.000=140.000,173.000=175.000,174.000=140.000,181.500=210.000,182.000=175.000,184.000=140.000,237.000=175.000,238.000=140.000,245.500=210.000,246.000=175.000,248.000=140.000;
#STOPS:100.000=0.143
,101.000=0.036
,101.250=0.071
,101.750=0.035
,104.000=0.036
,104.250=0.035
,104.500=0.143
,105.250=0.143
,106.000=0.095
,106.500=0.018
,106.625=0.018
,106.750=0.107
,108.000=0.071
,108.500=0.072
,109.000=0.036
,109.250=0.072
,109.750=0.035
,111.000=0.036
,111.250=0.035
,112.000=0.036
,112.250=0.036
,112.500=0.143
,113.250=0.143
,114.000=0.095
,114.500=0.018
,114.625=0.018
,114.750=0.107
,116.000=0.143
,117.000=0.036
,117.250=0.071
,117.750=0.036
,120.000=0.036
,120.250=0.035
,120.500=0.143
,121.250=0.143
,122.000=0.095
,122.500=0.018
,122.625=0.018
,122.750=0.107
,124.000=0.071
,124.500=0.072
,125.000=0.036
,125.250=0.071
,125.750=0.035
,127.000=0.036
,127.250=0.035
,128.000=0.035
,128.250=0.036
,128.500=0.143
,129.250=0.143
,130.000=0.095
,130.500=0.018
,130.625=0.018
,130.750=0.107
,132.000=0.143
,133.000=0.036
,133.250=0.071
,136.000=0.036
,136.250=0.036
,136.500=0.143
,137.250=0.143
,138.000=0.095
,138.500=0.018
,138.625=0.018
,138.750=0.107
,140.000=0.071
,140.500=0.072
,141.000=0.036
,141.250=0.072
,143.000=0.036
,143.250=0.035
,144.000=0.035
,144.250=0.036
,144.500=0.143
,145.250=0.143
,146.000=0.095
,146.500=0.018
,146.625=0.018
,146.750=0.107
,148.000=0.143
,149.000=0.036
,149.250=0.071
,152.000=0.036
,152.250=0.035
,152.500=0.143
,153.250=0.143
,154.000=0.095
,154.500=0.018
,154.625=0.018
,154.750=0.107
,156.000=0.072
,156.500=0.071
,157.000=0.036
,157.250=0.071
,159.000=0.036
,159.250=0.035
,160.000=0.036
,160.250=0.035
,160.500=0.143
,161.250=0.036
,163.000=0.035
,163.250=0.072
,163.750=0.013
,163.813=0.013
,163.875=0.014
,163.938=0.014
,173.000=0.021
,173.250=0.022
,173.500=0.021
,173.750=0.022
,181.500=0.036
,181.750=0.018
,181.875=0.018
,182.000=0.021
,182.250=0.021
,182.500=0.022
,182.750=0.021
,183.000=0.022
,183.250=0.021
,183.500=0.021
,183.750=0.022
,237.000=0.021
,237.250=0.021
,237.500=0.021
,237.750=0.022
,245.500=0.035
,245.750=0.018
,245.875=0.018
,246.000=0.021
,246.250=0.022
,246.500=0.021
,246.750=0.022
,247.000=0.021
,247.250=0.022
,247.500=0.021
,247.750=0.021
;
#BGCHANGES:;
#KEYSOUNDS:;

//---------------dance-single - Loodee----------------
#NOTES:
     dance-single:
     Loodee:
     Challenge:
     11:
     0.716,0.700,0.374,0.313,0.635:
0000
0000
0000
0000
,
0000
0000
0000
0000
,
0000
0000
0000
0000
,
0000
0000
0000
0000
,
0000
0000
0000
0000
,
0000
0000
0000
0000
,
0000
0000
0000
0000
,
0000
0000
0000
0000
,
0001
0000
1000
0010
0100
0000
0010
0100
0001
0000
0010
0100
1000
0000
0100
0010
,
0100
0000
1000
0001
0100
0000
0001
0000
0000
0000
0001
0010
0100
0000
1000
0010
,
0100
0000
0010
1000
0001
0000
1000
0100
1000
0000
0100
0010
0001
0000
0100
0010
,
1000
0000
0001
0100
0010
0000
1000
0000
0101
0000
1000
0000
0100
1000
1000
0001
,
0010
0000
0001
1000
0010
0000
0100
0001
0100
0000
0010
1000
0001
0000
0010
0100
,
0010
0000
0001
0010
0100
0000
1000
0000
0000
0000
1000
0001
0100
0000
0010
0100
,
0001
0000
0010
0100
1000
0000
0010
0100
0001
0000
0010
0001
0100
0000
0010
0000
,
1000
0000
1000
0000
0001
0000
1000
0010
0100
0001
0100
0001
0010
0000
0100
0000
,
2000
0010
0010
0010
,
3002
0010
0100
1000
,
0023
0100
0100
0100
,
0032
1000
0100
0100
,
1003
0010
0100
0010
1000
0010
0100
0010
,
0001
0010
0100
0010
1000
0100
0010
1000
,
0010
0001
0100
0001
0010
0001
0100
0001
,
1000
0000
0001
0000
0100
0000
0001
0000
1000
0000
0001
0000
0010
0100
0010
0200
,
2000
0000
0000
0000
0000
0000
0000
0000
0000
0000
0000
0000
0000
3300
0000
0000
,
1001
0000
0000
0000
0101
0100
0000
0001
2000
0000
0100
0000
0010
0000
0000
0000
,
3001
0000
0010
0000
0200
0000
0000
0000
0300
0000
0200
0000
0000
0000
0300
0000
0200
0000
0000
0000
1300
0001
1000
0000
0000
0000
0000
0000
0001
0000
0000
0000
,
0010
0000
0000
0000
0000
0000
0010
0000
0000
0000
0000
0000
0100
0000
0000
0010
0000
0000
0000
0000
0000
0100
0000
0000
2000
0000
0000
0000
0000
0000
0001
0000
0000
0000
0000
0000
3001
0000
0000
0100
0000
0000
0040
0000
0000
0000
0030
0000
,
0100
0000
0001
0000
2000
0000
0000
0000
3000
0000
2000
0000
0000
0000
3000
0000
2000
0000
0000
0000
3001
0010
0001
0000
0000
0000
0000
0000
0100
0000
0000
0000
,
0110
0000
0000
0000
1010
0010
0000
1000
0002
0000
1000
0000
0010
0000
0000
0000
,
1003
0000
0100
0000
0020
0000
0000
0000
0030
0000
0020
0000
0000
0000
0030
0000
0020
0000
0000
0000
0130
1000
0001
0000
0000
0000
0000
0000
0100
0000
0000
0000
,
0010
0000
0000
0000
0000
0000
0010
0000
0000
0000
0000
0000
1000
0000
0000
0010
0000
0000
0000
0000
0000
1000
0000
0000
0200
0000
0000
0000
0000
0000
0010
0000
0000
0000
0000
0000
0310
0000
0000
0100
0000
0000
4000
0000
0000
0000
3000
0000
,
0001
0000
0100
0000
0002
0000
0000
0000
0003
0000
0002
0000
0000
0000
0003
0000
0002
0000
0000
0000
1003
0001
1000
0000
0000
0000
0000
0000
0100
0000
0000
0000
,
0110
0000
0000
0000
0011
0001
0000
1000
0010
0000
0100
0000
0101
0000
0001
1000
,
0100
0000
0010
0000
2000
0000
0000
0000
3000
0000
2000
0000
0000
0000
3000
0000
2000
0000
0000
0000
3010
0100
1000
0000
0000
0000
0000
0000
0010
0000
0000
0000
,
0100
0000
0000
0000
0000
0000
0100
0000
0000
0000
0000
0000
0001
0000
0000
0100
0000
0000
0000
0000
0000
0001
0000
0000
0010
0000
0000
0000
0000
0000
0100
0000
0000
0000
0000
0000
1000
0000
0000
1000
0000
0000
0040
0000
0000
0000
0030
0000
,
0100
0000
0010
0000
0002
0000
0000
0000
0003
0000
0002
0000
0000
0000
0003
0000
0002
0000
0000
0000
0013
0100
0010
0000
0000
0000
0000
0000
1000
0000
0000
0000
,
1001
0000
0000
0000
0011
0010
0000
0001
1000
0000
0010
0000
0110
0000
0100
0001
,
0010
0000
0100
0000
0002
0000
0000
0000
0003
0000
0002
0000
0000
0000
0003
0000
0002
0000
0000
0000
0103
0010
0100
0000
0000
0000
0000
0000
1000
0000
0000
0000
,
0001
0000
0000
0000
0000
0000
0001
0000
0000
0000
0000
0000
0100
0000
0000
0001
0000
0000
0000
0000
0000
0100
0000
0000
0010
0000
0000
0000
0000
0000
1000
0000
0000
0000
0000
0000
0001
0000
0000
0001
0000
0000
0400
0000
0000
0000
0300
0000
,
0010
0000
0000
0100
0000
0000
2000
0000
0000
0000
0000
0000
3000
0000
0000
0100
0000
0000
0001
0000
0000
0000
0000
0000
0010
0000
0000
0000
0000
0000
0002
0000
0000
0000
0003
0000
1000
0000
0000
0001
0000
0000
0000
0000
0000
0004
0000
0003
,
0010
0000
0000
0000
0000
0000
0000
0000
0000
0000
0000
0000
0000
0000
0000
0000
0000
0000
0000
0000
0000
0000
0000
0000
0000
0000
0000
0000
0000
0000
0000
0000
0000
0000
0000
0000
0000
0000
0000
0000
0000
0000
0000
0000
0000
0000
0000
0000
0010
0000
0000
0000
0000
0000
0000
0000
0000
0000
0000
0000
0001
0000
0000
0000
0000
0000
0000
0000
0000
0000
0000
0000
1000
0000
0000
0000
0000
0000
0000
0000
0000
0000
0000
0000
0000
0000
0000
0000
0000
0000
0000
0000
0000
0000
0000
0000
1010
0000
0000
0000
0000
0000
0000
0000
0000
0000
0000
0000
0000
0000
0000
0000
0000
0000
0000
0000
0000
0000
0000
0000
0000
0000
0000
0000
0000
0000
0000
0000
0000
0000
0000
0000
0010
0000
0000
0000
0000
0000
1000
0000
0000
0000
0000
0000
0001
0000
0000
0000
0000
0000
0000
0000
0000
0000
0000
0000
0000
0000
0000
0000
0000
0000
0000
0000
0000
0000
0000
0000
0010
0000
0000
0000
0000
0000
0000
0000
0100
0000
0000
0000
0000
0000
0000
0000
1000
0000
0000
0000
0000
0000
0000
0000
,
0100
0000
1000
0000
0010
0000
0100
0000
0010
0000
0000
0000
0001
0010
0100
0001
,
0010
0000
0100
0000
0010
1000
0010
0100
1000
0001
0100
0010
0001
0010
0100
0010
,
1000
0000
0000
0001
1000
0000
0001
0000
0011
0000
0000
0000
1100
0000
0000
0000
,
0011
0000
0000
0000
0000
0000
0001
0000
0000
0000
0000
0000
1000
0000
0010
1000
0001
0000
1000
0000
0100
0000
0010
0000
0100
0000
1000
0000
0001
0000
0100
0000
,
0010
0000
1010
0000
0101
0010
1001
1000
,
0001
1000
0100
0010
0100
0000
0000
0000
0110
0000
0000
0000
1001
0000
0000
0000
,
1000
0010
0100
0001
0010
0000
0001
0100
0010
1000
0100
0000
1100
0000
0000
0000
,
0001
1000
0010
0000
0010
1000
0100
0000
0100
1000
0010
0000
0010
1000
0001
0000
,
1000
0001
0010
0000
0010
0001
0100
0000
0100
0001
1000
0000
1000
0001
0010
0000
,
0100
1000
0010
0000
0101
0000
1010
0000
,
0011
1100
0011
0101
,
0001
0100
1000
0100
0001
0100
1000
0100
,
0110
0000
0101
0000
0011
0110
1100
0000
,
0200
0010
0001
0010
,
2300
0000
0000
0000
0010
0000
0000
0000
3001
0000
0010
0000
0001
1000
0001
1000
,
0010
0000
0000
0000
0000
0000
0000
0000
0000
0000
0000
0000
0000
0000
0000
0000
0000
0000
0000
0000
0000
0000
0000
0000
0000
0000
0000
0000
0000
0000
0000
0000
0000
0000
0000
0000
0000
0000
0000
0000
0000
0000
0000
0000
0000
0000
0000
0000
0102
0000
0000
0000
0000
0000
0000
0000
0000
0000
0000
0000
0000
0000
0000
0000
0000
0000
0000
0000
0000
0000
0000
0000
0100
0000
0000
0000
0000
0000
0000
0000
0000
0000
0000
0000
0000
0000
0000
0000
0000
0000
0000
0000
0000
0000
0000
0000
1003
0000
0000
0000
0000
0000
0000
0000
0000
0000
0000
0000
0000
0000
0000
0000
0000
0000
0000
0000
0000
0000
0000
0000
0000
0000
0000
0000
0000
0000
0000
0000
0000
0000
0000
0000
0001
0000
0000
0000
0000
0000
0010
0000
0000
0000
0000
0000
0001
0000
0000
0000
0000
0000
0000
0000
0000
0000
0000
0000
0000
0000
0000
0000
0000
0000
0000
0000
0000
0000
0000
0000
1000
0000
0000
0000
0000
0000
0000
0000
0010
0000
0000
0000
0000
0000
0000
0000
0100
0000
0000
0000
0000
0000
0000
0000
,
0001
0000
1000
0000
0100
0000
0010
0000
0100
0000
0000
0000
0001
0100
1000
0001
,
1000
0000
0010
0000
0100
1000
0100
0010
1000
0001
0010
0100
0001
0100
0010
0100
,
1000
0000
0000
0010
1000
0000
0001
0000
0101
0000
0000
0000
1001
0000
0000
0000
,
1100
0000
0000
0000
0000
0000
0100
0000
0000
0000
0000
0000
0010
0000
0100
0010
0001
0000
1000
0000
0010
0000
0100
0000
0001
0000
0100
0000
0001
0000
1000
0000
,
0100
0000
0011
0000
1100
0001
1001
1000
,
0010
0100
0001
0100
0010
0000
0000
0000
1001
0000
0000
0000
0011
0000
0000
0000
,
0001
1000
0010
1000
0100
0000
1000
0100
1000
0001
0010
0000
0011
0000
0000
0000
,
1010
0000
0000
0000
,
0M00
0000
0000
0000
,
0M00
0000
0000
0000
;

//---------------dance-single - Loodee----------------
#NOTES:
     dance-single:
     Loodee:
     Hard:
     10:
     0.683,0.679,0.235,0.392,0.566:
0000
0000
0000
0000
,
0000
0000
0000
0000
,
0000
0000
0000
0000
,
0000
0000
0000
0000
,
0000
0000
0000
0000
,
0000
0000
0000
0000
,
0000
0000
0000
0000
,
0000
0000
0000
0000
,
0001
0000
1000
0100
0010
0000
0100
1000
0001
0000
1000
0010
0100
0000
0001
0000
,
1000
0000
0001
0100
0001
0000
0010
0000
0000
0000
0010
0001
1000
0000
0010
0100
,
0010
0000
1000
0001
1000
0000
0100
0010
0001
0000
0100
0001
1000
0000
0010
0000
,
0100
0000
0001
1000
0100
0000
0010
0000
0100
0000
0010
0000
0001
1000
0010
1000
,
0001
0000
0010
0100
0010
0000
0001
1000
0010
0000
0100
0001
1000
0000
0100
0000
,
1000
0000
0001
0010
0100
0000
0010
0000
0000
0000
0010
0100
1000
0000
0010
0100
,
0001
0000
1000
0001
0100
0000
0001
1000
0001
0000
0010
0100
1000
0000
0100
0000
,
0010
0001
0010
0001
1000
0001
1000
0010
,
0200
0001
0001
0001
,
0320
1000
0100
0001
,
2030
0100
0100
0100
,
3002
0100
0010
0013
,
0100
1000
0010
1000
0100
1000
0010
0100
,
0001
0010
0001
0100
0001
0010
0100
0010
,
0001
1000
0010
1000
0001
1000
0010
1000
,
0100
0000
0010
0000
0001
1000
0001
0000
0100
0000
0000
0000
0010
1000
0001
2000
,
0002
0000
0000
0000
0000
0000
0000
0000
0000
0000
0000
0000
0000
3003
0000
0000
,
1100
0000
0000
0000
1000
0100
0000
0010
0002
0000
0000
0000
1000
0000
0000
0000
,
0103
0010
2000
0000
3000
0002
0000
0003
2000
0000
3000
0200
0000
0300
0010
0000
,
0001
0000
0001
0000
0100
0010
0000
1000
0020
0000
0000
0000
0130
0001
2000
0000
,
3100
0010
0002
0000
0003
0020
0000
0030
0200
0000
0300
0020
0000
0030
0100
0000
,
1000
0000
0000
0000
0001
1000
0000
0001
0200
0000
0000
0000
0010
0000
0000
0000
,
0301
1000
0020
0000
0030
0200
0000
0300
0002
0000
0003
2000
0000
3000
0100
0000
,
0010
0000
0010
0000
0100
1000
0000
0001
2000
0000
0000
0000
3010
0100
0002
0000
,
0013
0100
0020
0000
0030
0200
0000
0300
2000
0000
3000
0200
0000
0300
1000
0000
,
1001
0000
0000
0000
0001
0010
0000
0010
0100
0000
1000
0000
0001
0000
0100
0010
,
1000
0010
2000
0000
3000
2000
0000
3000
0002
0000
0003
0002
0000
0003
0010
0000
,
0100
0000
0010
0000
0100
1000
0000
1000
0001
0000
0100
0000
0010
0100
0002
0000
,
1003
0100
0020
0000
0030
0020
0000
0030
0002
0000
0003
0002
0000
0003
0100
0000
,
0010
0000
0000
0000
0010
1000
0000
1000
0001
0000
1000
0000
0100
0000
0010
0001
,
0010
0100
0020
0000
0030
0020
0000
0030
0002
0000
0003
0002
0000
0003
1000
0000
,
0010
0000
0010
0000
0010
0100
0000
0100
0001
0000
1000
0000
0100
0010
0200
0000
,
1300
0001
2000
0000
3000
0020
0000
0030
0100
0000
0001
0000
1000
0100
0000
0100
,
1000
0000
0000
0000
0000
0000
0000
0000
0000
0000
0000
0000
0010
0000
0000
0100
0000
0000
0001
0000
0000
0000
0000
0000
0101
0000
0000
0000
0000
0000
0000
0000
0000
0000
0000
0000
1010
0000
0000
0000
0000
0000
1000
0000
0001
0000
1000
0000
,
0100
0000
0010
0000
0001
0000
0010
0000
0100
0000
0000
0000
0010
0100
0010
0001
,
1000
0000
0010
0000
0100
0001
0100
0010
1000
0100
0010
0001
0010
0100
1000
0001
,
0100
0000
0000
0010
0100
0000
0001
0000
1001
0000
0000
0000
1100
0000
0000
0000
,
0110
0000
0000
0001
0000
0000
1000
0010
1000
0100
0010
0100
1000
0100
0010
0001
,
0100
0000
1010
0000
0101
0001
1000
0001
,
0010
0100
0010
0001
1000
0000
0000
0000
1010
0000
0000
0000
0110
0000
0000
0000
,
0010
1000
0100
1000
0001
0000
0010
0001
0100
0001
1000
0000
1001
0000
0000
0000
,
0001
0100
0010
0000
1000
0010
0100
0000
0001
0100
0010
0000
1000
0010
0100
0000
,
0001
0010
0100
0000
1000
0100
0010
0000
0001
0010
0100
0000
1000
0100
0010
0000
,
0001
1000
0010
0000
1001
0000
1100
0000
,
0011
0110
0011
0101
,
1000
0010
0001
0010
1000
0010
0001
0010
,
0100
0001
1000
0001
0010
0100
1000
0001
,
0100
0010
1000
0010
0100
0010
1000
0001
,
0010
0000
0100
0000
0010
0000
0001
0000
0010
0000
0100
0000
1000
0001
1000
0001
,
0200
0000
0000
0000
0000
0000
0000
0000
0000
0300
0000
0000
0100
0000
0000
0000
0000
0000
0001
0000
0000
0000
0000
0000
1000
0000
0000
0000
0000
0000
0000
0000
0000
0000
0000
0000
1001
0000
0000
0000
0000
0000
0001
0000
0100
0000
0010
0000
,
0100
0000
0001
0000
1000
0000
0001
0000
1000
0000
0000
0000
0100
0010
0001
0010
,
0100
0000
0010
0000
0100
1000
0001
1000
0001
0100
0010
1000
0010
0100
0001
0010
,
0100
0000
0000
1000
0100
0000
0010
0000
0100
0000
0000
0000
1001
0000
0000
0000
,
0101
0000
0000
0010
0000
0000
1000
0001
1000
0100
0010
0001
1000
0100
0010
0100
,
1000
0000
0000
0000
0101
0000
0000
0000
0110
0000
0010
0000
1000
0001
1000
0001
,
0010
0100
0010
0100
1000
0000
0000
0000
1001
0000
0000
0000
0101
0000
0000
0000
,
0001
0010
0100
0010
0001
0000
1000
0010
0100
0001
0010
0000
0110
0000
0000
0000
,
1001
0000
0000
0000
;
