#TITLE:Cyberpunk Life;
#SUBTITLE:;
#ARTIST:3R2;
#TITLETRANSLIT:;
#SUBTITLETRANSLIT:;
#ARTISTTRANSLIT:;
#GENRE:;
#CREDIT:;
#BANNER:;
#BACKGROUND:;
#LYRICSPATH:;
#CDTITLE:;
#MUSIC:Cyberpunk Life.ogg;
#OFFSET:-0.755000;
#SAMPLESTART:68.264999;
#SAMPLELENGTH:14.999000;
#SELECTABLE:YES;
#BPMS:0.000000=128.000000
;
#STOPS:
;
#BGCHANGES:;
#KEYSOUNDS:;
#ATTACKS:;

//---------------dance-single - ----------------
#NOTES:
     dance-single:
     :
     Challenge:
     10:
     0.725654,0.740012,0.156295,0.581764,1.000000,500.000000,18.000000,67.000000,5.000000,0.000000,1.000000,0.725654,0.740012,0.156295,0.581764,1.000000,500.000000,18.000000,67.000000,5.000000,0.000000,1.000000:
// measure 0
0000
0000
0000
0000
,  // measure 1
0000
0000
0000
0000
,  // measure 2
0000
0000
0000
0000
,  // measure 3
0000
0000
0000
0000
0000
0000
0000
0000
0000
0000
1010
0000
0000
0110
0000
0000
,  // measure 4
1001
0000
0001
0010
0000
0100
0000
1000
0001
0000
1000
0001
0000
0001
0100
0000
,  // measure 5
0010
0000
0100
0001
0000
0010
0000
0100
1000
0000
0100
1000
0000
1000
0001
0000
,  // measure 6
0100
0000
0010
0100
0000
0001
0000
1000
0100
0000
1000
0100
0000
0100
0010
0000
,  // measure 7
0001
0000
1000
0010
0000
0100
0000
0010
1000
0000
0100
1000
0000
1000
0100
0000
,  // measure 8
1001
0000
0001
0010
0000
0001
0000
0100
0010
0000
0100
0010
0000
0010
1000
0000
,  // measure 9
0001
0000
0010
0100
0000
0010
0000
0001
1000
0000
0001
1000
0000
1000
0010
0000
,  // measure 10
0100
0000
0001
1000
0000
0100
0000
0010
0100
0000
0010
0100
0000
0100
1000
0000
,  // measure 11
0001
0000
0000
0000
0000
0000
1000
0000
0000
0010
0000
0000
0000
0000
0000
0100
0000
0000
0001
0000
1000
0000
0001
0000
1000
0000
0000
0010
0000
0000
1000
0000
0000
0100
0000
0000
0010
0000
0000
0001
0000
0000
1000
0000
0000
0010
0000
0000
,  // measure 12
0100
0001
1000
0100
0000
0010
0100
1000
0000
0001
1000
0100
0000
0010
0001
1000
,  // measure 13
0000
0100
1000
0001
0000
0100
0010
1000
0000
0001
0010
0100
0000
0010
0001
1000
,  // measure 14
0000
0001
0100
0010
0000
0100
0001
1000
0000
0001
1000
0100
0000
0010
0100
1000
,  // measure 15
0000
0001
0100
0010
0000
0100
0001
1000
0000
0001
1000
0100
0000
0010
0001
0000
,  // measure 16
0011
0000
0010
0100
0000
1000
0001
0100
0000
0010
0100
0001
0000
1000
0001
0010
,  // measure 17
0100
1000
0001
0100
0000
0010
0100
0001
0000
1000
0100
0010
0000
0100
1000
0001
,  // measure 18
0100
0010
0100
0001
0000
1000
0100
0010
0000
0100
1000
0001
0000
0100
0001
1000
,  // measure 19
0001
0100
00M0
00M0
0001
1000
00M0
00M0
02M0
0000
0310
0001
0010
0100
1000
0100
,  // measure 20
0020
0000
0030
0010
0000
0010
0000
0010
0000
0020
0000
0030
0020
0000
0000
0000
,  // measure 21
0032
0000
0003
0001
0000
0001
0000
0001
0000
0002
0000
0000
0203
0000
0000
0000
,  // measure 22
0320
0000
0000
1030
0000
1000
0000
1000
0000
2000
0000
0000
3002
0000
0000
0000
,  // measure 23
2003
0000
3000
1000
0000
1000
0000
1000
0000
2000
0000
0000
3200
0000
0000
0000
,  // measure 24
0320
0000
0031
0010
0100
0010
0000
0000
0001
1000
0010
0100
0010
1000
0000
0000
,  // measure 25
0200
0000
0310
0100
1000
0001
0000
0000
1000
0001
0010
0100
0010
0001
0000
0000
,  // measure 26
0200
0000
0310
1000
0001
1000
0000
0000
0001
1000
0100
0010
0100
1000
0000
0000
,  // measure 27
0002
0000
1003
0001
0100
0010
0000
0000
0100
0001
1000
0100
0020
0000
0000
0030
,  // measure 28
0210
0010
0000
0010
,  // measure 29
2300
3002
0203
0320
,  // measure 30
2030
0001
0000
0001
,  // measure 31
3200
0000
0000
0000
0320
0000
0000
0000
0032
0000
0000
0000
0203
0000
0000
0300
,  // measure 32
0120
0000
0000
0000
1000
0000
0000
0000
0100
0000
0000
0000
1000
0000
0000
0030
,  // measure 33
0201
0000
0000
0000
0320
0000
0000
0000
2030
0000
0000
0000
3002
0000
0000
0003
,  // measure 34
0021
0000
0000
0000
0100
0000
0000
0030
1100
0000
0100
0000
0010
0000
1000
0000
,  // measure 35
0010
0000
0001
1000
0010
0000
0010
0100
0000
0100
0001
0000
0040
0000
0000
0030
,  // measure 36
1001
0000
1000
0000
0010
0000
0100
1000
0000
0100
0000
0010
0100
0000
0002
0000
,  // measure 37
0000
0000
1003
0000
0001
0000
0010
0100
0000
0001
0000
0100
0010
0002
0000
0000
,  // measure 38
0103
0000
0001
0000
1000
0000
0100
0001
0000
0100
0000
0010
0001
0000
1000
0000
,  // measure 39
0020
0130
0002
1003
0200
0310
0002
1003
,  // measure 40
2001
0000
3000
0000
0001
0000
0000
0001
0000
0001
0100
0000
1000
0000
0200
0000
,  // measure 41
0000
0000
0310
0000
1000
0000
0001
0010
0000
0100
0000
0010
0001
1000
0001
0100
,  // measure 42
0010
0100
0001
2000
0000
3001
0010
0200
,  // measure 43
0000
0000
0000
0000
0000
0000
0320
0000
0000
0000
0000
0000
1030
0000
0000
0000
0000
0000
0010
0000
0000
0000
0000
0000
0001
0000
0000
0000
0000
0000
0100
0000
0010
0000
0100
0000
0010
0000
0000
1000
0000
0000
0001
0000
0000
0000
0000
0000
,  // measure 44
1000
0100
0010
0002
0000
0000
1003
0010
0100
0002
0000
0000
1003
0100
0010
0002
,  // measure 45
0000
0000
0000
0000
1003
0000
0020
0000
0000
0000
0000
0000
2030
0000
0000
0000
3001
0010
0001
0000
1000
0000
0010
0000
0000
0000
0010
0000
0100
0000
0001
0000
,  // measure 46
2000
0000
0000
3200
0000
0000
0320
0000
,  // measure 47
2030
3020
0230
2300
,  // measure 48
3001
1000
0010
0100
0000
0100
0000
0010
0000
1000
0000
0100
0002
0000
0000
0000
,  // measure 49
0103
0010
0001
1000
0000
0010
0000
0010
0000
0100
0000
0001
1000
0100
0010
0100
,  // measure 50
2000
0000
3002
0000
0203
2300
0000
3200
,  // measure 51
0000
0000
0000
0000
0000
0000
0310
1000
0002
0000
0000
0000
2000
0000
0000
3003
,  // measure 52
1001
0000
0001
0010
0000
0100
0000
1000
0001
0000
1000
0001
0000
0001
0100
0000
,  // measure 53
0010
0000
1000
0001
0000
0010
0000
0100
1000
0000
0100
1000
0000
1000
0001
0000
,  // measure 54
0100
0000
0010
0100
0000
0001
0000
1000
0001
0000
1000
0001
0000
0001
0100
0000
,  // measure 55
0010
0000
0100
0001
0000
1000
0000
0010
1000
0000
0100
1000
0000
1000
0001
0000
,  // measure 56
0101
0000
0100
0010
0000
1000
0000
0001
0010
0000
0001
0010
0000
0010
0100
0000
,  // measure 57
1100
0000
1000
0001
0000
0100
0000
0010
1000
0000
0010
1000
0000
1000
0001
0000
,  // measure 58
0011
0000
0010
0100
0000
1000
0000
0001
0100
0000
0001
0100
0000
0100
0010
0000
,  // measure 59
1000
0000
0000
0001
0000
0000
0010
0000
0000
0100
0000
0000
0010
0000
0000
0001
0000
0000
1000
0000
0010
0000
1000
0000
0010
0000
0000
0100
0000
0000
0001
0000
0000
0000
0000
0000
0000
0000
0000
1001
0000
0000
0000
0000
0000
0000
0000
0000
,  // measure 60
0220
0000
0000
0000
0000
0000
0000
0330
;
