#TITLE:Atlantis;
#SUBTITLE:;
#ARTIST:Breathe Carolina & Dropgun;
#TITLETRANSLIT:;
#SUBTITLETRANSLIT:;
#ARTISTTRANSLIT:;
#CREDIT:;
#BANNER:Atlantis.png;
#BACKGROUND:Atlantis-bg.png;
#LYRICSPATH:;
#CDTITLE:cdtitle.png;
#MUSIC:Atlantis.ogg;
#OFFSET:-0.460;
#SAMPLESTART:52.495;
#SAMPLELENGTH:15.000;
#SELECTABLE:YES;
#BPMS:0.000=128.000,15.000=64.000,31.000=128.000,66.000=256.000,68.000=128.000,71.000=256.000,73.000=128.000,76.000=256.000,78.000=128.000,81.000=256.000,83.000=128.000;
#STOPS:;
#BGCHANGES:;

//---------------dance-single - ----------------
#NOTES:
     dance-single:
     :
     Challenge:
     11:
     0.640,0.685,0.169,0.339,0.707: // measure 1
0000
0000
0000
0000
,  // measure 2
0000
0000
0000
0000
,  // measure 3
0000
0000
0000
0000
,  // measure 4
0000
0000
0000
0000
0000
0000
0000
0000
0000
0000
0000
0000
11MM
1000
1000
0010
,  // measure 5
0100
0000
0001
0010
0100
0000
1000
0010
0100
0100
0010
1000
0000
0001
0001
1000
,  // measure 6
0100
0000
0100
1000
0001
0000
0001
0100
0010
0010
0100
0000
0101
0001
0001
0010
,  // measure 7
0100
0000
1000
0010
0100
0000
0001
0010
0100
0100
0010
0001
0000
1000
1000
0001
,  // measure 8
0100
0000
0100
0001
1000
0000
1000
0100
0010
0010
0100
0000
1MM1
0000
1000
0000
,  // measure 9
0010
0000
0001
0000
0020
0000
0000
0000
1030
0000
0100
0000
2000
0000
3001
1000
,  // measure 10
0001
0010
0100
0010
0001
2000
0000
3001
,  // measure 11
0010
0000
0001
0000
0200
0000
0000
0000
0310
0000
0100
0000
0001
0000
1000
0100
,  // measure 12
1000
0000
0001
0100
0002
0000
2003
0000
3020
0000
0030
0000
1001
0000
0001
0000
,  // measure 13
0010
0000
1000
0000
0020
0000
0000
0000
0031
0000
0100
0000
0002
0000
1003
0001
,  // measure 14
1000
0010
0100
0010
1000
0002
0000
1003
,  // measure 15
0010
0000
1000
0000
0200
0000
0000
0000
0310
0000
0100
0000
1000
0000
0001
0100
,  // measure 16
0001
0000
1000
0100
2000
0000
3002
0000
0023
0000
0030
0000
0110
0000
0000
0000
,  // measure 17
1000
0100
1000
0100
1000
0000
1000
0010
MM0M
0000
0000
0000
0000
0000
0000
0000
,  // measure 18
M11M
0000
0000
0000
0100
0001
0100
0001
0100
0000
0100
0010
MM0M
0000
0000
0000
,  // measure 19
0000
0000
0000
0000
1M1M
0000
0000
0000
1000
0001
1000
0001
1000
0000
1000
0010
,  // measure 20
MM0M
0000
0000
0000
0000
0000
0000
0000
M11M
0000
0000
0000
0001
0100
0001
0100
,  // measure 21
0001
0000
0001
1000
0MMM
0000
0000
0000
0000
0000
0000
0000
MMM1
0000
0010
0000
,  // measure 22
0100
1000
0010
0100
0010
1000
0100
0010
,  // measure 23
0001
0000
0100
0000
0010
0000
0100
0000
0001
0000
0010
0000
0100
1000
0010
0100
,  // measure 24
0001
0010
0100
1000
0010
0100
0010
1000
0100
0010
0001
0100
0010
0000
0000
0000
,  // measure 25
0010
0000
0000
0000
0100
0001
0100
0001
0100
0000
0000
0000
1001
0000
0000
0000
,  // measure 26
1000
0100
0010
0100
1000
0000
0010
0100
0000
0000
0010
0000
2010
0000
0000
0000
,  // measure 27
3100
1000
0100
0010
0001
0000
0001
0020
0000
0000
0130
0000
0110
0000
0000
0000
,  // measure 28
0010
0001
0100
0010
0100
0000
0001
0010
0000
0000
0100
0000
1000
0010
0100
0001
,  // measure 29
0100
0000
0000
0010
0000
0000
1000
0000
0000
0001
0000
0000
1000
0000
0000
0000
1000
0000
0000
0000
0010
0000
0000
0000
0200
0000
0000
0000
0000
0000
0300
0000
0000
0000
0000
0000
1001
0000
0000
0000
0000
0000
0000
0000
0000
0000
0000
0000
,  // measure 30
0001
0010
0100
0010
0001
0000
0100
0010
0000
0000
0100
0000
0201
0000
0000
0000
,  // measure 31
0310
0100
0010
1000
0100
0000
0010
0200
0000
0000
1300
0000
1100
0000
0000
0000
,  // measure 32
0001
0010
0001
1000
0001
0000
1000
0100
0000
0000
1000
0000
0001
0010
0100
0010
,  // measure 33
0001
0000
0000
0100
0000
0000
0010
0000
0000
1000
0000
0000
0001
0000
0000
0000
0001
0000
0000
0000
0100
0000
0000
0000
0020
0000
0000
0000
0000
0000
0030
0000
0000
0000
0000
0000
0101
0000
0000
0000
0000
0000
0000
0000
0000
0000
0000
0000
,  // measure 34
0001
0000
1000
0100
1000
0000
0001
0000
0100
0000
0001
0000
0020
0000
0000
0000
0030
0000
0210
0000
0000
0000
0000
0000
,  // measure 35
1300
0000
0010
0100
0010
0000
1000
0000
0100
0000
0010
0000
0200
0000
0000
0000
0300
0000
1100
0000
0000
0000
0000
0000
,  // measure 36
0100
0000
1000
0001
1000
0000
0010
0000
1000
0000
0100
0000
2000
0000
0000
0000
0000
0000
3010
0000
0100
0001
0100
0000
,  // measure 37
0010
1000
0001
1000
0010
0100
0002
0000
0003
0011
0000
0000
,  // measure 38
0001
0000
1000
0010
1000
0000
0001
0000
0010
0000
0001
0000
0200
0000
0000
0000
0300
0000
0120
0000
0000
0000
0000
0000
,  // measure 39
1030
0000
0100
0010
0100
0000
1000
0000
0010
0000
0100
0000
0020
0000
0000
0000
0000
0000
1030
0000
0000
0000
0000
0000
,  // measure 40
1000
0000
0010
0100
0010
0000
0100
0000
0010
0000
1000
0000
0200
0000
0000
0000
0000
0000
0310
0000
0001
1000
0001
0000
,  // measure 41
1000
0001
0010
0100
1000
0100
0020
0000
0000
0130
0000
1000
,  // measure 42
0100
0001
0100
1000
0000
0000
0001
0000
0000
1000
0000
0010
,  // measure 43
0100
0000
1000
0100
0000
0001
0100
0001
0100
0010
0000
1000
,  // measure 44
0100
1000
0010
1000
0000
0000
0001
0000
0000
1000
0000
0100
,  // measure 45
0010
0000
1000
0010
0000
0001
0010
0001
0010
0100
0000
1000
,  // measure 46
0010
0001
0010
1000
0000
0000
0001
0000
0000
1000
0000
0100
,  // measure 47
0010
0000
0001
0010
0000
1000
0010
0001
0010
0100
0000
1000
,  // measure 48
0010
1000
0100
1000
0000
0000
0001
0000
0000
1000
0000
0010
,  // measure 49
0100
0000
0000
0000
0000
0000
0000
0000
1000
0000
0000
0000
0100
0000
0000
0000
0000
0000
0000
0000
0000
0000
0000
0000
0001
0000
0000
0000
0000
0000
0000
0000
0000
0000
0000
0000
2000
0000
0000
0000
0000
0000
0000
0000
0000
0010
0000
0000
,  // measure 50
0000
0000
3010
0000
0020
0000
0000
0100
0000
0000
0100
0000
0230
0000
0000
0001
,  // measure 51
0000
0000
0301
0000
0002
0000
0000
0010
0000
0000
0013
0000
0020
0000
0000
0100
,  // measure 52
0000
0000
0100
0000
0230
0000
0000
1000
0000
0000
1000
0000
2300
0000
0000
0001
,  // measure 53
0000
0000
0001
0000
3002
0000
0000
1000
0000
0000
1000
0000
1003
0000
0001
0000
,  // measure 54
0010
0100
0001
0100
1000
0010
0100
0010
,  // measure 55
0001
0000
0010
0000
0100
0000
0001
0000
1000
0000
0010
0000
1000
0100
0010
0001
,  // measure 56
1000
0100
0010
0001
1000
0100
0010
0001
0010
0100
1000
0001
0010
0100
1000
0001
,  // measure 57
0010
0000
0000
0100
0000
0000
1000
0000
0000
0010
0000
0000
0100
0000
0000
0000
0010
0000
0000
0000
1000
0000
0000
0000
0100
0000
0000
0000
0000
0000
0000
0000
0000
0000
0000
0000
0220
0000
0000
0000
0000
0000
0000
0000
0000
0000
0000
0000
,  // measure 58
0000
0000
0000
0330
;
