#TITLE:Atlantis;
#SUBTITLE:;
#ARTIST:Breathe Carolina & Dropgun;
#TITLETRANSLIT:;
#SUBTITLETRANSLIT:;
#ARTISTTRANSLIT:;
#GENRE:;
#CREDIT:darkanine;
#BANNER:Atlantis-bn.png;
#BACKGROUND:Atlantis-bg.png;
#LYRICSPATH:;
#CDTITLE:darkanine.png;
#MUSIC:Atlantis.ogg;
#OFFSET:-0.937500;
#SAMPLESTART:30.965950;
#SAMPLELENGTH:15.000000;
#SELECTABLE:YES;
#DISPLAYBPM:128.000000;
#BPMS:0.000000=128.000000
,32.000000=64.000000
,32.250000=112.000000
,32.687500=144.000000
,33.250000=192.000000
,34.000000=64.000000
,34.250000=112.000000
,34.687500=144.000000
,35.250000=192.000000
,36.000000=64.000000
,36.250000=112.000000
,36.687500=144.000000
,37.250000=192.000000
,38.000000=128.000000
,40.000000=64.000000
,40.250000=112.000000
,40.687500=144.000000
,41.250000=192.000000
,42.000000=64.000000
,42.250000=112.000000
,42.687500=144.000000
,43.250000=192.000000
,44.000000=64.000000
,44.250000=112.000000
,44.687500=144.000000
,45.250000=192.000000
,46.000000=128.000000
,128.000000=120.000000
,129.625000=96.000000
,131.500000=64.000000
,132.500000=96.000000
,133.125000=120.000000
,134.000000=128.000000
,166.000000=64.000000
,166.250000=112.000000
,166.687500=144.000000
,167.250000=192.000000
,168.000000=64.000000
,168.250000=112.000000
,168.687500=144.000000
,169.250000=192.000000
,170.000000=64.000000
,170.250000=112.000000
,170.687500=144.000000
,171.250000=192.000000
,172.000000=128.000000
,174.000000=64.000000
,174.250000=112.000000
,174.687500=144.000000
,175.250000=192.000000
,176.000000=64.000000
,176.250000=112.000000
,176.687500=144.000000
,177.250000=192.000000
,178.000000=64.000000
,178.250000=112.000000
,178.687500=144.000000
,179.250000=192.000000
,180.000000=128.000000
;
#STOPS:
;
#BGCHANGES:;
#KEYSOUNDS:;
#ATTACKS:;

//---------------dance-single - ----------------
#NOTES:
     dance-single:
     :
     Hard:
     9:
     0.614894,0.628184,0.383624,0.506383,0.629143,561.000000,511.000000,50.000000,66.000000,0.000000,0.000000,0.614894,0.628184,0.383624,0.506383,0.629143,561.000000,511.000000,50.000000,66.000000,0.000000,0.000000:
0000
0000
0000
0000
,
0000
0000
0000
0000
,
0000
0000
0000
0000
,
0001
0000
1000
0100
1000
0000
0001
0100
0001
0000
0010
0000
0100
0000
0000
0000
,
1001
0100
0001
0010
0200
0000
1300
0010
,
0200
0000
0301
0100
0001
0000
1000
0000
0010
0000
0001
0000
0010
0000
0200
0000
,
0000
0301
1000
0010
0200
0000
0301
0010
,
1000
0000
0010
0001
1000
0000
0010
0100
0001
0000
1000
0000
0010
0000
0000
0000
,
0202
0000
0000
0303
1010
0000
0000
0000
,
2200
0000
0000
0000
0000
0000
3300
0000
0011
0000
0001
1000
0000
0000
0001
0000
,
2020
0000
0000
3030
0101
0000
0000
0000
,
0022
0000
0000
0000
0000
0000
0033
0000
1100
0000
1000
0001
0000
0000
0100
0000
,
0010
1000
0010
1000
0001
0100
0001
1000
,
0100
0010
0001
1000
0010
0100
0001
1000
,
0100
1000
0100
1000
0001
1000
0001
1000
0001
0100
0001
0100
0010
0100
0010
0100
,
0001
0000
0000
0000
0001
0000
0000
0000
0001
1000
0100
0010
0001
0000
0000
0000
,
0110
0000
0000
0000
1000
0010
1000
0001
0010
0000
0001
0200
0000
0000
1300
0000
,
0202
0000
0000
0303
1000
0010
0100
0001
0010
0000
0010
0200
0000
0000
0301
0000
,
0110
0000
0000
0000
1000
0100
1000
0001
0100
0000
0001
0020
0000
0000
0130
0000
,
1000
0000
0000
0010
0000
0000
0100
0000
0000
0001
0000
0000
1000
0000
0000
0100
0000
0000
0010
0000
0000
0001
0000
0000
1000
0000
0000
0000
0010
0000
0000
0000
0100
0000
0000
0000
0102
0000
0000
0000
0000
0000
0000
0000
0000
0003
0000
0000
,
0110
0000
0000
0000
0001
0010
0001
1000
0010
0000
1000
0200
0000
0000
0301
0000
,
2200
0000
0000
3300
0001
0010
0100
1000
0010
0000
0010
0200
0000
0000
1300
0000
,
0110
0000
0000
0000
0001
0100
0001
1000
0100
0000
1000
0020
0000
0000
0130
0000
,
0001
0000
0000
1000
0000
0000
0100
0000
0000
0010
0000
0000
0001
0000
0000
1000
0000
0000
0010
0000
0000
0100
0000
0000
0001
0000
0000
0000
1000
0000
0000
0000
0001
0000
0000
0000
1001
0000
0000
0000
0000
0000
0000
0000
0000
0000
0000
0000
,
0110
0000
0000
0000
0000
0000
0000
0000
0000
0000
0000
0000
1000
0000
0000
0000
0010
0000
0100
0000
0010
0000
0000
0000
1000
0000
0000
0000
0001
0000
0000
0000
0010
0000
0000
0000
0200
0000
0000
0000
0000
0000
0000
0000
0000
0300
0000
0000
,
0022
0000
0000
0000
0000
0000
0000
0000
0000
0033
0000
0000
1000
0000
0000
0000
0010
0000
0100
0000
0010
0000
0000
0000
0001
0000
0000
0000
1000
0000
0000
0000
0100
0000
0000
0000
0002
0000
0000
0000
0000
0000
0000
0000
0000
0003
0000
0000
,
0110
0000
0000
0000
0000
0000
0000
0000
0000
0000
0000
0000
1000
0000
0000
0000
0100
0000
0010
0000
0100
0000
0000
0000
1000
0000
0000
0000
0001
0000
0000
0000
0100
0000
0000
0000
0020
0000
0000
0000
0000
0000
0000
0000
0000
0030
0000
0000
,
1000
0000
0000
0000
0100
0000
0010
0000
0100
0000
0000
0000
0001
0000
0000
0000
0100
0000
0000
0000
0010
0000
0000
0000
0001
0000
0000
0000
0100
0000
0000
0000
0010
0000
0000
0000
2000
0000
0000
0000
0000
0000
0000
0000
0000
3000
0000
0000
,
0110
0000
0000
0000
0000
0000
0000
0000
0000
0000
0000
0000
0001
0000
0000
0000
0100
0000
0010
0000
0100
0000
0000
0000
0001
0000
0000
0000
1000
0000
0000
0000
0100
0000
0000
0000
0020
0000
0000
0000
0000
0000
0000
0000
0000
0030
0000
0000
,
2200
0000
0000
0000
0000
0000
0000
0000
0000
3300
0000
0000
0001
0000
0000
0000
0100
0000
0010
0000
0100
0000
0000
0000
1000
0000
0000
0000
0001
0000
0000
0000
0010
0000
0000
0000
2000
0000
0000
0000
0000
0000
0000
0000
0000
3000
0000
0000
,
0100
0000
0000
0000
0000
0000
1000
0000
0000
0000
0010
1000
0001
0000
0010
0000
0100
0000
1000
0000
0000
0000
0000
0000
,
0001
0000
0010
0100
0010
0000
1000
0000
0010
0000
0001
0000
0100
0000
1000
0000
0100
0000
0010
0000
0000
0000
0000
0000
,
2002
0000
0000
0000
,
0000
0000
0000
3003
0110
1000
0100
0010
,
0001
0000
0100
0010
1000
0000
0001
0010
,
0100
1000
0001
0100
0000
0010
0100
0001
,
0010
0000
0100
1000
0010
0000
0100
0001
,
1000
0100
0010
0000
1001
0100
1000
0010
,
0200
0000
0000
0000
0301
0000
0010
0000
1000
0000
0010
0100
0010
0000
0001
0000
,
0100
0010
1000
0200
0000
1300
0001
0100
,
2000
0000
0000
0000
3001
0000
0010
0000
1000
0000
0001
0010
0100
0000
1000
0010
,
0100
0001
1001
0000
0220
0000
0000
0330
,
1001
0000
0000
0000
0220
0000
0000
0330
,
1001
0000
1000
0100
0000
0000
0010
0000
0202
0000
0000
0000
0000
0000
0303
0000
,
1010
0000
0000
0000
2200
0000
0000
3300
,
0011
0000
0001
1000
0000
0000
0010
0000
0100
0000
0001
0000
1000
0000
0100
0000
,
0010
0001
1000
0010
0100
0001
0010
0100
,
1000
0000
0010
0000
0001
0000
0010
0000
1000
0100
1000
0100
1000
0001
1000
0001
,
0100
0001
0100
0001
0100
0010
0100
0010
1000
0000
0000
0000
1000
0000
0000
0000
,
1000
0001
0010
0100
1000
0000
0000
0000
0101
0000
0000
0000
1000
0001
0100
0001
,
0010
0000
0100
0020
0000
0000
0031
0000
2200
0000
0000
3300
0001
1000
0010
0100
,
1000
0000
1000
0200
0000
0000
0301
0000
1010
0000
0000
0000
0001
1000
0100
1000
,
0010
0000
0100
0020
0000
0000
1030
0000
0001
0010
0100
1000
0001
0100
0010
1000
,
0100
0000
0000
0000
0010
0000
0000
0000
0100
0000
0000
0000
0120
0000
0000
0000
0000
0000
0000
0000
0000
0030
0000
0000
1100
0000
0000
0000
0000
0000
0000
0000
0000
0000
0000
0000
0001
0000
0000
1000
0000
0000
0010
0000
0000
1000
0000
0000
,
0100
0000
0010
0200
0000
0000
1300
0000
0202
0000
0000
0303
1000
0001
0100
0010
,
0001
0000
0001
0020
0000
0000
1030
0000
0011
0000
0000
0000
1000
0001
0010
0001
,
0100
0000
0010
0200
0000
0000
0301
0000
1000
0001
0010
0100
1000
0001
0100
0010
,
0001
0000
1000
0000
0100
0000
0110
0000
0000
0000
0000
0000
1001
0000
0000
0000
0000
0000
1000
0000
0001
0100
0001
0000
,
0010
0000
0000
0000
0100
0000
0000
0000
1000
0000
0000
0000
0020
0000
0000
0000
0000
0000
0000
0000
0000
0030
0000
0000
0202
0000
0000
0000
0000
0000
0000
0000
0000
0303
0000
0000
1000
0000
0000
0000
0100
0000
0010
0000
0100
0000
0000
0000
,
0001
0000
0000
0000
0100
0000
0000
0000
1000
0000
0000
0000
0002
0000
0000
0000
0000
0000
0000
0000
0000
0003
0000
0000
1010
0000
0000
0000
0000
0000
0000
0000
0000
0000
0000
0000
0001
0000
0000
0000
1000
0000
0100
0000
1000
0000
0000
0000
,
0010
0000
0000
0000
0100
0000
0000
0000
0001
0000
0000
0000
0020
0000
0000
0000
0000
0000
0000
0000
0000
0030
0000
0000
0001
0000
0000
0000
1000
0000
0100
0000
1000
0000
0000
0000
0010
0000
0000
0000
0001
0000
0000
0000
0010
0000
0000
0000
,
1000
0000
0000
0000
0100
0000
0000
0000
0010
0000
0000
0000
0220
0000
0000
0000
0000
0000
0000
0000
0000
0330
0000
0000
1001
0000
0000
0000
0000
0000
0000
0000
0000
0000
0000
0000
0001
0000
0000
0000
0100
0000
1000
0000
0100
0000
0000
0000
,
0010
0000
0000
0000
1000
0000
0000
0000
0100
0000
0000
0000
0002
0000
0000
0000
0000
0000
0000
0000
0000
0003
0000
0000
0110
0000
0000
0000
0000
0000
0000
0000
0000
0000
0000
0000
1000
0000
0000
0000
0010
0000
0100
0000
0010
0000
0000
0000
,
0001
0000
0010
0000
1000
0000
0002
0000
0000
0000
0003
0000
1000
0000
0000
0000
0000
0000
0100
0000
0000
0000
0010
0001
,
1000
0000
0010
0000
0100
0000
0001
0000
0000
0000
0000
0000
1000
0000
0100
0001
0100
0000
1000
0000
0010
0000
0001
0000
,
1000
0100
0001
1001
0000
0000
0110
0000
0000
0000
0000
0000
;

//---------------dance-single - ----------------
#NOTES:
     dance-single:
     :
     Medium:
     6:
     0.401161,0.402038,0.391296,0.138105,0.069052,366.000000,315.000000,51.000000,18.000000,0.000000,0.000000,0.401161,0.402038,0.391296,0.138105,0.069052,366.000000,315.000000,51.000000,18.000000,0.000000,0.000000:
0000
0000
0000
0000
,
0000
0000
0000
0000
,
0000
0000
0000
0000
,
1000
0001
0100
0010
1000
0100
0010
0000
,
0001
0000
1000
0010
0200
0000
0301
1000
,
0200
0000
0310
0000
0001
0010
0100
2000
,
0000
3000
0001
0100
0020
0000
1030
0100
,
0002
0000
0103
1000
0001
0100
0010
0000
,
1000
0000
0011
0000
,
0100
0000
0000
0000
0000
0000
0000
0000
1010
0000
0000
1000
0000
0000
1000
0000
,
0001
0000
1100
0000
,
0010
0000
0000
0000
0000
0000
0000
0000
0101
0000
0000
0100
0000
0000
0100
0000
,
0010
1000
0010
0000
1000
0100
1000
0000
,
0001
0010
0001
0000
0100
0001
0100
0000
,
0010
1000
0100
0010
0001
0100
0010
1000
,
1001
0000
0001
0000
0001
0100
1000
0000
,
0110
0000
0000
0000
0100
0000
0000
0000
0001
0000
0000
0001
0000
0000
0001
0000
,
2000
0000
0000
0000
3100
0000
0000
0000
0010
0000
0000
0010
0000
0000
0010
0000
,
0110
0000
0000
0000
0001
0000
0000
0000
1000
0000
0000
1000
0000
0000
1000
0000
,
0010
0100
0001
1000
0100
0000
0110
0000
,
1001
0000
0000
0000
1000
0000
0000
0000
0010
0000
0000
0010
0000
0000
0010
0000
,
0200
0000
0000
0000
0301
0000
0000
0000
1000
0000
0000
1000
0000
0000
1000
0000
,
0011
0000
0000
0000
0001
0000
0000
0000
0100
0000
0000
0100
0000
0000
0100
0000
,
0010
1000
0001
0010
0100
0000
1001
0000
,
0110
0000
1000
0010
0100
0000
1001
0000
,
0020
0000
0031
1000
0100
0000
0101
0000
,
1010
0000
0001
0010
0100
0000
1010
0000
,
0001
0100
0010
0000
1001
0000
0110
0000
,
1010
0000
0100
0001
1000
0000
1100
0000
,
0011
0000
0100
1000
0001
0000
0101
0000
,
1000
0000
0000
0001
0000
0000
1000
0000
0001
0100
0000
0000
,
0010
1000
0001
0000
0110
0000
1001
0000
,
0220
0000
0000
0000
,
0000
0000
0000
0330
1000
0000
0001
0010
,
0100
0000
1000
0100
0010
0000
0001
0000
,
1000
0010
0100
0001
0000
0000
1000
0010
,
0100
0000
0001
0010
1000
0000
0010
0001
,
1000
0010
0100
0000
1001
0000
0001
1000
,
0020
0000
1030
0001
0200
0000
0310
0000
,
1000
0001
0010
0200
0000
0300
1000
0100
,
0020
0000
0031
1000
0020
0000
0130
0000
,
0001
1000
0001
0000
0100
0000
0000
0000
,
1010
0000
0100
0000
,
0011
0000
0000
0001
0000
0000
0001
0000
1000
0000
0000
0000
0000
0000
0000
0000
,
0101
0000
0010
0000
,
1100
0000
0000
1000
0000
0000
1000
0000
0001
0000
0100
0000
0001
0000
0000
0000
,
1000
0010
1000
0000
0100
1000
0100
0000
,
0010
0001
0010
0000
0001
0100
0010
0100
,
0001
0010
0100
1000
1001
0000
0001
0000
,
0001
0010
1000
0000
0110
0000
0100
0000
,
1000
0000
0000
1000
0000
0000
1000
0000
0002
0000
0000
0000
0103
0000
0000
0000
,
0010
0000
0000
0010
0000
0000
0010
0000
0110
0000
0000
0000
1000
0000
0000
0000
,
0001
0000
0000
0001
0000
0000
0001
0000
0010
0000
0100
0000
1000
0000
0001
0000
,
0100
0110
1001
0001
,
0010
0000
0000
0010
0000
0000
0010
0000
0200
0000
0000
0000
1300
0000
0000
0000
,
0001
0000
0000
0001
0000
0000
0001
0000
1010
0000
0000
0000
1000
0000
0000
0000
,
0100
0000
0000
0100
0000
0000
0100
0000
0010
0000
0001
0000
1000
0000
0010
0000
,
0100
0000
1001
0000
0110
0000
0001
0010
,
0100
0000
1001
0000
0020
0000
1030
0001
,
0100
0000
1100
0000
0011
0000
1000
0010
,
0100
0000
0011
0000
1000
0100
0010
0000
,
1001
0000
0110
0000
0011
0000
0100
1000
,
0001
0000
0101
0000
1010
0000
0100
0001
,
1000
1100
0001
1000
,
0001
0000
0000
0000
1000
0000
0100
0000
0000
0000
0000
0000
0010
0000
0000
0001
0000
0000
1000
0000
0000
0000
0000
0000
,
0110
1001
0110
0000
;

//---------------dance-single - ----------------
#NOTES:
     dance-single:
     :
     Easy:
     4:
     0.293746,0.326656,0.268537,0.015345,0.000000,268.000000,233.000000,35.000000,2.000000,0.000000,0.000000,0.293746,0.326656,0.268537,0.015345,0.000000,268.000000,233.000000,35.000000,2.000000,0.000000,0.000000:
// measure 0
0000
0000
0000
0000
,  // measure 1
0000
0000
0000
0000
,  // measure 2
0000
0000
0000
0000
,  // measure 3
1000
0001
0010
0001
,  // measure 4
1000
0100
0100
1000
,  // measure 5
1000
0010
0010
0100
,  // measure 6
0001
1000
1000
0100
,  // measure 7
0010
0100
1000
0001
,  // measure 8
0100
0000
0100
0000
,  // measure 9
0010
0000
0010
0010
,  // measure 10
1000
0000
1000
0000
,  // measure 11
0001
0000
0001
0001
,  // measure 12
1000
1000
0100
0100
,  // measure 13
0001
0001
0010
0010
,  // measure 14
1000
0100
0001
0010
,  // measure 15
0110
0100
0100
0010
,  // measure 16
1001
1000
0100
0100
,  // measure 17
0011
0010
0001
1000
,  // measure 18
1010
0010
0100
0001
,  // measure 19
1100
0010
0001
1000
,  // measure 20
0101
0001
1000
0100
,  // measure 21
0011
0010
0001
0100
,  // measure 22
1010
1000
0001
0010
,  // measure 23
1000
0100
0001
0010
,  // measure 24
1100
0010
0010
0010
,  // measure 25
0101
1000
1000
1000
,  // measure 26
0011
0100
0100
0100
,  // measure 27
1010
0100
0011
1000
,  // measure 28
0110
0001
0001
0001
,  // measure 29
1100
0010
0010
0010
,  // measure 30
1001
0100
0100
0100
,  // measure 31
1000
0100
0001
0010
,  // measure 32
2002
0000
0000
0000
,  // measure 33
0000
3003
1000
0010
,  // measure 34
0010
0100
0100
0001
,  // measure 35
1000
0001
0000
0010
,  // measure 36
0010
0100
0100
1000
,  // measure 37
0010
0001
0110
1000
,  // measure 38
1000
0100
0001
0010
,  // measure 39
0010
0100
1000
0001
,  // measure 40
0001
0100
0010
0100
,  // measure 41
0001
1000
0100
0000
,  // measure 42
0100
0000
0010
0000
,  // measure 43
0010
0010
0001
0000
,  // measure 44
0001
0000
1000
0000
,  // measure 45
1000
1000
0001
0001
,  // measure 46
0100
0100
1000
1000
,  // measure 47
0010
0010
0001
0100
,  // measure 48
1000
0010
0110
0100
,  // measure 49
0100
0010
1001
0001
,  // measure 50
0100
0100
1010
0010
,  // measure 51
1000
0001
0011
0010
,  // measure 52
0100
1000
0101
0010
,  // measure 53
1000
0001
1100
1000
,  // measure 54
0001
0100
1010
0010
,  // measure 55
1000
0100
0011
0001
,  // measure 56
1000
0010
0001
0100
,  // measure 57
1000
0010
0101
0010
,  // measure 58
0010
0010
1100
0001
,  // measure 59
0001
0001
1010
0100
,  // measure 60
0100
0100
0011
0100
,  // measure 61
1010
0001
0110
1000
,  // measure 62
1000
1000
0101
0010
,  // measure 63
0010
0010
1001
0100
,  // measure 64
0100
0100
0001
0100
,  // measure 65
1000
0010
1001
0000
;
