#TITLE:All U Need;
#SUBTITLE:;
#ARTIST:MesoPhunk;
#TITLETRANSLIT:;
#SUBTITLETRANSLIT:;
#ARTISTTRANSLIT:;
#GENRE:;
#CREDIT:;
#BANNER:All U Need.png;
#BACKGROUND:All U Need-bg.png;
#LYRICSPATH:;
#CDTITLE:cdtitle.png;
#MUSIC:All U Need.mp3;
#OFFSET:-3.031952;
#SAMPLESTART:68.175003;
#SAMPLELENGTH:15.000000;
#SELECTABLE:YES;
#BPMS:0.000000=175.000000
,128.000000=87.500000
,144.000000=175.000000
;
#STOPS:
;
#BGCHANGES:;
#KEYSOUNDS:;
#ATTACKS:;

//---------------dance-single - ----------------
#NOTES:
     dance-single:
     :
     Beginner:
     3:
     0.221738,0.298343,0.085798,0.093598,0.000000,199.000000,188.000000,11.000000,12.000000,0.000000,0.000000,0.221738,0.298343,0.085798,0.093598,0.000000,199.000000,188.000000,11.000000,12.000000,0.000000,0.000000:
// measure 0
0000
0000
0000
0000
,  // measure 1
0000
0000
0000
0000
,  // measure 2
0000
0000
0000
0000
,  // measure 3
0000
0000
0000
0000
,  // measure 4
1000
0000
1000
0000
,  // measure 5
0001
0000
0001
0000
,  // measure 6
1000
0000
0001
0000
,  // measure 7
0010
0000
0010
0000
,  // measure 8
0100
0000
0100
0000
,  // measure 9
0010
0000
0010
0000
,  // measure 10
0100
0000
0010
0000
,  // measure 11
0100
0000
1000
0000
,  // measure 12
0001
0001
0001
0000
,  // measure 13
1000
1000
1000
0000
,  // measure 14
0010
0000
0100
0000
,  // measure 15
0110
0000
0000
0000
,  // measure 16
1001
0000
0001
0000
,  // measure 17
1000
1000
1000
0000
,  // measure 18
0100
0000
1000
0000
,  // measure 19
0010
0010
0010
0000
,  // measure 20
0100
0000
0001
0000
,  // measure 21
0010
0010
0010
0000
,  // measure 22
0100
0000
1000
0000
,  // measure 23
0001
0001
0001
0000
,  // measure 24
1000
0000
0100
0000
,  // measure 25
1000
0000
0010
0010
,  // measure 26
0010
0000
0100
0000
,  // measure 27
0001
0000
1000
1000
,  // measure 28
1000
0000
0100
0000
,  // measure 29
0010
0000
0001
0001
,  // measure 30
0001
0000
1000
0000
,  // measure 31
0010
0010
0010
0000
,  // measure 32
0200
0000
0000
0000
,  // measure 33
0320
0000
0000
0000
,  // measure 34
2030
0000
0000
0000
,  // measure 35
3002
0000
0000
0000
,  // measure 36
2003
0000
0000
0000
,  // measure 37
0001
0000
0001
0000
,  // measure 38
3002
0000
0000
0000
,  // measure 39
1000
0000
0000
0000
,  // measure 40
0013
0000
0000
0000
,  // measure 41
0010
0000
0000
0000
,  // measure 42
0100
0000
0100
0000
,  // measure 43
1000
0000
0001
0000
,  // measure 44
1001
0000
0001
0000
,  // measure 45
1000
0000
0100
0100
,  // measure 46
1000
0000
0001
0000
,  // measure 47
0100
0000
0100
0100
,  // measure 48
0001
0000
1000
0000
,  // measure 49
0010
0000
0100
0000
,  // measure 50
0001
0000
1000
0000
,  // measure 51
0001
1000
1001
0000
,  // measure 52
0100
0000
0010
0000
,  // measure 53
1000
0000
0001
0001
,  // measure 54
0100
0000
0010
0000
,  // measure 55
0010
0000
1000
1000
,  // measure 56
0100
0000
0010
0000
,  // measure 57
0001
0000
1000
0000
,  // measure 58
0001
0001
1000
1000
,  // measure 59
1001
0000
0001
0000
,  // measure 60
1000
0100
1000
0000
,  // measure 61
0001
0100
0001
0000
,  // measure 62
1000
0001
1000
0000
,  // measure 63
0010
0100
0010
0000
,  // measure 64
1000
0010
1000
0000
,  // measure 65
0001
0010
0001
0000
,  // measure 66
1000
0001
1000
0001
,  // measure 67
0200
0000
0320
0000
,  // measure 68
1030
1000
0100
0000
,  // measure 69
0001
0001
0100
0000
,  // measure 70
1000
1000
0010
0000
,  // measure 71
0001
0001
0010
0000
,  // measure 72
1001
0000
0001
0000
,  // measure 73
1001
0000
1000
0000
,  // measure 74
0110
0000
0110
0000
,  // measure 75
0220
0000
0330
0000
,  // measure 76
1000
1000
0001
0000
,  // measure 77
0001
0001
1000
0000
,  // measure 78
0010
0010
0100
0000
,  // measure 79
0100
0100
0010
0000
,  // measure 80
1000
0100
1000
0000
,  // measure 81
0001
0100
0001
0000
,  // measure 82
1000
0010
1000
0000
,  // measure 83
0001
0010
0100
1000
,  // measure 84
2002
0000
0000
0000
,  // measure 85
3003
0000
0000
0000
;

//---------------dance-single - ----------------
#NOTES:
     dance-single:
     :
     Easy:
     6:
     0.432333,0.530388,0.335393,0.124797,0.000000,388.000000,345.000000,43.000000,16.000000,0.000000,0.000000,0.432333,0.530388,0.335393,0.124797,0.000000,388.000000,345.000000,43.000000,16.000000,0.000000,0.000000:
// measure 0
0000
0000
0000
0000
,  // measure 1
0000
0000
0000
0000
,  // measure 2
0000
0000
0000
0000
,  // measure 3
0000
0000
0000
0000
,  // measure 4
0001
0101
0001
1000
,  // measure 5
0100
1100
1000
0010
,  // measure 6
0100
0110
0100
0001
,  // measure 7
0010
0100
1000
0001
,  // measure 8
1001
1000
1000
1000
,  // measure 9
0001
0001
0001
0001
,  // measure 10
0010
0010
0010
0010
,  // measure 11
0100
0100
0100
0100
,  // measure 12
1000
0100
0001
0100
,  // measure 13
1000
0010
0001
0010
,  // measure 14
1000
0000
0001
0000
1000
0001
1000
0001
,  // measure 15
2000
0000
0000
3000
,  // measure 16
1001
0000
0001
0000
0100
0001
0100
0000
,  // measure 17
0010
1000
0001
1000
,  // measure 18
0100
0000
0010
0000
0001
0010
0001
0000
,  // measure 19
0100
0010
1000
0100
,  // measure 20
1000
0000
0001
0000
0100
0001
1000
0000
,  // measure 21
0100
0000
1000
0000
0010
1000
0010
0000
,  // measure 22
0100
0001
1000
0100
,  // measure 23
0010
0000
0001
0000
1000
0001
1000
0000
,  // measure 24
1010
0010
0100
0001
,  // measure 25
1000
0000
0100
0000
1000
0010
1000
0000
,  // measure 26
0101
0100
0001
1000
,  // measure 27
0100
0000
1000
0000
0001
0010
0001
0000
,  // measure 28
1001
0010
0100
0001
,  // measure 29
1000
0000
0100
0000
0010
0100
0010
0000
,  // measure 30
0100
0000
0000
0100
0100
0000
0010
0000
,  // measure 31
0001
0000
0100
0000
0010
0100
0000
0000
,  // measure 32
1002
0000
2003
3020
,  // measure 33
0230
0000
0000
0000
,  // measure 34
0302
0000
0023
0100
,  // measure 35
0230
0000
0000
0000
,  // measure 36
1300
0001
0000
0001
0000
1000
0000
1000
,  // measure 37
0000
0010
0000
0010
0000
0100
0000
0100
,  // measure 38
0000
0001
0000
0010
0000
0100
0000
1000
,  // measure 39
0000
0010
0000
0100
0000
0001
0000
1000
,  // measure 40
0001
0001
0001
0001
,  // measure 41
1001
1000
1000
1000
,  // measure 42
1001
0010
0110
0100
,  // measure 43
0001
1000
0001
1000
0002
0000
1003
0000
,  // measure 44
1001
0000
0001
0000
0100
0001
0100
0000
,  // measure 45
0010
0000
1000
0000
0001
0000
1000
0100
,  // measure 46
1000
0000
0001
0100
0000
0100
0001
0000
,  // measure 47
1000
0001
0011
1100
,  // measure 48
1000
0000
0100
0000
0010
0001
0010
0000
,  // measure 49
0100
0000
1000
0000
0010
1000
0010
0000
,  // measure 50
0100
0000
0001
0001
0000
1000
1000
0000
,  // measure 51
0001
1000
1001
0000
,  // measure 52
0110
0000
0010
0000
1000
0001
1000
0000
,  // measure 53
0100
0000
0010
0000
0001
1000
0001
0100
,  // measure 54
0020
0000
0000
2030
0000
0000
3001
0000
,  // measure 55
0010
0000
0001
0000
1000
0001
1000
0000
,  // measure 56
0010
0000
0100
0001
0000
0100
0001
0000
,  // measure 57
0010
0000
0100
1000
0000
0100
1000
0000
,  // measure 58
0010
0000
1000
0001
0000
1000
0001
0000
,  // measure 59
0020
1000
0100
0031
,  // measure 60
1000
0000
1000
0000
0100
1000
0100
0000
,  // measure 61
0010
0000
0010
0000
0001
0010
0001
0000
,  // measure 62
0100
0000
0100
0000
0001
0100
0001
0000
,  // measure 63
0010
0100
1100
0011
,  // measure 64
0001
0000
0001
0000
0100
0001
0100
0000
,  // measure 65
0010
0000
0010
0000
1000
0010
1000
0000
,  // measure 66
0100
0000
0100
0000
1000
0100
1000
0000
,  // measure 67
0010
0100
0101
1010
,  // measure 68
1000
0001
0101
1100
,  // measure 69
1000
0001
0011
1010
,  // measure 70
1000
0100
1100
0101
,  // measure 71
0001
1000
1010
0011
,  // measure 72
1001
0001
0001
0001
,  // measure 73
1001
1000
1000
1000
,  // measure 74
0110
0010
0110
0100
,  // measure 75
2002
0000
0000
3003
,  // measure 76
0001
0000
0101
0000
0001
0100
0001
0000
,  // measure 77
1000
0000
1100
0000
1000
0100
1000
0000
,  // measure 78
0001
0000
0011
0000
0001
0010
0001
0000
,  // measure 79
1000
0000
1010
0000
1000
0010
1000
0000
,  // measure 80
1001
0000
0101
0000
0001
0010
0001
0000
,  // measure 81
1001
0000
1100
0000
1000
0010
1000
0000
,  // measure 82
0001
0001
1000
1000
,  // measure 83
0001
1000
0001
1000
0010
0000
0100
0000
,  // measure 84
0220
0000
0000
0000
,  // measure 85
0330
0000
0000
0000
;

//---------------dance-single - ----------------
#NOTES:
     dance-single:
     :
     Medium:
     8:
     0.524817,0.530388,0.296393,0.187196,0.000000,471.000000,433.000000,38.000000,24.000000,0.000000,0.000000,0.524817,0.530388,0.296393,0.187196,0.000000,471.000000,433.000000,38.000000,24.000000,0.000000,0.000000:
// measure 0
0000
0000
0000
0000
,  // measure 1
0000
0000
0000
0000
,  // measure 2
0000
0000
0000
0000
,  // measure 3
0000
0000
0000
0000
,  // measure 4
1000
0000
0100
0000
1000
0010
1000
0000
,  // measure 5
0001
0000
0100
0000
0001
0010
0001
0000
,  // measure 6
1000
0000
0010
0000
0100
0010
0100
0000
,  // measure 7
0001
0100
0010
1000
0100
1000
0001
0000
,  // measure 8
1100
0101
0001
1000
,  // measure 9
1010
0011
0100
0001
,  // measure 10
0101
1100
1000
0001
,  // measure 11
0011
1010
1000
0001
,  // measure 12
1001
0000
0010
1000
0001
0000
0010
0001
,  // measure 13
1000
0000
0100
1000
0001
0000
0100
0001
,  // measure 14
1000
0001
1000
0010
0100
0010
1000
0100
,  // measure 15
0020
0000
0000
0031
,  // measure 16
1001
0000
0001
0100
0001
0010
0001
0000
,  // measure 17
1000
0000
0100
1000
0000
0010
1000
0000
,  // measure 18
1100
0000
1000
0010
1000
0001
0100
0000
,  // measure 19
0001
0000
1000
0100
0010
0001
0100
0000
,  // measure 20
0101
0000
0001
1000
0010
1000
0001
0000
,  // measure 21
1000
0000
0001
0010
0100
0010
0000
0001
,  // measure 22
0100
0000
0100
0010
1000
0010
0100
0000
,  // measure 23
0001
0100
0010
1000
0100
1000
0001
0000
,  // measure 24
1001
0000
0001
0100
0001
0000
1000
0000
,  // measure 25
1001
0000
1000
0010
0000
0100
0001
0000
,  // measure 26
0101
0000
0001
0010
0100
1000
0100
0000
,  // measure 27
1000
0100
0010
0001
0010
0001
1000
0000
,  // measure 28
1100
0000
1000
0000
0001
0100
0001
0000
,  // measure 29
0101
0000
1000
0000
0010
0100
0010
0000
,  // measure 30
1000
0100
1000
0001
0100
0001
1000
0010
,  // measure 31
0100
0000
0001
0000
0010
0200
0000
0000
,  // measure 32
2300
0000
3002
0203
,  // measure 33
0320
0000
0000
0000
,  // measure 34
0230
0000
2300
0001
,  // measure 35
3002
0000
0000
0000
,  // measure 36
0013
0000
1000
0000
0100
1000
0001
0000
,  // measure 37
0100
0000
0001
0000
0010
0001
1000
0000
,  // measure 38
1001
0000
0010
0000
1000
0001
0100
0000
,  // measure 39
0001
0000
1000
0000
0100
1000
0001
0000
,  // measure 40
0011
0001
0001
0001
,  // measure 41
1010
1000
1000
1000
,  // measure 42
0001
0100
0001
0010
0100
0010
0001
1000
,  // measure 43
0020
0000
0130
0010
,  // measure 44
0110
0000
0001
0100
0010
0100
0001
0000
,  // measure 45
1000
0000
0100
1000
0001
0000
1000
0010
,  // measure 46
1000
0000
0001
0010
0000
1000
0010
0000
,  // measure 47
0001
0000
0100
0000
0010
0100
0001
0000
,  // measure 48
1001
0000
1000
0100
1000
0000
0010
0100
,  // measure 49
0010
0000
1000
0010
0100
0001
0100
0000
,  // measure 50
0001
0010
0001
0010
0000
0110
0000
1200
,  // measure 51
0000
0300
1000
0100
1000
0010
1000
0000
,  // measure 52
0001
0100
1000
0100
0000
0001
0100
0000
,  // measure 53
0010
0000
1000
0000
0001
1000
0001
0000
,  // measure 54
1000
0010
0001
0010
0000
1000
0010
0000
,  // measure 55
0100
0000
0110
0000
0001
1000
0001
0000
,  // measure 56
1000
0000
0001
0000
1000
0010
1000
0001
,  // measure 57
1000
0000
0001
0000
0010
0001
0010
0001
,  // measure 58
0100
0010
0100
0010
0000
0110
0000
0201
,  // measure 59
0000
0300
0001
0000
1000
0000
1001
0000
,  // measure 60
0002
0000
1003
0010
1000
0001
0100
0000
,  // measure 61
0001
0010
0001
0100
0010
1000
0100
0000
,  // measure 62
2000
0000
3010
0100
0001
0100
0010
0000
,  // measure 63
1000
0100
0010
0001
0010
0100
1000
0000
,  // measure 64
0101
0000
0001
0100
0010
0100
0001
0000
,  // measure 65
1000
0100
1000
0010
1000
0001
0100
0000
,  // measure 66
1010
0000
0100
0001
0100
0001
0010
0000
,  // measure 67
0100
0010
0001
1000
0010
1000
0100
0000
,  // measure 68
2000
0000
3020
0000
0130
0001
0100
0000
,  // measure 69
0002
0000
0023
0000
0130
1000
0100
0000
,  // measure 70
0010
0001
0010
0100
1000
0100
0010
0000
,  // measure 71
0001
0100
0010
1000
0010
0100
0001
0000
,  // measure 72
1000
0010
0100
0010
1000
0100
0010
0100
,  // measure 73
1000
0001
0100
0001
0010
0001
0100
0000
,  // measure 74
0010
0100
0000
0101
0000
1100
0000
2002
,  // measure 75
0000
0000
0000
3003
,  // measure 76
0002
0000
0013
0100
1000
0100
1000
0000
,  // measure 77
1000
0010
1000
0001
0100
0001
0001
0000
,  // measure 78
2000
0000
3010
0100
0001
0100
0001
0000
,  // measure 79
1000
0001
1000
0000
0010
0010
0010
0000
,  // measure 80
0110
0000
0101
0000
0001
1000
0001
0000
,  // measure 81
0110
0000
1100
0000
1000
0001
1000
0000
,  // measure 82
0010
1000
0001
0000
0010
0001
1000
0000
,  // measure 83
0001
0100
0010
1000
0100
0010
0001
0000
,  // measure 84
2002
0000
0000
0000
,  // measure 85
3003
0000
0000
0000
;

//---------------dance-single - ----------------
#NOTES:
     dance-single:
     :
     Hard:
     10:
     0.738755,0.961329,0.280794,0.171596,0.417291,663.000000,627.000000,36.000000,22.000000,0.000000,0.000000,0.738755,0.961329,0.280794,0.171596,0.417291,663.000000,627.000000,36.000000,22.000000,0.000000,0.000000:
// measure 0
0000
0000
0000
0000
,  // measure 1
0000
0000
0000
0000
,  // measure 2
0000
0000
0000
0000
,  // measure 3
0000
0000
0000
0000
,  // measure 4
2000
0000
0000
0000
3100
0000
1000
0010
1000
0000
0100
0000
0010
0000
0000
0000
,  // measure 5
0001
0010
0001
0000
1000
0000
0010
1000
0010
0000
0100
0000
0001
0000
0000
0000
,  // measure 6
0002
0000
0000
0000
0103
0000
0001
0010
0001
0000
0100
0000
0010
0000
0000
0000
,  // measure 7
1000
0010
1000
0000
0001
0000
0010
0001
0010
0000
0100
0000
1000
0000
0000
0000
,  // measure 8
0101
0000
1100
0000
1000
0010
0001
0000
,  // measure 9
0001
0010
1000
0100
0001
0100
1000
0000
,  // measure 10
1100
0000
0101
0000
0001
0010
1000
0000
,  // measure 11
1000
0010
0001
0100
1000
0100
0001
0000
,  // measure 12
1000
0010
1000
0010
0001
0010
0001
0010
,  // measure 13
1000
0100
1000
0100
0001
0100
0001
0100
,  // measure 14
1000
0010
0100
0010
1000
0001
0010
0001
0100
0010
1000
0100
1000
0001
0100
0001
,  // measure 15
0020
0000
0000
0130
,  // measure 16
1000
0010
1000
0001
0100
0001
1000
0100
,  // measure 17
0001
0100
1000
0010
0000
0100
0001
0100
,  // measure 18
0010
1000
0100
1000
0001
0100
0001
0010
,  // measure 19
0100
1000
0100
1000
0010
1000
0001
0000
,  // measure 20
0100
0001
1000
0100
1000
0001
0010
0001
,  // measure 21
0100
0010
1000
0010
0000
1000
0100
1000
,  // measure 22
0001
0010
1000
0010
0001
0100
0010
0100
,  // measure 23
0001
0010
0100
1000
0010
1000
0001
0000
,  // measure 24
1000
0001
0100
0001
0010
1000
0001
0100
,  // measure 25
1000
0010
0100
0001
0000
1000
0010
1000
,  // measure 26
0001
0010
0100
1000
0100
0001
1000
0010
,  // measure 27
0001
0100
0010
1000
0001
0010
0001
0000
,  // measure 28
1000
0100
1000
0010
0100
0001
0010
0001
,  // measure 29
0100
0010
1000
0010
0001
1000
0100
0001
,  // measure 30
0010
0000
0000
0000
0100
1000
0100
1000
0010
0000
0000
0000
0100
0001
0100
0001
,  // measure 31
0010
0000
0100
1000
0001
0000
1001
0000
,  // measure 32
0210
0000
0302
0023
,  // measure 33
2030
0000
0000
3002
,  // measure 34
0023
0000
2030
0001
,  // measure 35
3002
0000
2000
0003
,  // measure 36
3001
0100
0001
1000
0000
0100
0000
1000
,  // measure 37
0000
0001
0000
0100
0000
0001
0000
1000
,  // measure 38
0010
1000
0001
0010
0000
0100
0000
1000
,  // measure 39
0000
0010
0000
1000
0000
0001
0000
0100
,  // measure 40
0101
1001
1100
1010
,  // measure 41
0110
0011
0110
1001
,  // measure 42
0001
0010
1000
0010
0001
0100
1000
0100
,  // measure 43
0001
0100
0010
0100
0010
1000
0100
0010
0200
0000
0000
0000
0310
0000
0000
0000
,  // measure 44
0001
0100
0010
1000
0100
1000
0001
0100
,  // measure 45
0001
0000
0010
0000
0100
0000
1000
0100
1000
0000
0010
0000
0100
0000
0001
0000
,  // measure 46
1000
0010
0001
0010
1000
0100
1000
0010
,  // measure 47
0100
0000
0001
0000
0010
0000
0001
0100
0001
0000
0010
0000
0100
0000
1000
0000
,  // measure 48
0001
0010
1000
0010
0001
0100
0010
1000
,  // measure 49
0100
0000
1000
0000
0001
0000
1000
0010
1000
0000
0001
0000
1000
0000
0100
0000
,  // measure 50
1000
0001
0100
1000
0100
0001
0010
0100
,  // measure 51
0010
0000
0001
0000
1000
0000
0001
0010
0001
0000
0100
0000
0110
0000
0000
0000
,  // measure 52
1010
0010
0100
0001
0100
1000
0001
0010
,  // measure 53
1000
0000
0100
0000
1000
0000
0010
0100
0010
0000
0001
0000
0010
0000
0000
0000
,  // measure 54
1000
0100
0001
0100
0010
0001
1000
0100
,  // measure 55
0010
0000
0100
0000
0001
0000
0100
0010
0100
0000
1000
0000
0010
0000
0000
0000
,  // measure 56
0001
0100
1000
0100
0010
1000
0001
0010
,  // measure 57
1000
0000
0010
0000
0001
0000
1000
0010
0100
0000
0001
0010
0100
0000
1000
0000
,  // measure 58
0001
0010
1000
1001
0000
0110
0000
1002
,  // measure 59
0000
0000
1000
1003
,  // measure 60
2000
0000
0000
0000
3010
0000
0100
0001
0010
0001
0010
0001
0100
0000
0000
0000
,  // measure 61
0001
0000
0010
0100
1000
0000
0010
0100
0001
0100
0001
1000
0010
0000
0000
0000
,  // measure 62
2000
0000
0000
0000
3001
0000
0010
0100
1000
0100
1000
0010
1000
0000
0000
0000
,  // measure 63
0001
0000
1000
0100
0010
0000
0001
1000
0010
1000
0001
1000
0100
0000
0000
0000
,  // measure 64
0020
0000
0000
0000
0031
0000
1000
0010
0100
0001
0100
0010
1000
0000
0000
0000
,  // measure 65
0001
0000
0100
0001
0010
0000
0100
1000
0001
1000
0010
1000
0001
0000
0000
0000
,  // measure 66
1000
0010
0001
1001
0000
0110
0000
2001
,  // measure 67
0000
0000
0001
3001
,  // measure 68
0011
0000
0000
0000
1100
0000
1000
0010
0100
0001
0100
0001
0010
0000
0000
0000
,  // measure 69
0011
0000
0010
0100
1000
0000
0001
0100
0001
1000
0010
1000
0100
0000
0000
0000
,  // measure 70
0110
0000
0000
0000
1001
0000
0001
0100
0010
0100
0001
0010
0100
0000
0000
0000
,  // measure 71
1100
0000
1000
0010
0100
0000
0001
1000
0100
0010
0100
0010
1000
0000
0000
0000
,  // measure 72
0110
0010
0001
1000
0010
0001
1000
0100
,  // measure 73
1000
0001
0010
1000
0001
0100
0010
1000
,  // measure 74
0100
1000
0010
1000
0001
0100
0001
0010
0100
1000
0001
0010
0001
1000
0010
1000
,  // measure 75
0020
0000
0100
0000
0230
0010
0310
0000
,  // measure 76
0101
0000
0000
0000
1010
0000
0001
0010
0100
1000
0100
1000
0001
0000
0000
0000
,  // measure 77
0101
0000
0001
1000
0100
0000
1000
0010
1000
0010
0100
0001
0010
0000
0000
0000
,  // measure 78
0110
0000
0000
0000
1001
0000
0001
1000
0010
1000
0001
1000
0100
0000
0000
0000
,  // measure 79
1100
0000
1000
0010
0100
0000
0001
0100
0001
0010
0001
1000
0100
0000
0000
0000
,  // measure 80
1000
0000
0100
1000
0010
0000
0100
0001
0100
0001
0010
0100
1000
0000
0000
0000
,  // measure 81
0001
0000
0100
0001
0010
0000
0100
1000
0100
1000
0010
0100
0001
0000
0000
0000
,  // measure 82
1000
0010
1000
0010
0100
0001
0100
0001
0010
0100
1000
0001
0100
0001
1000
0010
,  // measure 83
1000
0000
0001
0010
0001
0000
1000
0010
0100
0001
0010
0100
1000
0000
0000
0000
,  // measure 84
2002
0000
0000
0000
,  // measure 85
3003
0000
0000
0000
;
