#TITLE:8bit Adventurer;
#SUBTITLE:;
#ARTIST:Lime / Kankitsu;
#TITLETRANSLIT:;
#SUBTITLETRANSLIT:;
#ARTISTTRANSLIT:;
#GENRE:;
#CREDIT:;
#BANNER:[Round 2] - 8bit Adventurer.png;
#BACKGROUND:[Round 2] - 8bit Adventurer-bg.png;
#LYRICSPATH:;
#CDTITLE:;
#MUSIC:[Round 2] - 8bit Adventurer.ogg;
#OFFSET:-1.380000;
#SAMPLESTART:89.060127;
#SAMPLELENGTH:12.000000;
#SELECTABLE:YES;
#BPMS:0.000000=197.020004
;
#STOPS:
;
#BGCHANGES:;
#KEYSOUNDS:;
#ATTACKS:;

//---------------dance-single - ----------------
#NOTES:
     dance-single:
     :
     Hard:
     10:
     0.735816,1.012276,0.304476,0.304476,0.748503,609.000000,573.000000,36.000000,36.000000,0.000000,0.000000,0.735816,1.012276,0.304476,0.304476,0.748503,609.000000,573.000000,36.000000,36.000000,0.000000,0.000000:
0000
0000
0000
0000
,
0000
0000
0000
0000
,
0000
0000
0000
0000
,
0000
0000
0000
0000
,
0000
0000
0000
0000
,
0000
0000
0000
0000
,
0000
0000
0000
0000
,
0000
0000
0000
0000
,
1000
0000
0010
0100
0000
0001
0000
0010
,
0000
0000
0100
0000
0000
0000
1000
0000
0000
0000
0100
0000
0010
0000
0100
0010
,
0001
0000
0010
1000
0000
0010
0100
1000
,
0000
0000
0001
0000
0000
0000
1000
0000
0010
0000
0100
0010
0100
0000
0001
0000
,
0010
0000
0001
1000
0000
0010
0000
0100
,
0000
0000
1000
0000
0000
0000
0100
0000
0000
0000
0010
0000
1000
0000
0010
0100
,
0001
0000
1000
0001
0000
0010
0000
1100
,
0000
0000
1100
0000
0100
0000
1000
0000
0001
0000
0100
0001
0100
0000
0010
0000
,
0200
0000
0000
0000
,
0000
0000
0000
0000
0000
0000
0000
0301
,
2001
0000
0000
0000
,
0000
0000
0000
0000
0000
0000
0000
3001
,
1001
0000
0000
0000
1000
0010
0100
0010
0100
0000
0001
0000
0010
0000
0000
0000
,
0011
0001
1010
0010
,
1000
0001
1000
0000
0001
0000
0010
0000
0001
0000
1000
0000
0001
0000
1000
0000
,
0100
0010
0000
0010
0100
1000
0010
0000
,
0200
0000
0301
0100
0010
0000
0010
1000
,
0200
0000
0000
0000
0310
0100
1000
0000
0100
0000
1000
0100
1000
0001
0100
0000
,
0010
0000
0000
1000
0010
0100
0001
0000
0000
1000
0100
0010
,
0001
0000
0000
0000
0010
0000
0000
0000
0100
0000
0000
0000
0001
0000
0000
0000
0000
0000
0100
0000
0000
0010
0000
0000
0100
0000
0000
0000
0000
0000
1000
0000
0000
0000
0000
0000
0010
0000
0000
0000
0000
0000
1000
0000
0000
0000
0000
0000
,
0020
0000
0130
0010
0200
0000
0301
0000
,
0002
0000
0000
0000
1003
0001
1000
0000
0010
0000
0100
0000
0001
1000
0010
1000
,
0100
0000
1000
0000
0100
0000
0010
0000
0100
1000
0100
0000
0010
0000
0100
0000
,
0110
0000
0010
0011
0000
1001
0000
0001
,
2000
0000
3010
1000
0002
0000
0103
0000
,
0101
0000
0000
0000
0100
0001
0100
0000
0001
0000
0001
0010
0100
1000
0010
0000
,
1000
0000
0000
1000
0001
0010
0100
0000
0000
0010
0001
1000
,
0010
0000
0000
0000
0100
0000
0000
0000
1000
0000
0000
0000
0100
0000
0000
0000
0000
0000
0010
0000
0000
0100
0000
0000
0001
0000
0000
0000
0000
0000
1000
0000
0000
0000
0000
0000
1000
0000
0000
0000
0000
0000
0001
0000
0000
0000
0000
0000
,
0020
0000
0130
1000
0200
0000
1300
0000
,
1100
0000
0000
0000
1000
0100
0010
0000
0001
0000
0100
0000
0100
0001
1000
0000
,
0001
0000
0000
0000
,
1100
0000
0000
0101
0000
1000
1010
0000
,
1000
0100
0010
0100
0010
0001
1000
0010
0100
0001
0010
0100
,
0001
0100
1000
0010
0100
1000
0100
0010
1000
0001
0010
0100
,
1000
0010
1000
0100
1000
0001
0010
0001
1000
0001
0010
0100
,
0001
0100
1000
0001
0100
0010
0100
0001
0010
0100
1000
0100
,
1000
0010
0100
0010
1000
0100
0010
0100
0010
0001
1000
0001
,
0010
0100
1000
0010
0100
1000
0100
0010
1000
0100
0010
0100
,
0010
0001
1000
0001
0100
0001
0010
0001
1000
0010
0100
0010
,
0100
0000
0000
0000
0001
0010
0001
0000
1000
0000
0010
1000
0010
1000
0100
0000
,
1000
0010
1000
0010
0100
0001
1000
0100
0010
0100
1000
0010
,
0100
1000
0100
0001
1000
0001
0010
1000
0001
0100
1000
0010
,
0100
0010
1000
0010
0100
0001
0010
0100
1000
0100
1000
0010
,
1000
0010
0001
0010
1000
0001
0010
1000
0010
0001
1000
0010
,
0100
0001
1000
0001
1000
0100
1000
0010
1000
0001
1000
0100
,
0010
0100
1000
0010
0100
1000
0001
0010
1000
0100
0010
0001
,
0010
0000
0000
0000
,
1001
0000
0000
0000
,
0001
1000
0010
0000
0000
0000
0100
0000
0000
0010
1000
0000
1000
0000
0000
0100
,
0000
0000
1000
0000
0000
1000
0100
0000
0010
0000
0000
0000
0000
0000
0010
0000
,
0001
0010
1000
0001
0100
1000
0001
1000
,
0010
0000
0000
0110
0000
0101
0000
0011
,
0010
0001
0010
0000
0000
0000
0001
0000
0000
0010
0000
0000
0100
0000
0000
0010
,
0000
0000
0100
0000
0000
1000
0000
0000
0100
0000
0000
1000
0000
0000
1000
0000
,
0001
1000
0001
0100
1000
0100
0001
1000
,
0010
0000
0100
0001
0010
0000
0001
0000
0000
0000
0101
0000
0000
0000
0100
0000
,
0010
1000
0010
0000
0100
0000
0001
0000
0000
1000
0100
0000
0010
0000
0000
0010
,
0000
0000
0100
0000
0000
0100
1000
0000
0001
0000
0000
0100
0000
0000
0100
0000
,
0010
0100
0001
1000
0100
0001
0100
1000
,
0001
0000
0000
1010
0000
0110
0000
1010
,
1000
0001
1000
0000
0010
0000
0100
0001
0000
0001
0000
0000
0010
0000
0100
0010
,
0000
0000
0001
0000
0001
1000
0000
0000
1000
0000
0000
0010
0000
0000
0100
0000
,
1000
0100
0001
1000
0010
0001
1000
0100
,
0101
0000
0000
0000
0101
0000
0000
0000
0101
0000
0100
0001
0010
0000
0000
0000
,
0012
2003
3020
0230
,
1000
0000
0301
0000
0002
0000
1003
0001
,
0020
0230
2300
3002
,
0010
0000
0000
0000
0403
0000
0000
0000
0000
0000
0000
0300
1000
0000
0000
0000
,
2000
3200
0302
0023
,
0230
0000
0000
0001
0000
0000
0310
0000
0000
0100
0010
0001
,
0010
0000
0000
0001
1000
0010
1000
0000
0000
0100
0000
0000
,
1100
0000
0000
0110
0000
0010
0011
0000
,
0020
0230
2300
3020
,
0001
0000
0130
0000
0020
0000
1030
0100
,
0020
0230
1300
2000
,
0100
0000
0000
0000
3004
0000
0000
0000
0000
0000
0000
0003
0010
0000
0000
0000
,
1001
0000
0000
0000
0000
0000
0001
1000
0001
0000
0000
0100
0000
0000
0001
0000
,
0101
0000
0000
0000
0000
0000
0000
0000
0000
0000
0000
0000
0100
0000
0000
0010
0000
0000
0100
0000
0000
0000
0000
0000
0010
0000
0000
0000
0000
0000
0000
0000
0000
0000
0000
0000
1000
0000
0000
0000
0010
0000
0000
0000
0100
0000
0000
0000
,
0001
0000
0000
1000
0010
1000
0100
0000
0000
0020
0000
0000
,
0000
0000
0030
0000
,
2001
0000
0000
0000
,
0000
0000
0000
0000
0000
0000
0000
3000
,
1002
0000
0000
0000
,
0000
0000
0000
0000
0000
0000
0000
1003
,
1001
0000
0000
0000
1000
0001
1000
0001
1000
0000
0010
0000
0100
0000
0000
0000
,
0110
0100
0101
0001
,
1000
0100
1000
0000
0001
0000
0010
0000
1000
0000
0001
0000
0100
0000
1000
0000
,
0001
0000
0000
0000
0001
0000
0000
0000
0001
0000
1000
0100
0010
0000
0000
0000
;

//---------------dance-single - ----------------
#NOTES:
     dance-single:
     :
     Medium:
     9:
     0.631908,0.769330,0.236815,0.405968,0.186069,523.000000,495.000000,28.000000,48.000000,0.000000,0.000000,0.631908,0.769330,0.236815,0.405968,0.186069,523.000000,495.000000,28.000000,48.000000,0.000000,0.000000:
// measure 0
0000
0000
0000
0000
,  // measure 1
0000
0000
0000
0000
,  // measure 2
0000
0000
0000
0000
,  // measure 3
0000
0000
0000
0000
,  // measure 4
0000
0000
0000
0000
,  // measure 5
0000
0000
0000
0000
,  // measure 6
0000
0000
0000
0000
,  // measure 7
0000
0000
0000
0000
,  // measure 8
0001
0000
1000
0100
0000
0010
0000
0001
,  // measure 9
0000
0100
0000
0010
0000
0100
0010
0100
,  // measure 10
0001
0000
1000
0010
0000
0100
0010
1000
,  // measure 11
0000
0100
0000
1000
0001
1000
0001
0010
,  // measure 12
0100
1000
0100
1000
0100
1000
0100
1000
,  // measure 13
0001
0100
0001
0100
0001
0100
0010
1000
,  // measure 14
0100
0000
0010
0100
0000
1000
0000
1010
,  // measure 15
0000
0110
0000
0100
0001
0010
0100
1000
,  // measure 16
0002
0000
0000
0000
,  // measure 17
0000
0000
0000
0000
0000
0000
0000
0010
,  // measure 18
0023
0000
0000
0000
,  // measure 19
0000
0000
0000
0000
0000
0000
0000
0100
,  // measure 20
0130
0000
1000
0100
1100
1000
0001
0000
,  // measure 21
0011
0010
0110
0100
,  // measure 22
1000
0010
0100
0010
1000
0010
0100
0001
,  // measure 23
0010
0100
0000
0100
0010
0100
1000
0001
,  // measure 24
0200
0000
0310
0100
0002
0000
1003
0001
,  // measure 25
1001
0000
1000
0001
0010
0010
0100
0100
,  // measure 26
0002
0000
0000
0103
0010
0100
1000
0000
0000
0001
1000
0001
,  // measure 27
0100
0000
0010
0000
0100
0000
0001
0000
0000
0010
0000
0000
0100
0000
0000
0100
0000
0000
1000
0000
0000
1000
0000
0000
,  // measure 28
0020
0000
0130
0010
0110
0000
0100
0000
,  // measure 29
0002
0000
1003
0010
0100
0010
0010
0100
,  // measure 30
1000
0100
0100
0001
0010
0100
0100
0100
,  // measure 31
0110
0000
0000
0011
0000
1010
0000
0000
,  // measure 32
2001
0000
3001
1000
0200
0000
0310
0100
,  // measure 33
2000
0000
3010
0010
0100
0001
0001
1000
,  // measure 34
0002
0000
0000
1003
0001
1000
0200
0000
0000
1300
0010
0100
,  // measure 35
0010
0000
0100
0000
0001
0000
0010
0000
0000
0100
0000
0000
0010
0000
0000
0010
0000
0000
0001
0000
0000
0001
0000
0000
,  // measure 36
1002
0000
1003
0001
0020
0000
0031
0000
,  // measure 37
0021
0000
0031
0010
0010
0100
0100
1000
,  // measure 38
0010
0100
1000
0100
0010
0100
0001
0010
,  // measure 39
1000
0000
0010
0001
0010
0000
0001
0000
0000
0000
0010
0000
0001
0000
1000
0010
,  // measure 40
0100
0010
0100
0001
1000
0100
0010
0001
,  // measure 41
0000
1000
0010
1000
0000
0001
0010
0001
,  // measure 42
0000
1000
0100
1000
0000
1000
0100
1000
,  // measure 43
0000
0001
0100
0001
0000
0001
0100
0001
,  // measure 44
1000
0010
0100
0001
0000
1000
0010
0100
,  // measure 45
0000
0001
0010
0100
0000
0010
0100
1000
,  // measure 46
0010
0100
0010
0100
0000
0001
0100
0010
,  // measure 47
1010
0000
0000
0000
1000
0010
0100
0000
0010
0000
0100
0000
0100
0000
0001
0000
,  // measure 48
0010
0000
0010
0100
0000
0100
1000
0100
,  // measure 49
0000
1000
0001
0100
0000
0010
0100
0010
,  // measure 50
1000
0100
0010
0001
0000
0010
0001
0010
,  // measure 51
0000
0100
1000
0100
0000
1000
0100
1000
,  // measure 52
0100
0010
0100
0010
0000
0001
0100
0001
,  // measure 53
0000
0100
0001
0100
0000
0001
0010
0100
,  // measure 54
1000
0000
0000
0000
,  // measure 55
1010
0000
0000
0000
,  // measure 56
1000
0000
0010
0100
0000
0000
0010
0000
0000
0100
0001
0000
0100
0000
0000
0010
,  // measure 57
0000
0000
1000
0000
0000
0100
0000
0000
0100
0000
0000
0000
0000
0000
0010
0000
,  // measure 58
0100
1000
0001
0100
0010
0100
0001
0010
,  // measure 59
0100
0000
0000
0110
0000
0110
0000
0010
,  // measure 60
0001
0000
1000
0010
0000
0000
0010
0000
0000
0100
0000
0000
0010
0000
0000
0010
,  // measure 61
0000
0000
1000
0000
0000
0100
0000
0000
0010
0000
0000
0010
0000
0000
0010
0000
,  // measure 62
0100
1000
0001
1000
0001
0100
0010
0100
,  // measure 63
0101
0000
0000
0110
0000
1010
0000
0000
,  // measure 64
0010
0000
1000
0100
0000
0000
0010
0000
0000
0010
0100
0000
0010
0000
0000
0100
,  // measure 65
0000
0000
1000
0000
0000
1000
0010
0000
0100
0000
0000
0010
0000
0000
0010
0000
,  // measure 66
1000
0100
0010
0001
0010
0100
1000
0010
,  // measure 67
0100
0000
0000
0110
0000
0110
0000
0100
,  // measure 68
0001
0000
1000
0001
0000
0000
0001
0000
0000
0010
0000
0000
0100
0000
0000
0001
,  // measure 69
0000
0000
0100
0000
0000
1000
0000
0000
0010
0000
0000
0100
0000
0000
0100
0000
,  // measure 70
0001
0100
0001
0100
0010
1000
0010
1000
,  // measure 71
0100
0000
0000
0000
0100
0000
0000
0000
0100
0000
1000
0001
1000
0000
0000
0000
,  // measure 72
0020
0230
0302
0013
,  // measure 73
0020
0000
0230
0000
0301
0000
0010
0100
,  // measure 74
2000
3020
0230
0020
,  // measure 75
0000
0000
0300
0000
0430
0000
0000
0000
0000
0000
0000
0300
0001
0000
0000
0000
,  // measure 76
0002
0023
0230
0320
,  // measure 77
0230
0000
0000
0001
0000
0000
1300
0000
0000
0001
1000
0010
,  // measure 78
0100
0000
0000
0010
0100
0001
0010
0000
0000
0200
0000
0000
,  // measure 79
1000
0000
0000
0000
0000
0000
0010
0000
0000
0000
0010
0300
0100
0000
0000
0000
,  // measure 80
2000
3020
0230
0301
,  // measure 81
0002
0000
0023
0000
0230
0000
2300
3010
,  // measure 82
0002
0023
2030
0020
,  // measure 83
3000
0000
0000
0000
4030
0000
0000
0000
0000
0000
0000
3000
0100
0000
0000
0000
,  // measure 84
0200
2300
3020
0130
,  // measure 85
0002
0000
0000
0203
0000
0000
2300
0000
0000
3100
0001
0100
,  // measure 86
0010
0000
0000
0100
0001
0100
0001
0000
0000
2000
0000
0000
,  // measure 87
0000
0000
3000
0000
,  // measure 88
1001
0000
0001
1000
0010
0000
0000
0100
,  // measure 89
0000
0010
0000
0100
0001
0010
0001
0100
,  // measure 90
0101
0000
0001
1000
0100
0100
0000
1000
,  // measure 91
0000
0001
0000
1000
0000
1000
0100
0010
,  // measure 92
0011
0000
0010
0100
0110
0010
0001
0000
,  // measure 93
1001
1000
1010
0010
,  // measure 94
0100
0001
0100
1000
0100
0001
0100
0010
,  // measure 95
1000
0000
0000
0000
1000
0000
0000
0000
1000
0000
0100
1000
0001
0000
0000
0000
;
