#VERSION:0.83;
#TITLE:fresh!!;
#SUBTITLE:;
#ARTIST:PCM;
#TITLETRANSLIT:;
#SUBTITLETRANSLIT:;
#ARTISTTRANSLIT:;
#GENRE:NATIVE SCHOOL'S BREAKIN';
#ORIGIN:;
#CREDIT:;
#BANNER:;
#BACKGROUND:;
#PREVIEWVID:;
#JACKET:;
#CDIMAGE:;
#DISCIMAGE:;
#LYRICSPATH:;
#CDTITLE:;
#MUSIC:11.fresh!!.mp3;
#OFFSET:-0.280000;
#SAMPLESTART:20.900000;
#SAMPLELENGTH:15.000000;
#SELECTABLE:YES;
#BPMS:0.000=128.000;
#STOPS:;
#DELAYS:;
#WARPS:;
#TIMESIGNATURES:0.000=4=4;
#TICKCOUNTS:0.000=4;
#COMBOS:0.000=1;
#SPEEDS:0.000=1.000=0.000=0;
#SCROLLS:0.000=1.000;
#FAKES:;
#LABELS:0.000=Song Start;
#BGCHANGES:;
#KEYSOUNDS:;
#ATTACKS:
;

//---------------dance-single - ----------------
#NOTEDATA:;
#CHARTNAME:;
#STEPSTYPE:dance-single;
#DESCRIPTION:;
#CHARTSTYLE:;
#DIFFICULTY:Beginner;
#METER:1;
#RADARVALUES:0.180010,0.230745,0.082778,0.211545,0.000000,137.000000,128.000000,9.000000,23.000000,0.000000,0.000000,0.000000,0.000000,0.000000,0.180010,0.230745,0.082778,0.211545,0.000000,137.000000,128.000000,9.000000,23.000000,0.000000,0.000000,0.000000,0.000000,0.000000;
#CREDIT:;
#NOTES:
0000
0000
0000
0000
,
0000
0000
0000
0000
,
0000
0000
0000
0000
,
1000
0000
1000
0000
,
0001
0000
0001
0000
,
0010
0000
0010
0000
,
0100
0000
0100
0000
,
1000
0000
0100
0000
,
1000
0000
0001
0000
,
0010
0000
0001
0000
,
1000
0000
0001
0000
,
1000
0000
0001
0000
,
0100
0000
0010
0000
,
1000
0000
0100
0000
,
0010
0000
0001
0000
,
0100
0000
0010
0000
,
1000
0000
0001
0000
,
0010
0000
0001
0000
,
0100
0000
1001
0000
,
1000
1000
1000
0000
,
0001
0001
0001
0000
,
0100
0010
0100
0000
,
0010
0100
0010
0000
,
2000
0000
0000
3000
1000
0000
1000
0000
,
0002
0000
0000
0003
0001
0000
0001
0000
,
0020
0000
0000
0030
0100
0000
0010
0000
,
0220
0000
0000
0330
,
2000
0000
0000
3000
0010
0000
0100
0000
,
0002
0000
0000
0003
0100
0000
0010
0000
,
0200
0000
0000
0300
0001
0000
1000
0000
,
0020
0000
0000
0030
1000
0000
0001
0000
,
2000
0000
0000
3000
0001
0000
0010
0000
,
0200
0000
0000
0300
1000
0000
0010
0000
,
0002
0000
0000
0003
0010
0000
0100
0000
,
2002
0000
0000
0000
,
3003
0110
0000
0000
,
1000
0000
0100
0000
,
0001
0000
0010
0000
,
1000
0001
1000
0000
,
0010
0100
0010
0000
,
0100
0000
0001
0000
,
1000
0000
0010
0000
,
0001
0100
0001
0000
,
1000
0010
1000
0000
,
0100
0001
1000
0010
,
0100
0000
0001
0000
,
0010
1000
0100
0001
,
0010
0000
1000
0000
,
0001
0100
0010
0001
,
1000
0000
0001
0000
,
1000
0100
0010
0001
,
1000
0000
0001
1000
,
2002
0000
0000
3003
,
0220
0000
0000
0330
,
1002
0000
1000
0003
,
2002
3003
0220
0330
;

//---------------dance-single - ----------------
#NOTEDATA:;
#CHARTNAME:;
#STEPSTYPE:dance-single;
#DESCRIPTION:;
#CHARTSTYLE:;
#DIFFICULTY:Easy;
#METER:4;
#RADARVALUES:0.282498,0.307660,0.137964,0.331114,0.000000,215.000000,200.000000,15.000000,36.000000,0.000000,0.000000,0.000000,0.000000,0.000000,0.282498,0.307660,0.137964,0.331114,0.000000,215.000000,200.000000,15.000000,36.000000,0.000000,0.000000,0.000000,0.000000,0.000000;
#CREDIT:;
#NOTES:
0000
0000
0000
0000
,
0000
0000
0000
0000
,
0000
0000
0000
0000
,
1000
1000
1000
1000
,
0001
0001
0001
0001
,
0010
0010
0010
0010
,
0100
0100
0100
0100
,
1000
0100
1000
0100
,
0001
0010
0001
0010
,
1000
1000
0001
0001
,
1000
0000
0100
0000
0002
0000
2000
3003
,
1000
0100
1000
1000
,
0001
0100
0010
1000
,
0002
0000
0003
2000
0000
3000
0100
0000
,
0020
0030
0100
0010
,
0001
0010
0100
0100
,
1000
0010
0100
1000
,
0020
0000
0030
0200
0000
0300
0001
0000
,
2000
3000
2002
3003
,
1000
0100
1000
1000
,
0001
0100
0001
0010
,
1000
0100
0001
0010
,
0100
0001
2002
3003
,
1000
0000
0100
0000
1000
0100
1000
0000
,
0010
0000
0001
0000
0010
0001
0010
0000
,
0100
0000
0010
0000
0100
0010
0100
0000
,
2002
0000
3003
0110
,
1000
0000
0100
0000
1000
0010
1000
0000
,
0100
0000
0001
0000
0010
0100
0010
0000
,
0001
0000
1000
0000
0001
0100
0001
0000
,
0010
1000
2002
3003
,
0010
0000
0100
0000
0001
0100
0001
0000
,
1000
0000
0010
0000
1000
0010
1000
0000
,
0001
0000
1000
0000
0001
1000
0001
0000
,
2002
0000
0000
0000
,
3003
0110
0000
1001
,
1000
0100
1000
1000
,
0010
0100
0001
1000
,
0002
0000
0003
0200
0000
0300
0010
0000
,
2000
3000
0010
0100
,
0001
1000
0001
0001
,
0010
0100
1000
0010
,
0002
0000
0003
2000
0000
3000
0010
0000
,
0200
0000
0300
0000
0010
0100
0010
0000
,
0100
0000
0001
0000
1000
0001
1000
0000
,
0010
0000
0100
0000
0001
0010
0001
0000
,
1000
0000
0001
0000
1000
0100
1000
0000
,
0010
0000
0100
0000
0001
1000
0001
0000
,
0010
1000
2002
3003
,
0100
0000
0001
0000
1000
0010
1000
0000
,
0002
0000
0003
2000
0000
3000
0010
0000
,
0200
0300
0010
1001
,
2001
0000
0001
3000
,
0120
0000
0100
0030
,
2001
0010
0100
3001
,
2002
3003
0220
0330
;

//---------------dance-single - ----------------
#NOTEDATA:;
#CHARTNAME:;
#STEPSTYPE:dance-single;
#DESCRIPTION:;
#CHARTSTYLE:;
#DIFFICULTY:Medium;
#METER:6;
#RADARVALUES:0.400753,0.410213,0.082778,0.174754,0.032192,305.000000,296.000000,9.000000,19.000000,0.000000,0.000000,0.000000,0.000000,0.000000,0.400753,0.410213,0.082778,0.174754,0.032192,305.000000,296.000000,9.000000,19.000000,0.000000,0.000000,0.000000,0.000000,0.000000;
#CREDIT:;
#NOTES:
0000
0000
0000
0000
,
0000
0000
0000
0000
,
0000
0000
0000
0000
,
1000
0100
1000
0100
,
0001
0010
0001
0010
,
1000
1000
0001
0001
,
1000
0010
0100
0001
,
0100
0000
0001
0100
0000
0001
0100
0000
,
1000
0000
0001
1000
0000
0001
1000
0000
,
0010
0000
0100
0010
0100
0000
0100
0010
,
2000
3100
0002
0013
,
1000
0000
0000
1000
0000
0000
1000
0000
0100
0000
0010
0000
0100
0000
0000
0000
,
0001
0100
0001
0000
1000
0001
1000
0000
,
0010
1000
0010
0100
0001
0100
0001
0000
,
0010
0001
0010
0000
1000
0100
1000
0000
,
0001
0000
0000
0001
0000
0000
0001
0000
0010
0000
0100
0000
0010
0000
0000
0000
,
1000
0001
1000
0000
0010
0100
0010
0000
,
0001
0100
0001
0010
1000
0010
1000
0000
,
0001
1000
0001
0000
2002
0000
0000
3003
,
1000
0100
1000
0000
0001
1000
0001
1000
,
0001
0010
0001
0000
0100
0010
0100
0010
,
1000
0010
1000
0000
0001
0100
0001
0100
,
0001
1000
0001
0000
2002
0000
3003
0000
,
1000
0010
1000
0000
0100
1000
0100
0000
,
0001
0010
0001
0000
1000
0001
1000
0000
,
0010
0100
0010
0000
0100
0010
0100
0000
,
2002
0000
0003
0000
0001
3000
1001
0000
,
1000
0010
0000
0100
0000
0010
1000
0000
,
0100
0001
0000
0010
0000
0001
1000
0000
,
0100
0010
0000
1000
0000
0001
0010
0000
,
0100
0010
0000
1000
0002
0000
0013
0100
,
0001
1000
0000
0010
0000
0100
0001
0000
,
0010
0001
0000
1000
0000
0100
0010
0000
,
1000
0001
0000
0100
0000
0010
1000
0001
,
1000
0000
0001
0000
1000
0000
0001
0000
1000
0000
0001
0000
0000
0010
0000
0000
,
1000
2002
3003
0110
,
0010
0000
0000
0010
0000
0000
0010
0000
0100
0000
0010
0000
0100
0000
0000
0000
,
0001
0010
0001
0000
1000
0100
1000
0000
,
0001
0100
0001
1000
0010
1000
0001
0000
,
0100
0010
0100
0000
0010
0100
0010
0000
,
0100
0000
0000
0100
0000
0000
0100
0000
0010
0000
0100
0000
0010
0000
0000
0000
,
1000
0100
1000
0000
0001
0010
0001
0000
,
1000
0001
1000
0001
0010
0100
0010
0000
,
0100
0001
0100
0000
1000
0001
1000
0001
,
1000
0000
0000
0001
0000
0000
1000
0000
0010
0000
0100
0000
0001
0000
0000
0000
,
1000
0001
0100
0010
1000
0100
0001
0100
,
0010
1000
0010
0100
0001
0100
0010
0000
,
1000
0001
1000
0100
0001
0000
1001
0000
,
0010
0000
0000
0100
0000
0000
0010
0000
0100
0000
0001
0000
1000
0000
0000
0000
,
0001
0100
0010
0100
0010
1000
0100
0001
,
0010
0100
0010
1000
0001
1000
0001
0000
,
0100
0010
0200
0000
0300
0000
0010
0100
,
0002
0000
0013
0000
1000
0100
1000
0000
,
0020
0130
0200
0310
,
1000
0001
0100
0010
,
0220
0330
2002
3003
;

//---------------dance-single - ----------------
#NOTEDATA:;
#CHARTNAME:;
#STEPSTYPE:dance-single;
#DESCRIPTION:;
#CHARTSTYLE:;
#DIFFICULTY:Hard;
#METER:9;
#RADARVALUES:0.541345,0.538405,0.147162,0.128766,0.395497,412.000000,396.000000,16.000000,14.000000,0.000000,0.000000,0.000000,0.000000,0.000000,0.541345,0.538405,0.147162,0.128766,0.395497,412.000000,396.000000,16.000000,14.000000,0.000000,0.000000,0.000000,0.000000,0.000000;
#CREDIT:;
#NOTES:
0000
0000
0000
0000
,
0000
0000
0000
0000
,
0000
0000
0000
0000
,
1000
1100
0001
0101
,
1000
1010
0001
0011
,
1100
1000
0011
0001
,
1010
0010
0110
0100
,
1000
0000
0100
0000
1000
0000
0100
0000
0000
0000
0001
0000
0100
0001
0000
0000
,
0010
0000
1000
0000
0001
0000
1000
0001
0000
0000
0100
0000
0010
1000
0000
0000
,
0001
0000
0100
0000
0001
0000
1000
0001
0000
0000
0100
0000
0010
0000
1000
0001
,
2000
0000
0000
0000
3100
0000
0000
0000
0002
0000
0000
0000
0013
0100
0000
0000
,
1000
0000
0000
1000
0000
0000
1000
0000
1000
0001
0000
0001
1000
0000
0000
0000
,
1000
0100
0001
0010
0000
0001
0100
0010
,
1000
0100
1000
0100
0000
0000
0001
0100
0001
0100
0000
0000
0010
0000
1000
0000
,
0001
1000
0001
1000
0000
0000
0000
0000
0100
0000
0001
0000
1000
0010
0000
0010
,
0100
0000
0000
0100
0000
0000
0100
0000
0010
1000
0000
0010
1000
0000
0000
0000
,
0100
0001
1000
0010
0000
0100
0001
1000
,
0010
0100
0010
0100
0000
0000
1000
0001
1000
0001
0000
0000
0100
0000
0010
0000
,
0100
0001
0100
0001
0000
0000
0000
0000
0220
0000
0000
0000
0330
0000
0000
0000
,
1000
0000
0100
0000
1000
0100
0000
0000
1000
0000
0100
0000
0001
0000
0100
0000
,
1000
0000
0010
0000
1000
0010
0000
0000
1000
0000
0001
0000
0010
0000
0100
0000
,
0001
0000
1000
0000
0001
0010
0000
0000
0100
0000
0001
0000
1000
0000
0010
0000
,
0100
0000
0001
0000
1000
0100
0000
0000
0010
0000
0001
0000
0100
0000
1000
0000
,
0001
0000
0000
0100
0001
0000
0010
0000
0001
0000
0100
0000
0001
0000
1000
0000
,
0010
0000
0000
0100
0001
0000
1000
0000
0001
0000
1000
0000
0001
0000
1000
0000
,
0100
0000
0000
0100
0001
0000
0010
0000
0100
0000
0001
0000
1000
0000
0010
0000
,
0220
0330
1001
0110
,
1000
0100
1000
0010
1000
0001
0010
0100
,
0001
0010
0001
0100
0001
0100
0010
1000
,
0010
0100
0010
1000
0010
1000
0001
0010
,
0100
0000
1000
0000
0100
0000
0010
0000
0001
0000
1000
0001
0000
0000
0010
0000
,
0100
1000
0100
0001
0100
0010
1000
0010
,
0001
0100
0001
1000
0001
0100
0010
0100
,
1000
0001
1000
0010
1000
0010
0100
0001
,
1000
0001
1000
0001
1000
0001
1000
0001
1000
0000
0010
0000
0000
0100
0000
0000
,
0001
2002
3003
0110
,
1000
0000
0000
1000
0000
0000
1000
0000
1000
0001
0000
1000
0001
0000
0000
0000
,
0010
0100
0001
1000
0000
0010
0100
0001
,
0010
0001
0010
0001
0000
0000
1000
0100
1000
0100
0000
0000
1000
0000
0001
0000
,
0010
0100
0010
0100
0000
0000
0010
0000
0100
0000
0001
0000
0100
0000
0010
0000
,
0100
0000
0000
0100
0000
0000
0100
0000
0001
0010
0000
0001
0010
0000
0000
0000
,
1000
0100
0001
0010
0000
1000
0001
0100
,
0010
1000
0010
1000
0000
0000
0100
0001
0100
0001
0000
0000
0010
0000
0100
0000
,
0001
1000
0001
1000
0000
0000
0010
0000
0100
0000
0001
0000
1000
0000
0010
0000
,
0001
0000
0000
0100
0000
0000
0001
0000
1000
0010
0000
0010
1000
0000
0001
0000
,
0100
0000
0001
0000
0010
0000
1000
0100
0000
0000
0010
0000
0001
0000
1000
0000
,
0001
0100
0001
0100
0000
0000
1000
0010
1000
0010
0000
0000
1000
0000
0001
0000
,
0100
0010
0100
0010
0000
0000
0100
0000
0001
0000
1000
0000
0010
0100
0000
0100
,
0001
0000
0000
1000
0000
0000
0001
0000
0100
0010
0000
0010
0100
0000
0000
0000
,
0001
0000
0100
0000
0010
0000
1000
0001
0000
0000
0100
0000
0001
0000
1000
0000
,
0010
0100
0010
0100
0000
0000
0001
1000
0001
1000
0000
0000
0100
0000
0010
0000
,
0001
0010
0001
0010
0002
0000
0000
0000
0000
0000
0003
0000
1000
0001
1000
0001
,
0020
0000
0000
0000
0000
0000
0000
0000
0000
0000
0000
0000
0130
0000
0000
0000
0000
0000
0000
0000
0000
0000
0000
0000
0001
0000
0000
0000
1000
0000
0000
0000
0001
0000
0000
0000
1000
0000
0000
0000
0000
0000
0000
0000
0000
0100
0000
0000
,
0000
0001
0000
0000
1000
0000
0010
0100
0000
0000
0001
0000
0010
0000
0100
0000
,
0001
1000
0100
0001
0010
1000
0001
0100
,
0220
0330
2002
3003
;

//---------------dance-single - ----------------
#NOTEDATA:;
#CHARTNAME:;
#STEPSTYPE:dance-single;
#DESCRIPTION:;
#CHARTSTYLE:;
#DIFFICULTY:Challenge;
#METER:10;
#RADARVALUES:0.609670,0.616699,0.193150,0.183952,0.561054,464.000000,443.000000,21.000000,20.000000,0.000000,0.000000,0.000000,0.000000,0.000000,0.609670,0.616699,0.193150,0.183952,0.561054,464.000000,443.000000,21.000000,20.000000,0.000000,0.000000,0.000000,0.000000,0.000000;
#CREDIT:;
#NOTES:
// measure 0
0000
0000
0000
0000
,  // measure 1
0000
0000
0000
0000
,  // measure 2
0000
0000
0000
0000
,  // measure 3
1100
1100
0101
0101
,  // measure 4
1010
1010
0011
0011
,  // measure 5
1001
1100
1001
0101
,  // measure 6
0011
1001
1010
1001
,  // measure 7
1000
0000
0100
0000
1000
0000
0010
0000
1000
0000
0001
0000
0100
0001
0000
0000
,  // measure 8
0010
0000
0001
0000
0100
0000
0010
1000
0000
0000
1000
0000
0001
0010
0000
0000
,  // measure 9
0100
0000
0001
0000
1000
0000
0010
1000
0100
0000
0001
0000
1000
0000
0010
0001
,  // measure 10
2000
0000
0000
0000
3100
0000
0010
0000
0002
0000
0000
0000
1003
0010
0000
0000
,  // measure 11
1000
0000
0000
0100
0000
0000
1000
0000
0010
1000
0000
0001
1000
0000
0100
0000
,  // measure 12
0010
0000
0001
0000
0100
0000
0010
1000
0000
0000
0001
0000
0010
0000
0100
0000
,  // measure 13
1000
0100
1000
0100
0000
0000
0001
1000
0001
1000
0000
0000
0010
0000
0100
0000
,  // measure 14
0001
0010
0001
0010
0000
0000
0100
0000
1000
0000
0001
0000
0100
0010
0000
0010
,  // measure 15
0100
0000
0000
0001
0000
0000
0010
0000
1000
0001
0000
0001
0100
0000
0010
0000
,  // measure 16
1000
0000
0002
0000
0010
0000
0103
0010
0000
0000
0100
0000
0001
0000
1000
0000
,  // measure 17
0010
0100
0010
0100
0000
0000
0001
0010
0001
0010
0000
0000
0100
0000
0010
0000
,  // measure 18
1000
0100
0010
0001
0000
0010
0001
0010
0002
0000
0010
0000
1000
0000
0003
0000
,  // measure 19
1000
0000
0100
0000
1000
0100
0000
0000
0010
0000
0100
0001
0000
0001
1000
0000
,  // measure 20
0010
0000
0100
0000
0001
0010
0000
0000
0100
0000
0010
0000
1000
0000
0100
0000
,  // measure 21
0010
0000
0001
0000
1000
0100
0000
0000
0010
0000
0001
0100
0000
0100
0010
0000
,  // measure 22
1000
0000
0001
0000
0100
0000
0010
1000
0010
0000
0100
0001
0000
0000
0010
0000
,  // measure 23
0100
0000
0000
0001
0100
0000
0010
0000
0100
0000
0001
0000
0100
0000
0010
0000
,  // measure 24
1000
0000
0000
0100
1000
0000
0001
1000
0001
1000
0001
1000
0001
0000
0010
0000
,  // measure 25
0001
0000
0000
0001
1000
0000
0010
0000
0100
0000
0001
0000
0010
0000
1000
0000
,  // measure 26
2002
0000
0000
0000
3003
0000
0010
0100
0020
0000
0030
0000
0220
0000
0330
0000
,  // measure 27
1000
0010
0001
0010
1000
0020
0100
1030
,  // measure 28
0001
0100
0010
0100
0001
0200
0010
0301
,  // measure 29
0010
1000
0100
1000
0001
2000
0010
3100
,  // measure 30
1000
0000
0001
0000
0010
0000
0001
0000
0100
0000
0001
1000
0000
0001
0100
0001
,  // measure 31
0100
0010
0001
0010
0100
0020
1000
0130
,  // measure 32
0100
0001
0010
0001
1000
0002
0100
0013
,  // measure 33
0010
1000
0100
1000
0010
1000
0001
1000
,  // measure 34
0001
1000
0001
1000
0001
1000
0001
1000
0001
0000
0010
0000
0000
0100
0000
0000
,  // measure 35
1000
0000
2002
0000
0000
3003
0110
0000
,  // measure 36
0100
0000
0000
0001
0000
0000
1000
0000
0010
0100
0000
0100
0001
0000
0010
0000
,  // measure 37
1000
0100
1000
0000
0010
0000
1000
0001
0000
0000
0010
0000
0100
0000
0001
0000
,  // measure 38
0010
0001
0010
0001
0000
0000
1000
0100
1000
0100
0000
0000
0010
0000
0100
0000
,  // measure 39
0001
1000
0001
1000
0000
0000
0010
0000
0100
0000
0001
0000
1000
0010
0000
0010
,  // measure 40
1000
0000
0000
0100
0000
0000
0001
0000
0001
1000
0000
1000
0100
0000
0010
0000
,  // measure 41
0001
0100
0002
0000
1000
0000
0013
0001
0000
0000
0010
0000
0100
0000
1000
0000
,  // measure 42
0010
0100
0010
0100
0000
0000
0001
1000
0001
1000
0000
0000
0100
0000
0010
0000
,  // measure 43
0001
0010
0100
1000
0000
0000
0100
0000
0010
0000
0100
0010
0100
0010
0100
0010
,  // measure 44
0100
0000
0000
0001
0000
0000
0010
0000
1000
0100
0000
0100
0001
0100
0000
0000
,  // measure 45
0100
0001
0010
0000
0100
0000
0001
1000
0000
0000
0100
0000
0010
0000
0001
0000
,  // measure 46
1000
0100
1000
0010
0000
0000
0001
0100
0001
0010
0000
0000
1000
0000
0001
1000
,  // measure 47
0001
0010
0100
1000
0000
0000
0100
0000
0001
0000
1000
0000
0010
0100
0010
0100
,  // measure 48
0010
0000
0000
0000
0000
0000
0000
0000
0000
1000
0000
0000
0000
0000
0000
0000
0000
0000
0100
0000
0000
0000
0000
0000
0001
0000
0000
0000
0001
0000
0000
0000
0001
0000
0000
0000
0100
0000
0000
0000
0000
0000
0000
0000
0000
0000
0000
0000
,  // measure 49
1000
0100
1000
0000
0010
0000
0100
0001
0000
0000
1000
0000
0001
0000
0100
0000
,  // measure 50
0010
1000
0100
0010
0000
0000
0001
0100
0010
1000
0000
0000
0001
0000
0100
0000
,  // measure 51
1000
0100
0010
0001
1000
0000
1000
0001
0000
1000
0000
0001
0100
0010
0100
0010
,  // measure 52
0200
0000
0000
0000
0000
0000
0000
0000
0000
0000
0000
0000
0310
0000
0000
0000
0000
0000
0010
0000
0000
0000
0000
0000
1000
0000
0000
0000
1000
0000
0000
0000
1000
0000
0000
0000
0100
0000
0000
0000
0000
0000
0000
0000
0000
0001
0000
0000
,  // measure 53
0000
0100
0000
0000
0010
0000
0100
0010
0000
0100
0000
0010
0100
0010
0000
0000
,  // measure 54
0100
0010
1000
0100
0001
0010
1000
0001
,  // measure 55
2001
0000
0000
0001
3000
0001
0000
0000
0200
0000
0000
0000
0301
0000
0010
0000
;
