#VERSION:0.83;
#TITLE:europa -THE ASCENSION-;
#SUBTITLE:;
#ARTIST:DJ Vortivask;
#TITLETRANSLIT:;
#SUBTITLETRANSLIT:;
#ARTISTTRANSLIT:;
#GENRE:Electro;
#ORIGIN:;
#CREDIT:;
#BANNER:;
#BACKGROUND:;
#PREVIEWVID:;
#JACKET:;
#CDIMAGE:;
#DISCIMAGE:;
#LYRICSPATH:;
#CDTITLE:;
#MUSIC:Europa.ogg;
#OFFSET:0.000000;
#SAMPLESTART:37.700001;
#SAMPLELENGTH:15.000000;
#SELECTABLE:YES;
#BPMS:0.000=140.000;
#STOPS:184.000=0.929;
#DELAYS:;
#WARPS:;
#TIMESIGNATURES:0.000=4=4;
#TICKCOUNTS:0.000=4;
#COMBOS:0.000=1;
#SPEEDS:0.000=1.000=0.000=0;
#SCROLLS:0.000=1.000;
#FAKES:;
#LABELS:0.000=Song Start;
#BGCHANGES:;
#KEYSOUNDS:;
#ATTACKS:
;

//---------------dance-single - ----------------
#NOTEDATA:;
#CHARTNAME:;
#STEPSTYPE:dance-single;
#DESCRIPTION:;
#CHARTSTYLE:;
#DIFFICULTY:Beginner;
#METER:1;
#RADARVALUES:0.072527,0.084149,0.000000,0.111691,0.000000,50.000000,50.000000,0.000000,11.000000,0.000000,0.000000,0.000000,0.000000,0.000000,0.072527,0.084149,0.000000,0.111691,0.000000,50.000000,50.000000,0.000000,11.000000,0.000000,0.000000,0.000000,0.000000,0.000000;
#CREDIT:RIME;
#NOTES:
0000
0000
0000
0000
,
0000
0000
0000
0000
,
0000
0000
0000
0000
,
0000
0000
0000
0000
,
1000
0000
0000
0000
,
0001
0000
0000
0000
,
1000
0000
0000
0000
,
0001
0000
0000
0000
,
0100
0000
0000
0000
,
0010
0000
0000
0000
,
0100
0000
0000
0000
,
0010
0000
0000
0000
,
1000
0000
0000
0000
,
0010
0000
0000
0000
,
1000
0000
0000
0000
,
0010
0000
0000
0000
,
0100
0000
0000
0000
,
0001
0000
0000
0000
,
0100
0000
0000
0000
,
0001
0000
0000
0000
,
2000
0000
0000
0000
,
3000
0000
0000
0000
,
0001
0000
0000
0000
,
0010
0000
0000
0000
,
0001
0000
0000
0000
,
0010
0000
0000
0000
,
0100
0000
0000
0000
,
1000
0000
0000
0000
,
0100
0000
0000
0000
,
1000
0000
0000
0000
,
0010
0000
0000
0000
,
0100
0000
0000
0000
,
0010
0000
0000
0000
,
0100
0000
0000
0000
,
0001
0000
0000
0000
,
1000
0000
0000
0000
,
0001
0000
0000
0000
,
1000
0000
0000
0000
,
0100
0000
0000
0000
,
0100
0000
0000
0000
,
1000
0000
0000
0000
,
1000
0000
0000
0000
,
0001
0000
0000
0000
,
0001
0000
0000
0000
,
0010
0000
0000
0000
,
0020
0000
0000
0000
,
0030
0002
0000
0000
,
0000
0023
0000
0000
,
0000
0230
0000
0000
,
0000
2300
0000
0000
,
0000
3002
0000
0000
,
0000
0023
0000
0000
,
0000
0230
0000
0000
,
0000
2300
0000
0000
,
0000
3002
0000
0000
,
0000
0003
0000
0000
;

//---------------dance-single - ----------------
#NOTEDATA:;
#CHARTNAME:;
#STEPSTYPE:dance-single;
#DESCRIPTION:;
#CHARTSTYLE:;
#DIFFICULTY:Easy;
#METER:2;
#RADARVALUES:0.207426,0.280497,0.192921,0.182767,0.040615,143.000000,124.000000,19.000000,18.000000,0.000000,0.000000,0.000000,0.000000,0.000000,0.207426,0.280497,0.192921,0.182767,0.040615,143.000000,124.000000,19.000000,18.000000,0.000000,0.000000,0.000000,0.000000,0.000000;
#CREDIT:;
#NOTES:
0000
0000
0000
0000
,
0000
0000
0000
0000
,
0000
0000
0000
0000
,
0000
0000
0000
0000
,
0000
0000
0001
0000
0000
0001
0000
0000
,
0000
0000
0001
0000
0000
0001
0000
0000
,
0000
0000
1000
0000
0000
1000
0000
0000
,
0000
0000
1000
0000
0000
1000
0000
0000
,
0000
0000
0010
0000
0000
0010
0000
0000
,
0000
0000
0010
0000
0000
0010
0000
0000
,
0000
0000
0100
0000
0000
0100
0000
0000
,
0000
0000
0100
0000
0000
0100
0000
0000
,
0101
0000
0000
0000
0101
0000
0000
0000
0000
0000
0000
0000
,
0001
1000
0100
0000
,
1100
0000
0000
0000
1100
0000
0000
0000
0000
0000
0000
0000
,
0100
0010
0001
0000
,
0011
0000
0000
0000
0011
0000
0000
0000
0000
0000
0000
0000
,
0001
1000
0010
0000
,
1010
0000
0000
0000
1010
0000
0000
0000
0000
0000
0000
0000
,
0010
0100
0010
0100
,
0002
0000
0000
0000
,
2003
0000
0000
0000
,
3100
1000
0010
0000
,
1000
0010
0100
0000
,
0001
0100
0010
0000
,
0100
0001
0010
0000
,
0001
0010
0100
0000
,
0010
0100
1000
0000
,
1000
0010
0001
0000
,
0001
0100
1000
0000
,
1001
1000
0010
0000
,
0100
0010
1000
0000
,
0001
1000
0100
0000
,
0010
0100
1000
0000
,
0100
0001
0100
0000
,
0010
0100
0010
0000
,
0001
0010
0001
0000
,
1000
0001
1000
0000
,
1010
0000
0000
0000
1010
0000
0000
0000
0000
0000
0000
0000
,
0010
0100
0001
1000
,
1001
0000
0000
0000
1001
0000
0000
0000
0000
0000
0000
0000
,
1000
0100
0010
0001
,
0011
0000
0000
0000
0011
0000
0000
0000
0000
0000
0000
0000
,
0001
0100
0010
1000
,
1100
0000
0000
0000
1100
0000
0000
0000
0000
0000
0000
0000
,
1000
0100
0010
0002
,
0003
2002
0000
0000
,
0003
0020
0030
0200
,
3000
0020
0000
0000
,
0300
2000
3000
0002
,
0030
2000
0000
0000
,
0003
0020
0030
0200
,
3000
0020
0000
0000
,
0300
2000
3000
0002
,
0033
0022
0000
0000
,
0000
0033
0000
0000
;

//---------------dance-single - ----------------
#NOTEDATA:;
#CHARTNAME:;
#STEPSTYPE:dance-single;
#DESCRIPTION:;
#CHARTSTYLE:;
#DIFFICULTY:Medium;
#METER:7;
#RADARVALUES:0.416303,0.448795,0.284304,0.172613,0.081230,287.000000,259.000000,28.000000,17.000000,0.000000,0.000000,0.000000,0.000000,0.000000,0.416303,0.448795,0.284304,0.172613,0.081230,287.000000,259.000000,28.000000,17.000000,0.000000,0.000000,0.000000,0.000000,0.000000;
#CREDIT:RIME;
#NOTES:
0000
0000
0000
0000
,
0000
0000
0000
0000
,
0000
0000
0000
0000
,
0000
0000
0000
0000
,
1000
0100
1000
0100
0010
0000
0010
0000
,
0001
0010
0001
0010
0001
0000
0001
0000
,
1000
0010
1000
0010
0100
0000
0100
0000
,
0001
0100
0001
0100
0001
0000
0001
0000
,
1000
0010
0001
0010
1000
0000
0001
0000
,
1000
0100
0001
0100
1000
0000
0001
0000
,
1000
0010
0100
0001
1000
0000
1000
0000
,
0001
0010
0100
1000
0001
0000
0001
0000
,
0101
0000
0101
0000
0101
0000
0100
0000
0000
0010
0000
0000
,
1000
0010
0100
0000
0010
0100
0001
0000
,
0011
0000
0011
0000
0011
0000
0010
0000
0000
0100
0000
0000
,
1000
0001
0100
0000
0001
1000
0010
0000
,
1010
0000
1010
0000
1010
0000
0010
0000
0000
0100
0000
0000
,
0001
0010
0100
0000
0010
0100
1000
0000
,
1100
0000
1100
0000
1100
0000
1000
0000
0000
0010
0000
0000
,
0100
0010
1000
0000
0001
0010
0100
0000
,
2000
0100
0001
3100
,
0002
0000
0100
1003
,
0001
0010
0100
0010
0001
0000
0001
0000
,
1000
0010
0100
0010
1000
0000
1000
0000
,
0100
0010
0001
1000
0010
0000
0010
0000
,
0100
0001
1000
0010
0100
0000
0100
0000
,
0001
0010
0100
0001
0100
0000
0100
0000
,
1000
0010
0100
1000
0100
0000
0100
0000
,
0010
1000
0001
0010
0100
0000
0100
0000
,
0010
0100
1000
0010
0100
0000
0100
0000
,
0101
0001
1000
0001
1000
0000
0100
0000
,
0010
0100
0010
0100
1000
0000
0010
0000
,
0100
0010
0100
0001
0010
0000
0010
0000
,
0100
0010
0100
1000
0010
0000
0010
0000
,
0100
0001
1000
0100
0001
0000
0100
0000
,
1000
0010
0001
0010
0100
0000
0001
0000
,
0010
0100
1000
0010
0001
0000
0010
0000
,
0100
0001
0010
1000
0010
0000
0100
0000
,
1100
0000
1001
0000
0101
0000
0000
0000
0000
0000
0000
0000
,
0001
0100
0010
1000
0010
0100
0001
0000
,
0011
0000
1001
0000
1010
0000
0000
0000
0000
0000
0000
0000
,
1000
0010
0100
0001
0100
0010
1000
0000
,
1010
0000
1001
0000
0011
0000
0000
0000
0000
0000
0000
0000
,
0001
0010
0100
1000
0100
0010
0001
0000
,
0101
0000
1001
0000
1100
0000
0000
0000
0000
0000
0000
0000
,
1000
0001
1000
0001
1000
0001
1000
0001
,
0000
0000
2001
0000
0000
0000
0000
3010
,
0000
1002
0000
0203
,
0000
0320
0000
1000
,
1030
0010
0200
0000
0000
0000
0302
0000
,
0000
0000
2003
0000
0000
0000
0000
0100
,
0000
0000
3002
0000
0000
0000
0203
0001
,
0000
0301
0200
0000
0000
0000
0320
0000
,
1030
0010
2000
0000
0000
0000
3002
0000
,
0003
2002
0000
0000
,
0000
3003
0000
0000
;

//---------------dance-single - ----------------
#NOTEDATA:;
#CHARTNAME:;
#STEPSTYPE:dance-single;
#DESCRIPTION:;
#CHARTSTYLE:;
#DIFFICULTY:Hard;
#METER:10;
#RADARVALUES:0.816650,0.925639,0.456918,0.274151,0.954450,563.000000,518.000000,45.000000,27.000000,0.000000,0.000000,0.000000,0.000000,0.000000,0.816650,0.925639,0.456918,0.274151,0.954450,563.000000,518.000000,45.000000,27.000000,0.000000,0.000000,0.000000,0.000000,0.000000;
#CREDIT:;
#NOTES:
// measure 0
0000
0000
0000
0000
,  // measure 1
0000
0000
0000
0000
,  // measure 2
0000
0000
0000
0000
,  // measure 3
1100
0000
0110
0000
0010
0010
0002
0000
,  // measure 4
1003
0000
0001
0000
0100
0000
0001
0000
1000
0100
1000
0010
0100
0000
0000
0001
,  // measure 5
0100
0000
0010
0000
1000
0000
0001
0000
0010
0100
0000
0000
1000
0000
0000
0000
,  // measure 6
0001
0000
1000
0000
0100
0000
1000
0000
0001
0100
0010
0000
0100
0010
1000
0000
,  // measure 7
0100
0000
0000
0000
0110
0000
0000
0010
0001
0000
1000
0010
0100
0001
1000
0000
,  // measure 8
0100
0000
0010
0000
0001
0000
0010
0000
0100
1000
0010
1000
0001
0000
0000
0100
,  // measure 9
0001
0000
1000
0000
0010
0000
1000
0000
0001
0010
0000
0000
0110
0000
0000
0000
,  // measure 10
0100
0000
1000
0000
0001
0000
1000
0000
0010
0100
0010
0000
0100
0001
0100
0000
,  // measure 11
0001
0000
0000
1000
0000
0000
0100
0000
1000
0000
0100
0000
1000
0000
0000
1000
0000
0000
0001
0000
0000
0100
0000
0000
0010
0000
0000
0000
1000
0000
0000
0000
0001
0000
0000
0000
0010
0000
0000
0000
0000
0000
0100
0000
0000
0000
0000
0000
,  // measure 12
1100
0000
0000
0000
0000
0000
0000
0000
0011
0000
0000
0000
0000
0000
0000
0000
1001
0000
0000
0000
0000
0000
0000
0000
1000
0000
0000
0000
0000
0000
0100
0000
0000
0001
0000
0000
0100
0000
0000
0000
0000
0000
0010
0000
0000
0000
0000
0000
,  // measure 13
0001
0000
0001
0000
1001
0000
1000
0010
0100
0001
1000
0100
0010
0000
0001
0000
,  // measure 14
0101
0000
0000
0000
0000
0000
0000
0000
1010
0000
0000
0000
0000
0000
0000
0000
1001
0000
0000
0000
0000
0000
0000
0000
0001
0000
0000
0000
0000
0000
0100
0000
0000
1000
0000
0000
0100
0000
0000
0000
0000
0000
0010
0000
0000
0000
0000
0000
,  // measure 15
1000
0000
1000
0000
1001
0000
0001
0010
0100
1000
0001
0100
0010
0000
1000
0000
,  // measure 16
1010
0000
0000
0000
0000
0000
0000
0000
0101
0000
0000
0000
0000
0000
0000
0000
1001
0000
0000
0000
0000
0000
0000
0000
1000
0000
0000
0000
0000
0000
0010
0000
0000
0001
0000
0000
0010
0000
0000
0000
0000
0000
1000
0000
0000
0000
0000
0000
,  // measure 17
0001
0000
0001
0000
1001
0000
1000
0100
0010
0001
1000
0010
0100
0000
0001
0000
,  // measure 18
0011
0000
0000
0000
0000
0000
0000
0000
1100
0000
0000
0000
0000
0000
0000
0000
1001
0000
0000
0000
0000
0000
0000
0000
0001
0000
0000
0000
0000
0000
0010
0000
0000
1000
0000
0000
0020
0000
0000
0000
0000
0000
0032
0000
0000
0000
0000
0000
,  // measure 19
1003
0000
0000
0001
0000
0000
0100
0000
0001
0000
0100
0000
0001
0000
0000
0010
0000
0000
0100
0000
0000
1000
0000
0000
0010
0000
0100
0000
0010
0000
0100
0000
0010
0000
0100
0000
0010
0000
0100
0000
0010
0000
0100
0000
0010
0000
0100
0000
,  // measure 20
0002
1003
0002
1003
0002
0103
0002
0103
,  // measure 21
0200
0000
0310
0000
0200
0000
0310
0000
0100
0001
0000
1000
0000
0000
0100
0000
,  // measure 22
0110
0000
0100
0000
1000
0000
0010
0100
0001
0010
0100
0010
0001
0000
0100
0001
,  // measure 23
1000
0000
0100
0010
0100
0000
0100
1000
0001
0100
1000
0100
0001
0000
1000
0010
,  // measure 24
0100
0001
0100
0001
1000
0000
0100
0010
0001
0100
0010
1000
0001
0010
0100
1000
,  // measure 25
0001
0000
0100
0000
0001
0000
0100
0000
0010
0000
0000
0000
1000
0000
1000
0000
0010
0000
1000
0000
0100
0000
1000
0000
0001
0000
0000
0000
0100
0000
0010
0100
,  // measure 26
0010
0000
1000
0010
1000
0000
0001
0010
0100
0010
0001
0100
1000
0000
0100
0010
,  // measure 27
1000
0000
0001
0010
0100
0010
0001
1000
0010
0001
0010
1000
0100
0010
0100
0010
,  // measure 28
0001
0000
1000
0010
1000
0000
0010
0100
0001
1000
0100
0001
0100
0010
0001
1000
,  // measure 29
0010
0100
0010
1000
0010
0100
0010
0001
0010
0100
0010
0100
0001
0000
0000
0000
,  // measure 30
1001
0000
1000
0000
0100
0000
1000
0100
1000
0010
0001
0010
0100
0001
1000
0100
,  // measure 31
0010
0000
0100
0000
1000
0000
0010
0010
1000
0010
0100
0001
1000
0001
1000
0001
,  // measure 32
0010
0100
0010
0100
1000
0000
0010
0100
0001
1000
0100
1000
0001
0100
0010
1000
,  // measure 33
0001
0000
0010
0000
0001
0000
0010
0000
0100
0000
1000
0000
0100
0000
1000
0000
0001
0000
0100
0000
0001
0000
0100
0000
0010
0000
1000
0000
0010
0000
1000
0001
,  // measure 34
1000
0000
0100
0000
0010
0000
0100
1000
0001
0100
0010
0000
1000
0010
0100
0001
,  // measure 35
1000
0000
0100
0000
0010
0000
0100
1000
0001
0100
0001
0100
0001
0010
0100
0010
,  // measure 36
0001
0000
1000
0010
1000
0010
0100
0000
0001
1000
0100
1000
0001
0100
1000
0100
,  // measure 37
0001
1000
0001
1000
0100
0010
0100
0010
0001
0010
0001
0010
0100
1000
0100
1000
,  // measure 38
1100
0000
0101
0000
1100
0000
2000
0000
0000
0000
0000
0000
,  // measure 39
0001
0000
0001
0000
0100
0000
0001
0100
0001
0100
0001
0100
3001
0000
1000
0000
,  // measure 40
1010
0000
0011
0000
1010
0000
0020
0000
0000
0000
0000
0000
,  // measure 41
0001
0000
0001
0000
1000
0000
0001
1000
0001
1000
0001
1000
0031
0000
0010
0000
,  // measure 42
1010
0000
0101
0000
1001
0000
0002
0000
0000
0000
0000
0000
,  // measure 43
1000
0000
1000
0000
0100
0000
1000
0100
1000
0100
1000
0100
1003
0000
0001
0000
,  // measure 44
0011
0000
1100
0000
1001
0000
0002
0000
0000
0000
0000
0000
,  // measure 45
1003
0000
0000
0001
0000
0000
1000
0000
0000
0001
0000
0000
1000
0000
0000
0001
0000
0000
1000
0000
0000
0001
0000
0000
0010
0000
0100
0000
0010
0000
0100
0000
0010
0000
0100
0000
0010
0000
0100
0000
0010
0000
0100
0000
0010
0000
0200
0000
,  // measure 46
0300
0000
0000
0000
2100
0000
0000
0000
0000
0000
0000
0000
0000
0000
3100
1000
,  // measure 47
0000
0000
0001
0000
0201
0000
0000
0000
0310
0000
0100
0000
0020
0000
1030
0010
,  // measure 48
0000
1000
1002
0000
0013
0001
0011
0000
,  // measure 49
0110
0100
2100
0000
3001
1000
1020
0000
,  // measure 50
0130
0000
0000
0000
0210
0000
0000
0000
0000
0000
0000
0000
0000
0000
0301
0100
,  // measure 51
0000
0000
0010
1000
0002
0000
0000
0000
0000
0000
0000
0000
0023
0000
0100
0000
,  // measure 52
0000
0000
0031
0010
0200
0000
0000
0000
0300
0000
0000
0000
1100
0000
0000
0000
,  // measure 53
1000
0001
0201
0000
0310
0100
0110
0000
,  // measure 54
0010
2002
0000
0000
,  // measure 55
0000
3003
0000
0000
;
