#TITLE:Yu No Mikku Ni Ocha Shite;
#SUBTITLE:;
#ARTIST:Yunomi feat.nicamoq;
#TITLETRANSLIT:;
#SUBTITLETRANSLIT:;
#ARTISTTRANSLIT:;
#GENRE:;
#CREDIT:;
#BANNER:[Round 1] - Yu No Mikku Ni Ocha Shite.png;
#BACKGROUND:[Round 1] - Yu No Mikku Ni Ocha Shite-bg.png;
#LYRICSPATH:;
#CDTITLE:;
#MUSIC:[Round 1] - Yu No Mikku Ni Ocha Shite.ogg;
#OFFSET:-0.780000;
#SAMPLESTART:54.780018;
#SAMPLELENGTH:12.000000;
#SELECTABLE:YES;
#BPMS:0.000000=160.000000
;
#STOPS:
;
#BGCHANGES:;
#KEYSOUNDS:;
#ATTACKS:;

//---------------dance-single - ----------------
#NOTES:
     dance-single:
     :
     Hard:
     9:
     0.617274,0.880761,0.320860,0.399293,0.249558,606.000000,561.000000,45.000000,56.000000,0.000000,0.000000,0.617274,0.880761,0.320860,0.399293,0.249558,606.000000,561.000000,45.000000,56.000000,0.000000,0.000000:
0000
0000
0000
0000
,
0000
0000
0000
0000
,
0000
0000
0000
0000
,
0000
0000
0000
0000
0000
1000
0100
0010
,
0200
0000
0310
0100
1000
0010
0100
0002
,
0000
0000
0103
0000
0010
0000
0100
0000
0001
0000
0000
1000
0100
0000
0010
0000
,
0002
0000
1003
0001
0100
0001
0010
2000
,
0000
3010
0001
0010
0100
1000
0001
0100
,
0020
0000
1030
0100
1000
0001
0010
0200
,
0000
0000
0310
0000
0100
0000
1000
0000
0010
0000
0000
0100
0001
0000
0010
0000
,
0002
0000
1003
0010
0100
0001
0100
2000
,
0000
3100
0010
0100
0001
0000
1001
0000
,
1000
0000
0000
0001
0100
0000
0100
0020
,
0000
0130
0001
1000
0100
0000
1100
0000
,
1000
0000
0000
1000
0020
0000
0130
0100
,
0001
0000
0100
0000
0001
0000
1000
0000
0200
0000
0000
1300
0010
0000
1000
0100
,
0010
0000
0000
0001
1000
0000
1000
0020
,
0000
0130
0001
0010
0001
0000
0011
0001
,
0100
0000
0001
0010
0100
0000
0100
2000
,
0000
0000
3010
0000
0100
0000
0000
0000
0010
0000
0100
0001
1000
0000
0010
0000
,
1000
0010
0100
0010
1000
0001
0010
1000
,
0000
1000
0010
0001
1000
0100
1100
0000
,
0100
1000
0001
0100
0010
1000
0100
0001
,
0000
0001
0100
1000
0020
0000
0031
0000
,
0110
0000
0000
0010
1000
0000
1000
0100
,
0000
0100
0010
0001
1000
0000
1000
0001
,
0100
0010
1000
0100
0010
1000
0010
0100
,
0000
0100
1000
0010
0100
0000
0000
0000
,
0100
0100
0001
1000
,
0100
0010
0001
0000
,
0100
0100
1000
0100
,
0001
0000
0000
1000
0010
0100
0001
0000
0000
0000
0000
0000
,
0010
0001
1000
0010
0100
0001
0010
0010
,
0100
0000
1000
0000
0010
0000
0100
0000
0001
0000
0000
0001
0010
0000
0100
0000
,
1000
1000
0010
0010
0100
0100
0001
0001
,
0010
0001
0100
0010
1000
0000
0001
0000
0011
0000
0000
0000
0000
0000
0000
0000
,
1100
0101
1100
0101
,
0100
0000
0000
0001
0010
0000
0001
0000
1000
0000
0010
0000
0100
0000
0001
0000
,
0011
1100
0011
1100
,
1000
0000
0000
0100
0010
0000
0010
0000
0001
0000
0010
0000
0100
0000
1000
0000
,
1001
0110
1001
1010
,
0010
0000
0000
1000
0100
0000
0010
0000
0100
0000
1000
0000
0001
0000
0100
0000
,
0020
0000
0000
0130
0010
0000
0100
0000
0002
0000
0000
1003
0001
0000
0010
0000
,
0200
2300
3020
0230
,
0310
0110
0101
0110
,
0100
0000
0000
0001
1000
0000
0100
0000
1000
0000
0001
0000
0010
0000
0100
0000
,
0110
1100
0101
1010
,
1000
0000
0000
0010
1000
0000
1000
0000
0001
0000
0010
0000
0100
0000
0010
0000
,
0002
0000
0000
0103
0001
0000
0100
0000
0020
0000
0000
0000
0130
0000
0000
0000
,
0001
0000
0000
0010
0000
0000
0100
0000
2000
0000
0000
0000
3010
0000
0000
0000
,
1000
0000
0000
0100
0000
0000
1000
0000
1000
0000
0000
0000
0001
0000
0000
0000
,
0100
0000
0001
0100
0001
0000
0010
0000
0001
0000
0000
0000
0000
0000
0000
0000
,
0010
0000
0100
0000
1000
0000
1000
0100
0001
0000
0000
0001
0000
0000
0100
0000
,
1000
0000
0001
0100
0010
0100
0001
1000
0020
0000
0000
0130
0000
0010
1000
0000
,
0001
0000
1000
0000
0010
0000
0001
0000
0010
0000
1000
0010
0000
1000
0100
0000
,
0020
0000
0000
0000
0030
0000
0000
0020
0000
0000
0000
0030
0000
0000
0020
0000
0000
0000
0030
0000
0000
0200
0000
0000
0000
0300
1000
0000
0010
0000
0000
0000
,
0100
0000
0000
0000
0000
0000
0001
0000
0000
1000
0000
0000
0001
0000
0000
0000
0000
0000
0010
0000
0000
0000
0000
0000
0100
0000
0000
0000
1000
0000
0000
0000
0100
0000
0000
0000
0010
0000
0000
0000
0001
0000
0000
0000
1000
0000
0000
0000
,
0002
0000
0103
0000
2000
0000
3100
0000
0001
0000
1000
0010
1000
0000
0100
0000
,
1000
0001
0000
0010
0001
0000
0010
0000
0100
0000
0100
0000
1000
0000
1000
0000
,
0100
0000
0001
0000
1000
0000
0010
0000
0001
0000
1000
0010
0200
0000
0300
0000
,
0001
0001
0010
0100
,
0002
0103
1000
0000
,
0010
0010
0100
0001
,
0010
0010
0010
0000
,
0100
1000
0010
0100
0001
0010
0100
0100
,
0010
0000
0001
0000
1000
0000
0001
0000
0010
0000
0000
0100
1000
0000
0100
0000
,
1000
0000
1000
0000
0100
0000
0010
0000
0001
0100
0001
0100
0001
0100
0001
0100
,
0010
1000
0010
0100
0001
1000
0010
1000
0001
1000
0100
0010
0001
0000
0000
0000
,
1010
0011
1010
0011
,
0001
0000
0000
0100
0001
0000
1000
0000
0010
0000
0001
0000
0010
0000
1000
0000
,
1010
0101
1010
0101
,
0100
0000
0000
0001
0100
0000
0001
0000
1000
0000
0100
0000
0010
0000
0001
0000
,
0011
1001
0011
1001
,
0001
0000
0000
1000
0010
0000
1000
0000
0001
0000
0010
0000
0100
0000
1000
0000
,
0020
0000
0000
0130
1000
0000
0100
0000
0002
0000
0000
0013
0001
0000
0010
0000
,
0200
0302
0203
2300
,
3100
1001
0110
1001
,
0001
0000
0000
0010
0001
0000
0010
0000
1000
0000
0010
0000
0100
0000
1000
0000
,
1100
1010
0110
0101
,
0100
0000
0000
0100
0001
0000
1000
0000
0001
0000
0001
0000
0010
0000
0000
0000
,
0020
0000
0130
1000
0020
0000
0130
0000
,
0010
0000
0000
1000
0000
0000
0001
0000
0020
0000
0000
0000
0130
0000
0000
0000
,
0100
0000
0000
0100
0000
0000
1000
0000
0001
0000
0000
0000
0100
0000
0001
0000
,
0100
0000
0010
1000
0010
0000
0100
0000
0001
0000
0000
0000
0000
0000
0000
0000
,
2000
0000
0000
3000
0002
0000
0103
0000
,
0200
0000
0000
0320
0000
0000
0130
0000
0002
0000
1003
0001
1000
0000
0100
0000
,
0020
0000
0000
0030
2000
0000
3020
0000
,
0031
0000
1000
0100
1000
0000
0001
0000
0100
0000
0010
1000
0001
0000
0010
0000
,
0002
0013
0002
2003
,
3020
0000
0000
1030
0010
0000
0100
0000
0002
0000
0013
0001
0010
0000
0100
0000
,
0020
0000
0031
0000
2000
0000
3010
1000
,
0000
1000
0010
0100
0101
0000
0000
0000
;

//---------------dance-single - ----------------
#NOTES:
     dance-single:
     :
     Medium:
     7:
     0.462446,0.521933,0.071302,0.385032,0.096258,454.000000,444.000000,10.000000,54.000000,0.000000,0.000000,0.462446,0.521933,0.071302,0.385032,0.096258,454.000000,444.000000,10.000000,54.000000,0.000000,0.000000:
// measure 0
0000
0000
0000
0000
,  // measure 1
0000
0000
0000
0000
,  // measure 2
0000
0000
0000
0000
,  // measure 3
0000
0000
0000
0000
0000
0001
1000
0001
,  // measure 4
0020
0000
0130
0010
0001
1000
0010
0200
,  // measure 5
0000
0310
0100
0010
1000
0000
0000
1000
,  // measure 6
0002
0000
1003
0100
0010
0100
1000
0020
,  // measure 7
0000
0130
0010
0100
0001
1000
0010
0100
,  // measure 8
0002
0000
0103
0001
0100
0010
0100
0002
,  // measure 9
0000
0013
0001
0010
0001
0000
0000
0001
,  // measure 10
2000
0000
3010
1000
0001
1000
0100
0020
,  // measure 11
0000
0130
1000
0100
1000
0000
0000
0000
,  // measure 12
0010
0000
0000
0010
0100
0000
0100
0002
,  // measure 13
0000
1003
0001
1000
0001
0000
0000
0000
,  // measure 14
1001
0000
0000
0001
1000
0000
0010
1000
,  // measure 15
0100
0001
0100
1000
0010
0000
0100
0000
,  // measure 16
0101
0000
0000
0001
0010
0000
0010
0200
,  // measure 17
0000
1300
0100
1000
0010
0000
0100
0001
,  // measure 18
0100
0000
0001
0100
1000
0000
1000
0200
,  // measure 19
0000
0310
0100
0000
0001
0000
0000
0000
,  // measure 20
0101
0000
0000
0001
1000
0000
1000
0200
,  // measure 21
0000
0310
0100
0010
0001
0000
0011
0000
,  // measure 22
0010
0000
0000
0100
2000
0000
3010
0200
,  // measure 23
0000
0310
0100
0001
2000
0000
3001
0000
,  // measure 24
1001
0000
0000
0001
0020
0000
0130
0020
,  // measure 25
0000
0031
0010
0100
1000
0000
1000
0010
,  // measure 26
0200
0000
0310
0100
0002
0000
0013
0020
,  // measure 27
0000
0130
0010
0100
0010
0000
0000
0000
,  // measure 28
0001
0001
1000
1000
,  // measure 29
0010
0100
0001
0000
,  // measure 30
1000
1000
0001
0001
,  // measure 31
1000
0100
0010
0000
,  // measure 32
0100
0000
0100
0000
1000
0000
1000
0001
,  // measure 33
0100
0000
0000
0000
0100
0000
0000
0000
0010
0000
0000
0100
0010
0000
0100
0000
,  // measure 34
0001
0010
0001
0010
0100
0010
0100
0010
,  // measure 35
0200
0301
1100
0000
,  // measure 36
1000
1000
1000
1000
,  // measure 37
0001
0000
0000
0010
0100
0000
0010
0000
0002
0000
0000
0000
0013
0000
0100
0000
,  // measure 38
1000
0100
0001
0100
,  // measure 39
1000
0000
0000
1000
0010
0000
0010
0000
1000
0000
0010
0000
0100
0000
0000
0000
,  // measure 40
0001
0001
0001
0001
,  // measure 41
1000
0000
0000
0100
1000
0000
0010
0000
2000
0000
0000
0000
3001
0000
0100
0000
,  // measure 42
0002
0000
0013
0100
2000
0000
3000
0010
,  // measure 43
0100
1000
0100
0000
,  // measure 44
0010
0100
0100
0100
,  // measure 45
0010
0000
0000
0010
0100
0000
0001
0000
0200
0000
0000
0000
0310
0000
0100
0000
,  // measure 46
0001
0010
1000
0010
,  // measure 47
0001
0000
0000
0001
0010
0000
0100
0000
1000
0000
0010
0000
0100
0000
0000
0000
,  // measure 48
0010
0000
0000
0100
0000
0000
0001
0000
0200
0000
0000
0000
1300
0000
0000
0000
,  // measure 49
0100
0000
0000
0010
0000
0000
1000
0000
0002
0000
0000
0000
0013
0000
0000
0000
,  // measure 50
0001
0000
0000
0010
0000
0000
0100
0000
1000
0000
0000
0000
0002
0000
0000
0000
,  // measure 51
2000
0000
3003
0000
,  // measure 52
1020
0000
0230
0010
,  // measure 53
0301
0000
0000
0100
0000
0000
0010
0000
2000
0000
0000
0000
3001
0000
0000
0000
,  // measure 54
0001
0010
0100
0001
0200
0000
0310
0000
,  // measure 55
0100
0000
0000
1000
0000
0000
0100
0000
2000
0000
0000
0000
3010
0000
0000
0000
,  // measure 56
0020
0130
0200
0301
,  // measure 57
0100
0000
0000
0001
0000
0000
0010
0000
0200
0000
0000
0000
1300
0000
0000
0000
,  // measure 58
2000
0000
3001
0100
0020
0000
0130
0000
,  // measure 59
0100
0000
0001
0000
0010
0000
0100
0000
1000
0000
0001
1000
0001
0000
0000
0000
,  // measure 60
0100
0100
0010
0100
,  // measure 61
2000
3100
0010
0000
,  // measure 62
0100
0100
0001
0010
,  // measure 63
0100
0100
0100
0000
,  // measure 64
1000
0000
0000
0000
1000
0000
0000
0000
0001
0000
0000
1000
0001
0000
0010
0000
,  // measure 65
0100
0000
0000
0000
1000
0000
0000
0000
0001
0000
0000
0100
0001
0000
0100
0000
,  // measure 66
0001
1000
0100
0010
0100
0010
0001
0010
,  // measure 67
0001
0100
0010
0110
,  // measure 68
0100
0100
0100
0100
,  // measure 69
0010
0000
0000
1000
0001
0000
1000
0000
0200
0000
0000
0000
0310
0000
0100
0000
,  // measure 70
1000
0010
0001
0010
,  // measure 71
0100
0000
0000
0100
0001
0000
1000
0000
0100
0000
0000
0000
0100
0000
0000
0000
,  // measure 72
0010
0010
0010
0010
,  // measure 73
0001
0000
0000
0010
0100
0000
0010
0000
0002
0000
0000
0000
0013
0000
0100
0000
,  // measure 74
0010
0000
0010
0100
2000
0000
3000
0100
,  // measure 75
0010
0001
0200
0000
0310
0000
0000
0000
,  // measure 76
0010
1000
1000
1000
,  // measure 77
0010
0000
0000
1000
0001
0000
1000
0000
0001
0000
0010
0000
0001
0000
0010
0000
,  // measure 78
0100
0001
0100
1000
,  // measure 79
0100
0000
0000
0010
0100
0000
0010
0000
0001
0000
1000
0000
0010
0000
0000
0000
,  // measure 80
0010
0000
0000
1000
0000
0000
0010
0000
0200
0000
0000
0000
0301
0000
0000
0000
,  // measure 81
0001
0000
0000
0010
0000
0000
0100
0000
2000
0000
0000
0000
3001
0000
0000
0000
,  // measure 82
1000
0000
0000
0010
0000
0000
1000
0000
0001
0000
0000
0000
2000
0000
0000
0000
,  // measure 83
0200
0000
3300
0000
,  // measure 84
1002
0000
0103
0001
,  // measure 85
0020
0000
0000
0130
0000
0000
0010
0000
0001
0000
0000
0001
1000
0000
0010
0000
,  // measure 86
2000
0000
3010
0100
,  // measure 87
0001
0010
1000
0010
,  // measure 88
0021
0031
0010
0100
,  // measure 89
1000
0000
0000
0010
0000
0000
0100
0000
0001
0000
0000
0001
0100
0000
0010
0000
,  // measure 90
2000
0000
3001
0000
1000
0000
0100
0010
,  // measure 91
0000
0010
0100
0100
1000
0000
0000
0000
;
