#VERSION:0.83;
#TITLE:Won't Look Back;
#SUBTITLE:;
#ARTIST:Duke Dumont;
#TITLETRANSLIT:;
#SUBTITLETRANSLIT:;
#ARTISTTRANSLIT:;
#GENRE:;
#ORIGIN:;
#CREDIT:;
#BANNER:banner.png;
#BACKGROUND:Won't Look Back-bg.png;
#PREVIEWVID:;
#JACKET:jacket.png;
#CDIMAGE:;
#DISCIMAGE:;
#LYRICSPATH:;
#CDTITLE:;
#MUSIC:Won't Look Back.ogg;
#OFFSET:-2.099005;
#SAMPLESTART:93.080040;
#SAMPLELENGTH:12.000000;
#SELECTABLE:YES;
#BPMS:0.000=124.000;
#STOPS:;
#DELAYS:;
#WARPS:;
#TIMESIGNATURES:0.000=4=4;
#TICKCOUNTS:0.000=4;
#COMBOS:0.000=1;
#SPEEDS:0.000=1.000=0.000=0;
#SCROLLS:0.000=1.000;
#FAKES:;
#LABELS:0.000=Song Start;
#BGCHANGES:;
#KEYSOUNDS:;
#ATTACKS:
;

//---------------dance-single - ----------------
#NOTEDATA:;
#CHARTNAME:;
#STEPSTYPE:dance-single;
#DESCRIPTION:;
#CHARTSTYLE:;
#DIFFICULTY:Beginner;
#METER:1;
#RADARVALUES:0.092347,0.121206,0.000000,0.000000,0.000000,84.000000,84.000000,0.000000,0.000000,0.000000,0.000000,0.000000,0.000000,0.000000,0.092347,0.121206,0.000000,0.000000,0.000000,84.000000,84.000000,0.000000,0.000000,0.000000,0.000000,0.000000,0.000000,0.000000;
#CREDIT:;
#NOTES:
0000
0000
0000
0000
,
0000
0000
0000
0000
,
0000
0000
0000
0000
,
0000
0000
0000
0000
,
1000
0000
0000
0000
,
0001
0000
0000
0000
,
0100
0000
0000
0000
,
0010
0000
0000
0000
,
1000
0000
0000
0000
,
0100
0000
0000
0000
,
0010
0000
0010
0000
,
0010
0000
0000
0000
,
0010
0000
0010
0000
,
0010
0000
0000
0000
,
0001
0000
0000
0000
,
0100
0000
0000
0000
,
0010
0000
0000
0000
,
1000
0000
0000
0000
,
0100
0000
0000
0000
,
0010
0000
0000
0000
,
0001
0000
0000
0000
,
1000
0000
0000
0000
,
0010
0000
0010
0000
,
1000
0000
1000
0000
,
0001
0000
0001
0000
,
0100
0000
0100
0000
,
0001
0000
0001
0000
,
0010
0000
0010
0000
,
0100
0000
0100
0000
,
1000
0000
1000
0000
,
0001
0000
0001
0000
,
0001
0000
0000
0000
,
0100
0000
0100
0000
,
0100
0000
0000
0000
,
0010
0000
0010
0000
,
0010
0000
0000
0000
,
1000
0000
1000
0000
,
1000
0000
0000
0000
,
0100
0000
0000
0000
,
0010
0000
0000
0000
,
0001
0000
0000
0000
,
1000
0000
0000
0000
,
0010
0000
0000
0000
,
0100
0000
0000
0000
,
0001
0000
0001
0000
,
0001
0000
0000
0000
,
0001
0000
0001
0000
,
0001
0000
0000
0000
,
1000
0000
0100
0000
,
0100
0000
0000
0000
,
0010
0000
0001
0000
,
0001
0000
0000
0000
,
0100
0000
0010
0000
,
0010
0000
0000
0000
,
1000
0000
0001
0000
,
0001
0000
0000
0000
,
0010
0000
0100
0000
,
0010
0000
0000
0000
,
0001
0000
1000
0000
,
0001
0000
0000
0000
,
1000
0000
0010
0000
,
1000
0000
0000
0000
,
0001
0000
0100
0000
,
0001
0000
0000
0000
;

//---------------dance-single - ----------------
#NOTEDATA:;
#CHARTNAME:;
#STEPSTYPE:dance-single;
#DESCRIPTION:;
#CHARTSTYLE:;
#DIFFICULTY:Easy;
#METER:3;
#RADARVALUES:0.152813,0.223365,0.030782,0.007696,0.000000,139.000000,135.000000,4.000000,1.000000,0.000000,0.000000,0.000000,0.000000,0.000000,0.152813,0.223365,0.030782,0.007696,0.000000,139.000000,135.000000,4.000000,1.000000,0.000000,0.000000,0.000000,0.000000,0.000000;
#CREDIT:;
#NOTES:
0000
0000
0000
0000
,
0000
0000
0000
0000
,
0000
0000
0000
0000
,
0000
0000
0000
0000
,
1000
0000
0001
0000
,
0100
0000
0000
0000
,
0001
0000
1000
0000
,
0100
0000
0000
0000
,
1000
0000
0001
0000
,
0010
0000
0000
0000
,
0001
0000
0001
0000
,
1000
0000
0000
0000
,
1000
0000
1000
0000
,
0001
0000
0000
0000
,
0100
0000
0100
0000
,
0010
0000
0010
0000
,
1000
0000
1000
0000
,
0001
0000
0001
0000
,
0010
0010
0100
0000
,
0010
0010
0100
0000
,
1000
1000
0001
0000
,
1000
1000
0000
0000
,
1000
1000
0010
0010
,
0100
0100
0001
0000
,
0001
0001
0010
0010
,
0100
0100
1000
0000
,
0001
0001
1000
1000
,
0001
0001
1000
0000
,
0010
0000
0010
0000
,
0010
0000
0000
0000
,
1000
0000
1000
0000
,
0001
0001
0001
0000
,
0010
0000
0100
0000
,
1000
0000
0000
0000
,
0001
0000
0001
0000
,
1000
1000
1000
0000
,
0010
0000
0100
0000
,
0001
0000
0000
0000
,
1000
0000
0001
0000
,
0010
0000
0000
0000
,
0001
0000
1000
0000
,
0010
0000
0000
0000
,
1000
0000
0001
0000
,
0100
0000
0000
0000
,
0001
0000
0001
0000
,
1000
0000
0000
0000
,
1000
0000
1000
0000
,
0001
0000
0000
0000
,
1001
0000
1000
0100
,
0010
0000
0001
1000
,
0001
0000
0001
0100
,
0010
0000
0010
0100
,
0001
0000
0001
0010
,
0100
0000
0100
1000
,
0010
0000
0010
1000
,
0001
0000
0000
0000
,
1000
0000
0001
1000
,
1001
0000
1000
0001
,
1000
0000
0001
1000
,
1001
0000
1000
0001
,
1000
0000
0010
1000
,
1010
0000
1000
0010
,
0100
0000
0100
0001
,
0001
0000
0100
0200
,
0000
0000
0300
0000
;

//---------------dance-single - ----------------
#NOTEDATA:;
#CHARTNAME:;
#STEPSTYPE:dance-single;
#DESCRIPTION:;
#CHARTSTYLE:;
#DIFFICULTY:Medium;
#METER:5;
#RADARVALUES:0.261651,0.347457,0.130826,0.023087,0.000000,238.000000,221.000000,17.000000,3.000000,0.000000,0.000000,0.000000,0.000000,0.000000,0.261651,0.347457,0.130826,0.023087,0.000000,238.000000,221.000000,17.000000,3.000000,0.000000,0.000000,0.000000,0.000000,0.000000;
#CREDIT:;
#NOTES:
0000
0000
0000
0000
,
0000
0000
0000
0000
,
0000
0000
0000
0000
,
0000
0000
0000
0000
,
1000
0000
0000
0000
0001
0000
0000
0010
,
0000
0000
0000
0000
0000
0001
0000
0000
,
0100
0000
0000
0000
0010
0000
0000
1000
,
0000
0000
0000
0000
0000
0001
0000
0000
,
0100
0000
0000
0000
0001
0000
0000
0010
,
0000
0000
0000
0000
0000
0100
0000
0000
,
1000
0000
0000
0000
0010
0000
0000
0100
,
0000
0000
0000
0000
0000
0001
0000
0000
,
0010
0000
0000
0000
0100
0000
0000
1000
,
0001
1000
0001
0000
,
1000
0010
0100
0001
,
0010
0000
0100
0000
0010
0001
0010
0000
,
0001
0100
0010
1000
,
0100
0000
0010
0000
0100
1000
0100
0000
,
1000
1010
0001
0011
,
1000
0000
1100
0000
0001
0100
0010
0000
,
0100
0101
0001
0011
,
0010
0110
0000
1100
,
0001
0000
1000
0000
0010
0100
0010
0100
,
0001
0000
0001
0000
0010
0100
0010
0100
,
1000
0000
1000
0000
0001
1000
0001
1000
,
0010
0010
1000
1000
,
0001
0000
0001
0000
1000
0001
1000
0001
,
0100
0000
0100
0000
0001
1000
0001
1000
,
0100
0100
1000
0010
,
0100
0100
0100
0000
,
0001
0000
1000
0000
0001
0000
0010
0001
,
0000
0001
0100
0000
0010
0000
1000
0000
,
0100
1000
0010
0000
0100
0000
0100
0000
,
0001
0000
0001
0000
,
1000
0000
0001
0000
1000
0000
0010
0100
,
0000
0100
0001
0000
0010
0000
0001
0000
,
1000
0100
0100
0000
1000
0000
0010
0000
,
0200
0000
0000
0300
,
0101
0000
0000
0000
1100
0000
0000
0001
,
0000
0000
0000
0000
0000
1000
0000
0000
,
1010
0000
0000
0000
0011
0000
0000
0001
,
0000
0000
0000
0000
0000
1000
0000
0000
,
1100
0000
0000
0000
1010
0000
0000
0001
,
0000
0000
0000
0000
0000
0100
0000
0000
,
0011
0000
0000
0000
0101
0000
0000
1000
,
0000
0000
0000
0000
0000
0010
0000
0000
,
1010
0000
0000
0000
0011
0000
0000
0100
,
0001
0001
0001
0000
,
1000
0000
0100
0000
0010
0000
0001
0010
,
0001
0010
0100
1000
,
0001
0000
0100
0000
0010
0000
1000
0010
,
1000
0010
0100
0001
,
1000
0000
0100
0000
0010
0000
0001
0100
,
0010
0100
0001
1000
,
0100
0000
0010
0000
0100
0000
1000
0001
,
1000
0010
0100
0000
,
0001
0000
1000
0100
0010
0000
0100
0000
,
1000
0000
0001
0100
0010
0000
0100
0000
,
0001
0000
1000
0010
0100
0000
0010
0000
,
1000
0000
0001
0010
0100
0000
0010
0000
,
0001
0000
1000
0100
0001
0000
0100
0000
,
1000
0000
0001
0100
1000
0000
0100
0000
,
0001
0000
0000
0000
1000
0000
0000
0001
,
0100
0000
0020
0200
,
0000
0000
0330
0000
;

//---------------dance-single - ----------------
#NOTEDATA:;
#CHARTNAME:;
#STEPSTYPE:dance-single;
#DESCRIPTION:;
#CHARTSTYLE:;
#DIFFICULTY:Hard;
#METER:8;
#RADARVALUES:0.424359,0.471549,0.215477,0.092347,0.196238,386.000000,358.000000,28.000000,12.000000,0.000000,0.000000,0.000000,0.000000,0.000000,0.424359,0.471549,0.215477,0.092347,0.196238,386.000000,358.000000,28.000000,12.000000,0.000000,0.000000,0.000000,0.000000,0.000000;
#CREDIT:;
#NOTES:
// measure 0
0000
0000
0000
0000
,  // measure 1
0000
0000
0000
0000
,  // measure 2
0000
0000
0000
0000
,  // measure 3
0000
0000
0000
1001
,  // measure 4
1100
0000
0000
0000
0101
0000
0000
1100
,  // measure 5
0000
0000
0000
0000
0000
0000
0000
0000
0000
0000
0001
0000
0000
0001
0000
0000
,  // measure 6
0101
0000
0000
0000
1100
0000
0000
0101
,  // measure 7
0000
0000
0000
0000
0000
0000
0000
0000
0000
0000
1000
0000
0000
1000
0000
0000
,  // measure 8
1010
0000
0000
0000
0011
0000
0000
1010
,  // measure 9
0000
0000
0000
0000
0000
0000
0000
0000
0000
0000
0001
0000
0000
0001
0000
0000
,  // measure 10
0100
0000
0000
0100
0000
0000
0100
0000
0000
0000
0010
0000
0000
0010
0000
0000
,  // measure 11
0010
0000
0000
0010
0000
0000
0010
0000
0000
0000
1000
0000
0000
0001
0000
0000
,  // measure 12
0010
0000
0000
0010
0000
0000
0010
0000
0000
0000
0100
0000
0000
0100
0000
0000
,  // measure 13
0200
0001
0010
1300
,  // measure 14
1000
0000
0000
0010
0000
0000
0100
0000
0001
0000
0000
0010
0000
0000
0100
0000
,  // measure 15
0000
0010
0000
0000
0001
0000
0000
1000
0000
0000
0010
0000
0100
0001
0100
0000
,  // measure 16
0001
0000
0000
0010
0000
0000
0100
0000
1000
0000
0000
0001
0000
0000
0100
0000
,  // measure 17
0000
0010
0000
0000
1000
0000
0000
0010
0000
0000
0100
0000
0000
0001
0000
0000
,  // measure 18
0010
0000
0000
0100
1000
0000
0010
0000
0100
0000
0000
0001
1000
0000
0100
0000
,  // measure 19
0010
0100
0000
0000
1000
0000
0000
1000
0010
0000
0100
0000
0001
0100
0001
0000
,  // measure 20
1000
0000
0000
0100
0000
0100
1000
0000
0001
0000
0000
0001
1000
0000
0010
0000
,  // measure 21
0100
0001
0000
0000
1000
0000
0000
0001
0000
0000
0100
0000
1001
0000
0000
0000
,  // measure 22
1010
0010
1000
0100
0010
0001
0100
0010
,  // measure 23
0100
0001
0010
0100
1000
0001
1000
0000
,  // measure 24
0001
0100
0010
0100
1000
0100
0010
0100
,  // measure 25
0001
0010
0100
0010
0001
1000
0001
0000
,  // measure 26
1000
0010
0100
0001
0100
0010
1000
0100
,  // measure 27
0010
0001
0010
0100
1000
0001
0100
0010
,  // measure 28
0100
0001
0010
0100
1000
0100
0010
0001
,  // measure 29
1000
0001
1000
1001
,  // measure 30
0002
0100
0103
0010
2000
0100
3100
0020
,  // measure 31
0001
0000
0031
0000
0100
0000
0010
0000
0100
0000
0101
0000
0000
0011
0000
0000
,  // measure 32
1001
1000
0100
0010
0100
1000
0001
0100
,  // measure 33
0010
0000
0000
0000
0100
0000
0000
0000
0100
0000
0001
0000
0000
0001
0000
0000
,  // measure 34
2000
0100
3100
0010
0002
0100
0103
0020
,  // measure 35
1000
0000
1030
0000
0010
0000
0100
0000
0001
0000
1010
0000
0000
0011
0000
0000
,  // measure 36
1001
0001
0100
0010
0100
0001
0010
0100
,  // measure 37
2000
0010
0100
3001
,  // measure 38
1100
0000
0000
0000
1010
0000
0000
1100
,  // measure 39
0000
0000
0000
0000
0000
0000
0000
0000
0000
0000
0001
0000
0000
0001
0000
0000
,  // measure 40
0101
0000
0000
0000
0011
0000
0000
1001
,  // measure 41
0000
0000
0000
0000
0000
0000
0000
0000
0000
0000
0010
0000
0000
0010
0000
0000
,  // measure 42
1010
0000
0000
0000
0101
0000
0000
1001
,  // measure 43
0000
0000
0000
0000
0000
0000
0000
0000
0000
0000
1000
0000
0000
1000
0000
0000
,  // measure 44
0010
0000
0000
0010
0000
0000
0010
0000
0000
0000
0100
0000
0000
0100
0000
0000
,  // measure 45
0100
0000
0000
0100
0000
0000
0100
0000
0000
0000
0001
0000
0000
0001
0000
0000
,  // measure 46
0001
0000
0000
0001
0000
0000
0001
0000
0000
0000
0010
0000
0000
0100
0000
0000
,  // measure 47
2000
0010
0100
3001
,  // measure 48
0001
0100
0010
0100
1000
0100
0010
0100
,  // measure 49
0001
0000
0010
0000
0100
0000
0010
0000
1000
0000
0010
0000
0100
0010
0000
0000
,  // measure 50
0001
0100
0001
1000
0001
0010
0001
1000
,  // measure 51
0001
0000
0100
0000
0001
0000
1000
0000
0100
0000
1000
0000
0010
1000
0000
1000
,  // measure 52
0100
0010
0100
0001
0100
0010
0100
1000
,  // measure 53
0001
0000
0100
0000
0010
0000
0100
0000
0001
0000
1000
0000
0001
1000
0000
0000
,  // measure 54
0010
0100
0001
0010
0100
0010
0001
0100
,  // measure 55
0010
1000
0100
0010
0200
0000
0300
0000
,  // measure 56
1000
0010
0100
0001
0010
0100
1000
0010
,  // measure 57
0100
0000
0001
0000
0100
0000
0010
0000
1000
0000
0001
0000
1000
0001
0000
0001
,  // measure 58
1000
0010
0100
0001
0010
0100
1000
0100
,  // measure 59
0010
0000
0001
0000
0100
0000
0010
0000
0100
0000
0001
0000
0010
0100
0000
1000
,  // measure 60
0001
0100
0010
1000
0010
0100
0001
0010
,  // measure 61
0100
0000
1000
0000
0010
0000
0100
0000
0010
0000
1000
0000
0001
1000
0000
1000
,  // measure 62
0001
0000
0000
1000
0010
0000
0100
0000
,  // measure 63
0001
0000
0000
0001
2000
0000
0002
0000
,  // measure 64
0000
0000
3003
0000
;
