#TITLE:Streamers;
#SUBTITLE:;
#ARTIST:Wave Racer;
#TITLETRANSLIT:;
#SUBTITLETRANSLIT:;
#ARTISTTRANSLIT:;
#GENRE:Trap;
#CREDIT:CuzcoBlocko;
#BANNER:[Round 1] - Streamers.png;
#BACKGROUND:[Round 1] - Streamers-bg.png;
#LYRICSPATH:;
#CDTITLE:cdtitle.png;
#MUSIC:[Round 1] - Streamers.ogg;
#OFFSET:0.000000;
#SAMPLESTART:36.000000;
#SAMPLELENGTH:12.000000;
#SELECTABLE:YES;
#DISPLAYBPM:70.000000:140.000000;
#BPMS:0.000000=140.000000
,4.000000=70.000000
,12.000000=140.000000
,42.000000=70.000000
,43.000000=140.000000
,105.000000=280.000000
,105.500000=140.000000
,105.750000=70.000000
,106.000000=140.000000
,134.000000=105.000000
,137.000000=70.000000
,153.000000=140.000000
,183.000000=46.667000
,183.500000=140.000000
,214.000000=70.000000
,215.000000=140.000000
,245.000000=280.000000
,245.500000=140.000000
,245.750000=70.000000
,246.000000=140.000000
,274.000000=70.000000
,275.000000=35.000000
;
#STOPS:105.000000=0.428000,
245.000000=0.428000
;
#BGCHANGES:12.000=[Round 1] - Streamers.avi=1.000=0=0=1=StretchNormal==CrossFade_Faster==,
276.000=[Round 1] - Streamers-bg.png=1.000=0=0=1=StretchNormal====,
99999=-nosongbg-=1.000=0=0=0 // don't automatically add -songbackground-
;
#KEYSOUNDS:;
#ATTACKS:;

//---------------dance-single - Wow, do things start taking off once Tunnel5 shows up.----------------
#NOTES:
     dance-single:
     C 9 X 14:
     Challenge:
     9:
     0.584372,0.818120,0.519677,0.809212,0.497405,551.000000,481.000000,70.000000,109.000000,118.000000,0.000000,0.584372,0.818120,0.519677,0.809212,0.497405,551.000000,481.000000,70.000000,109.000000,118.000000,0.000000:
// measure 0
0000
0000
0000
0000
,  // measure 1
M000
0M00
0000
0000
0000
0000
0000
0000
0000
0000
0000
0000
0M00
M000
0M00
00M0
,  // measure 2
0000
0000
0000
0000
,  // measure 3
M100
000M
1001
0000
0000
0001
0010
0000
,  // measure 4
0100
0000
0011
0002
0203
0320
0230
2300
,  // measure 5
3100
0000
0101
0000
0000
0001
0020
0032
,  // measure 6
1000
0003
2001
3020
0000
0130
2000
3200
,  // measure 7
031M
0M00
0101
0000
0000
0001
1001
0000
,  // measure 8
1000
0000
0000
0000
1100
0000
0000
0000
0200
0000
0320
0030
0210
0000
0302
0000
,  // measure 9
0103
0000
1100
0000
0000
0001
1001
0000
,  // measure 10
0100
0000
0000
0000
0000
0000
0000
0000
0110
0000
0000
0000
0000
0000
0000
0000
1001
0000
0M00
00M0
MMMM
0000
00M0
M000
0101
0000
0000
0000
0000
0000
0000
0000
,  // measure 11
0001
1000
0001
0000
0010
0100
0100
0000
,  // measure 12
0010
0001
0201
0320
0230
2300
3100
0000
,  // measure 13
0010
0000
1000
0001
0100
0000
0000
0000
0010
0000
1000
0001
1000
0000
0000
0100
,  // measure 14
0010
0000
0000
0000
0110
0000
0000
0100
0001
0000
0100
0000
0100
0000
0000
0000
,  // measure 15
0010
0000
0001
0000
1000
0000
0000
0000
0010
0100
0001
0000
0001
0000
0000
0000
,  // measure 16
1000
0000
0000
1000
0200
0000
0320
0000
0230
0000
0302
0000
0103
0000
0000
0010
,  // measure 17
0001
0000
1000
0000
0001
0000
0000
0000
0010
0000
0000
0001
1000
0000
0000
1000
,  // measure 18
0010
0000
0000
0000
0110
0000
0000
0100
100M
0000
00M0
M000
0201
0000
0000
0000
,  // measure 19
0301
0100
1M1M
0000
0010
0000
0200
0000
,  // measure 20
0301
0000
0000
0001
0020
0000
0230
0000
0320
0000
2030
0000
3020
0000
0000
0000
,  // measure 21
0031
0000
0100
0000
0010
0000
0000
0000
1000
0000
0001
1000
0200
0000
0000
0310
,  // measure 22
0001
0000
0000
0000
11MM
0000
0000
0100
0001
0000
0100
0000
0200
0000
0000
0000
,  // measure 23
0310
0100
1000
0000
MM11
0000
0000
0000
0010
0000
0001
0000
0002
0000
0000
1003
,  // measure 24
0010
0000
0100
0000
0020
0032
0000
2003
0000
3200
0000
0300
0201
0000
0000
0000
,  // measure 25
0301
0000
1000
0000
0100
0000
0000
0010
0001
0000
1000
0000
1001
0000
1000
0001
,  // measure 26
1000
0010
0000
0000
M1M1
MMMM
0000
0000
1004
0000
0000
0000
0003
1000
0010
0000
,  // measure 27
1010
0000
M000
2000
3400
0000
0300
0000
,  // measure 28
1100
0000
0M00
0002
4003
0000
3000
0010
,  // measure 29
0101
0000
0000
2000
0000
0000
3200
0000
0304
0000
0000
0000
00M3
0000
0000
0000
,  // measure 30
0140
0000
0000
0032
0000
0000
2003
3100
4000
0000
0000
0000
3000
0000
0001
0000
,  // measure 31
0101
0000
0000
0000
0M00
0000
0200
0320
0430
0000
0000
0000
0300
0001
1000
0000
,  // measure 32
1100
0000
0000
0001
M000
0001
2000
0000
3004
0000
0000
0000
0003
0000
0010
0000
,  // measure 33
0011
0000
0000
0002
00M0
0000
2003
3000
1040
0000
0000
0030
0000
0000
1MM1
0000
,  // measure 34
0000
0000
0000
0000
M021
0M00
0100
0000
0000
0000
1000
0000
0000
0000
0100
0000
,  // measure 35
0000
0000
0031
0000
02M0
M000
0001
0000
0000
0000
0010
0000
0000
0000
1000
0000
,  // measure 36
0000
0000
0000
0000
0310
0000
0000
0000
200M
0000
0M00
0000
3010
0000
0010
0000
1000
0000
0000
0001
0000
0001
1000
0000
0100
0000
0010
0000
0010
0000
0004
0000
,  // measure 37
1003
0000
0000
0010
0000
0010
0100
0000
0001
0000
1000
0100
0010
0000
1000
0000
0010
0000
0000
0100
0000
0100
1000
0000
0010
0000
0100
0000
1000
0000
0100
0000
,  // measure 38
0101
0000
M000
00M0
MMMM
0000
M000
0M00
10M1
0000
0000
0000
0M01
0000
0000
0000
0001
0000
0000
0000
1000
0000
0100
0000
0010
0000
0000
0000
0000
0000
0011
0000
,  // measure 39
0000
0010
0100
0000
1000
0000
1000
0000
1000
0000
0001
0000
0201
0000
0320
0000
,  // measure 40
0230
0310
0002
0000
0013
0000
0010
0000
0010
0000
0100
0000
0001
0000
0000
0101
,  // measure 41
0000
0000
0001
1000
0100
0000
0020
0000
2030
0000
3002
0000
0103
0000
0020
0000
,  // measure 42
0230
0000
0310
0000
1100
0000
1000
0000
1000
0000
0001
0000
0100
0000
0000
1010
,  // measure 43
0000
0010
1000
0000
0001
0000
0001
0000
0001
0000
1000
0000
0100
0000
0000
0011
,  // measure 44
0000
0000
0001
0000
1000
0000
1000
0000
1000
0000
0001
0000
0100
0000
M010
000M
,  // measure 45
1MM1
0000
0000
0000
0000
0000
1000
0000
0000
0001
0000
0000
0010
0000
0000
0000
0000
0000
0100
0000
0000
0000
0000
0000
0100
0000
0000
0000
0000
0000
0010
0000
0000
0000
0000
0000
0011
0000
M000
0000
0M00
0000
00MM
0000
0000
0000
0000
0000
,  // measure 46
102M
0000
1M00
0000
1030
0000
0001
0000
0011
0000
0010
0100
0000
0000
1000
0001
,  // measure 47
2000
0000
0010
0000
3010
0000
0200
0300
0120
0000
0130
0000
2000
3100
0020
0000
,  // measure 48
0230
0000
0001
0000
0301
1000
0001
0000
0011
0000
0000
0001
0020
0000
0032
1003
,  // measure 49
0MM2
0000
1000
0000
2003
0000
3200
0300
M12M
0000
0000
0130
2000
0000
3002
0103
,  // measure 50
M020
0000
1M00
0000
1030
0000
0001
0000
0101
0000
0001
1000
0000
0000
0010
0000
,  // measure 51
2000
0000
3001
1000
0001
1000
0100
0000
0020
2030
0000
3002
0000
0203
0000
0000
,  // measure 52
2300
0000
0001
0000
3001
0000
0100
0000
1M1M
0000
1000
0010
0000
0000
0100
0000
,  // measure 53
0201
0000
0000
0000
0001
0000
0000
0000
0301
0000
0000
0000
1000
0000
0100
0000
M01M
0000
000M
M000
MMMM
0000
000M
0M00
M021
0000
0000
0000
0M01
0000
0000
0000
,  // measure 54
0031
0000
1000
0000
1M1M
0000
1000
0001
0000
0001
0100
0000
0002
0000
1000
0000
,  // measure 55
1003
0000
0001
0010
0002
0000
0023
0000
0230
0000
0302
0000
0203
0000
0010
0000
,  // measure 56
0310
0000
0100
0000
1000
0001
0000
0001
0100
0000
0010
1000
0020
0000
1030
0001
,  // measure 57
0010
0000
0100
0000
11MM
0000
0100
0010
0000
0010
1000
0000
0020
0000
0100
0000
,  // measure 58
0130
1000
0001
0000
MM11
0000
0000
0001
1000
0000
0010
0000
0020
0000
0130
0010
,  // measure 59
1000
0000
0001
0000
0020
2030
0000
3002
0000
0203
0000
0300
2100
0000
0000
0000
,  // measure 60
3001
0000
0001
0100
0010
0100
0000
0001
0100
0000
0010
0000
1010
0000
0010
0100
,  // measure 61
0010
0001
0000
0000
M11M
MMMM
0000
0000
4001
0000
0000
0000
3100
0000
0010
0000
,  // measure 62
0011
0000
0000
1000
00M0
1000
0001
0000
0400
0000
0000
0000
0310
1000
0002
0003
,  // measure 63
0021
0000
0000
0000
203M
0000
3020
0000
0034
0000
0000
0000
1003
0001
0100
0000
,  // measure 64
1010
0000
0000
1000
0020
0000
2030
3001
4MM0
0000
0000
0000
320M
0000
0320
0030
,  // measure 65
M14M
0000
0000
0130
2000
0000
3002
0003
1004
0000
0000
0000
0103
0000
0010
0000
,  // measure 66
1010
0000
0000
0001
00M0
0001
1000
0000
0400
0000
0000
0310
0000
0010
0001
0000
,  // measure 67
0011
0000
0000
1000
000M
1000
0001
0000
4000
0000
0000
0000
3001
0000
0010
0000
,  // measure 68
1100
0000
0000
0000
0000
0000
1000
0000
0M00
0000
0000
0000
0001
0000
0000
0000
0401
0000
M000
00M0
130M
0000
0000
0000
M14M
0000
0030
0000
MMMM
0000
0000
0000
;

//---------------dance-single - I'm here if the challenge chart's too overwhelming.----------------
#NOTES:
     dance-single:
     C 7 X 11:
     Medium:
     7:
     0.458164,0.484877,0.326654,0.556797,0.133631,432.000000,388.000000,44.000000,75.000000,0.000000,0.000000,0.458164,0.484877,0.326654,0.556797,0.133631,432.000000,388.000000,44.000000,75.000000,0.000000,0.000000:
0000
0000
0000
0000
,
0000
0000
0000
0000
,
0000
0000
0000
0000
,
2000
0000
3010
0000
0000
0100
0010
0000
,
1000
0000
0001
1000
0001
0020
0130
1000
,
0100
0000
0010
0000
0000
0001
0010
0100
,
1000
0000
0001
1000
0000
1000
0010
0100
,
0002
0000
0013
0000
0100
0010
0001
0000
,
1000
0000
0010
0000
1000
0010
0100
0001
,
1000
0000
0010
0000
0100
0010
0001
0000
,
0100
0000
1000
0000
2002
3003
1100
0000
,
1000
0100
0010
0000
0001
1000
1000
0000
,
0001
1000
0010
0100
0001
1000
0100
0000
,
0010
0100
1000
0000
0001
0100
0100
0000
,
0010
0000
0000
0000
0101
0000
0000
0100
0000
0000
1000
0000
0100
0000
0000
0000
,
0001
0100
0010
0000
1000
0001
0001
0000
,
1000
0001
0010
0100
1000
0001
0100
0000
,
0010
0100
0010
0000
1000
0000
1010
0000
,
1000
0000
0000
0000
0100
0000
0000
0001
0000
0000
0000
0000
1100
0000
0000
0000
,
0100
1000
1020
0000
0001
0000
0130
0000
,
0010
0000
1000
0010
0100
0010
1000
0000
,
0001
1000
0001
0000
0010
0100
0100
0000
,
1000
0000
0000
0000
1200
0000
0000
0010
0000
0000
0301
0000
0100
0000
0000
0000
,
1000
0000
0001
0000
0201
0000
0000
0000
1300
0000
0100
0000
0010
0000
0000
0010
,
1000
0000
0001
0000
1001
0000
0000
0100
0000
0010
0000
0000
1001
0000
0000
0000
,
1000
0000
0100
0000
0001
0000
0000
0100
0000
0000
0010
0000
0001
0000
0100
0000
,
1000
0000
0101
0000
2002
0000
3003
1000
,
0100
0000
0001
0100
2200
0000
3300
0000
,
1000
0000
0010
0100
0202
0000
0303
0100
,
0010
0000
0000
1000
0000
0000
0100
0000
0012
0000
0000
0000
1003
0000
0000
0000
,
2010
0000
0000
3010
0000
0000
1000
0000
2002
0000
0000
0000
3003
0000
0001
0000
,
0100
0000
1000
0100
0202
0000
0303
0100
,
0010
0000
0000
1000
0000
0000
0100
0000
2200
0000
0000
0000
3300
0000
0100
0000
,
0010
0000
0000
0001
0000
0000
0100
0000
0220
0000
0000
0330
0000
0000
1001
0000
,
0000
1200
0000
0320
,
0032
2003
0000
3020
,
0230
0000
0302
0010
2003
0010
3002
0100
,
2003
0000
0100
0000
3001
0000
0010
0000
1000
0000
0100
0000
0001
0100
0010
1000
,
2002
0000
3003
0000
0001
0000
0100
0000
0010
0000
0100
0000
0002
0000
0000
0100
,
0000
1003
0001
0010
0100
0000
1000
0100
,
0001
0000
0100
0000
1000
0000
0100
0000
0010
0000
0100
0000
2000
0000
0000
0100
,
0000
3001
1000
0100
1000
0020
0000
0031
,
0100
0000
0010
0000
0001
0000
0010
0000
0100
0000
0010
0000
0002
0000
0000
0010
,
0000
0000
1003
0000
0001
0000
0100
0000
0001
0000
0000
0000
2000
0000
0000
0010
,
0000
3001
1000
0010
0100
0010
1000
0000
,
1001
0000
0001
0010
1000
0010
0100
0000
,
1100
0000
0100
0000
0010
0000
0100
0000
2000
0000
0000
0001
0000
0000
0010
0000
,
3010
0100
0001
0020
2030
0000
3200
0302
,
1003
0000
0010
0000
0100
0000
0010
0000
1000
0000
0000
1000
0020
0000
0230
0000
,
1000
0000
0302
0023
1000
0000
0032
0203
,
0301
0000
0010
0000
0100
0000
0010
0000
0002
0000
0000
1000
0000
0000
0010
0000
,
0013
0000
0100
0000
1000
0000
0000
0000
1001
0000
0000
0100
0000
0010
0000
0000
,
1001
0000
1000
0000
0010
0000
0100
0000
0201
0000
0000
0010
0000
0000
0301
0000
,
1000
0001
0010
0100
2200
3300
1001
0000
,
1000
0100
0021
0000
1000
0000
0130
0000
,
0010
0000
0000
0010
0001
0000
0100
0000
1000
0000
0100
0000
0001
0000
0000
0000
,
1000
0000
0100
0000
0010
0000
0000
0000
0100
0000
1000
0000
1000
0000
0000
1000
,
0010
0000
0000
0000
0201
0000
0000
0010
0000
0000
1300
0000
0100
0000
0000
0000
,
0001
0000
1000
0000
1200
0000
0000
0000
0301
0000
0100
0000
0010
0000
0000
0100
,
1000
0000
0001
0000
1001
0000
0000
0010
0000
0100
0000
0000
1001
0000
0000
0000
,
0001
0000
0100
0000
1000
0000
0000
0100
0000
0000
0001
0000
1000
0000
0100
0000
,
0001
0000
1100
0000
2001
0000
3001
0100
,
0010
0000
0000
0100
0000
0000
0001
0000
0102
0000
0000
0000
0103
0000
0020
0000
,
0032
0000
0203
1300
2100
0000
3100
0010
,
0001
0000
0000
0001
0020
0000
0230
0000
0001
0000
0000
0000
2300
0000
3020
0000
,
0001
0000
2030
3100
0210
0000
0310
0100
,
1000
0000
0000
0010
0000
0000
0100
0000
0102
0000
0000
0103
0000
0000
0001
0000
,
0010
0000
0000
1000
0000
0000
0010
0000
0012
0000
0000
0000
0013
0000
0100
0000
,
1000
0000
0000
0001
0000
0000
0100
0000
2020
3000
0030
0000
0110
0000
0000
0000
;

//---------------dance-single - Very simple.----------------
#NOTES:
     dance-single:
     C 4 X 7:
     Easy:
     4:
     0.279989,0.382798,0.170751,0.489981,0.000000,264.000000,241.000000,23.000000,66.000000,0.000000,0.000000,0.279989,0.382798,0.170751,0.489981,0.000000,264.000000,241.000000,23.000000,66.000000,0.000000,0.000000:
0000
0000
0000
0000
,
0000
0000
0000
0000
,
0000
0000
0000
0000
,
2000
0100
0000
3100
,
0020
0031
2000
3002
,
2003
0010
0000
3020
,
0130
0002
0103
0002
,
1000
0010
0000
0013
,
0200
1300
0002
2003
,
3002
0010
0000
0013
,
0200
1000
1300
1001
,
0000
1000
0000
0100
,
0000
0020
0032
1003
,
0000
0010
0000
0100
,
0000
1000
0100
0100
,
0000
0001
0000
1000
,
0000
0020
2030
3001
,
0000
0010
0000
0100
,
0000
0001
0100
0110
,
0000
1001
0000
0001
,
0000
0200
0320
1030
,
0000
0000
0001
0000
0000
0001
1000
0000
,
0000
1100
1000
0001
,
0000
0000
1001
0000
0000
1000
0001
0000
,
0000
0020
0230
1300
,
1000
0010
0100
0001
,
0001
0011
0002
0003
,
0001
0000
1000
0001
0200
0000
0300
0000
,
0100
0000
0010
0100
2000
0000
3000
0000
,
0100
0010
0002
0013
,
0020
1030
2000
3000
,
1000
0000
0001
1000
0200
0000
0300
0000
,
0010
0100
0002
0003
,
0100
0000
1000
0000
1020
0000
0000
0130
,
0000
2001
0000
0000
,
0000
3020
0000
0000
,
0000
0000
0230
0001
0000
0301
2000
0100
,
3002
0103
0020
1000
0000
1030
0002
0010
,
0013
1001
0001
0001
,
0010
0100
1000
0000
1000
0000
0020
0000
,
0032
0013
0010
0010
,
1000
0001
0020
0000
2030
0000
3200
0000
,
0302
1003
1000
1000
,
0100
0010
0001
0000
0001
0000
0001
0000
,
0100
0010
0010
0100
,
1001
1000
0010
0001
,
1010
0000
1000
0000
1000
0000
0010
0100
,
0001
0001
0020
2030
,
3010
0010
0010
0002
,
0100
2003
0100
3002
,
0023
0000
0130
0000
0100
0000
1000
0001
,
0100
0100
0220
0330
,
0001
0000
0001
0000
0011
0000
0010
0100
,
1000
1000
1010
0020
,
0130
1001
0000
0001
,
1000
0200
0302
0103
,
1000
0000
0001
0000
0000
0001
1000
0000
,
0010
0101
0000
0001
,
1000
0000
1100
0000
0000
0100
1000
0000
,
0001
2002
3003
0001
,
0001
0000
0010
0000
0100
0000
1000
0001
,
1000
1010
2000
3000
,
1001
0000
0001
1000
0200
0000
0300
0000
,
0021
0000
0031
1000
0002
0000
0003
1000
,
0001
2000
0010
3002
,
0010
0000
1003
0000
0002
0000
0003
0001
,
1000
0000
0001
0010
0200
0000
0310
0000
,
1001
0000
0001
0100
2000
0000
3000
0100
,
0010
0000
0001
0000
0200
0300
1100
0000
;

//---------------dance-single - Blue notes in beginner charts parappafrowny face.jpg----------------
#NOTES:
     dance-single:
     C 1 X 2:
     Beginner:
     1:
     0.156964,0.229679,0.185599,0.000000,0.000000,148.000000,123.000000,25.000000,0.000000,0.000000,0.000000,0.156964,0.229679,0.185599,0.000000,0.000000,148.000000,123.000000,25.000000,0.000000,0.000000,0.000000:
0000
0000
0000
0000
,
0000
0000
0000
0000
,
0000
0000
0000
0000
,
1000
0000
0000
0000
,
0001
0000
1000
0000
,
0010
0000
0000
0000
,
0010
0000
0100
0000
,
0001
0000
0000
0000
,
1000
0000
0001
0000
,
0010
0000
0000
0000
,
0100
0000
1001
1000
,
0000
0000
0000
0010
,
0000
0100
0000
0001
,
0000
0000
0000
0010
,
0000
0100
0000
0100
,
0000
0000
0000
0001
,
0000
1000
0000
0100
,
0000
0000
0000
0010
,
0000
0100
0000
0010
,
0000
1001
0000
1000
,
0000
0100
0000
1000
,
0000
0001
0000
0100
,
0000
0110
0000
0100
,
0000
1001
0000
0001
,
0000
0110
0000
1000
,
0000
0010
0000
1000
,
0000
1001
1000
0000
,
0000
0000
0100
0000
,
0000
0000
0001
0000
,
0000
0000
0010
0000
,
1000
0000
0001
0000
,
0000
0000
0100
0000
,
0000
0000
1000
0000
,
0000
0000
0000
0000
0010
0000
0000
0110
,
0000
1001
0000
0000
,
0000
1000
0000
0000
,
0000
0001
0000
0001
,
0000
1000
0000
1000
,
1001
0001
0000
0000
,
0000
1000
0000
0010
,
0000
0100
0000
0000
,
0000
0001
0000
1000
,
0000
0001
0000
0000
,
0000
0010
0000
0100
,
0000
0010
0000
0000
,
1001
0001
0000
1000
,
1001
0000
0001
0000
,
1000
0000
0001
0001
,
0001
0000
1000
1000
,
1001
0000
0110
0000
,
1001
0000
0001
0000
,
1000
0000
0110
0000
,
0001
0000
1001
0000
,
0010
0000
0110
0010
,
0000
1001
0000
1000
,
0000
0010
0000
0100
,
0000
0001
0000
0100
,
0000
0110
0000
0010
,
0000
1001
0000
0001
,
0000
1001
0000
1000
,
0000
0001
0000
0010
,
0000
1001
0001
0000
,
0000
0100
0100
0000
,
0010
0010
0010
0000
,
0000
1000
1001
0000
,
0110
0000
0001
0000
,
0100
0100
0100
0000
,
0010
0000
1000
0000
,
0001
0001
0001
1001
;
