#TITLE:SWEET HOME PARTY;
#SUBTITLE:;
#ARTIST:劇団レコード;
#TITLETRANSLIT:;
#SUBTITLETRANSLIT:;
#ARTISTTRANSLIT:Gekidan Record;
#CREDIT:;
#BANNER:SWEET HOME PARTY.png;
#BACKGROUND:SWEET HOME PARTY-bg.png;
#LYRICSPATH:;
#CDTITLE:;
#MUSIC:SWEET HOME PARTY.mp3;
#OFFSET:-6.280;
#SAMPLESTART:19.720;
#SAMPLELENGTH:14.320;
#SELECTABLE:YES;
#DISPLAYBPM:134.000:180.000;
#BPMS:0.000=44.667,1.167=151.867,4.000=134.000,110.000=110.000,111.000=103.500,112.000=100.000,114.000=134.000,132.000=144.000,134.000=150.000,136.000=154.000,138.000=160.000,140.000=164.000,144.000=174.000,148.000=180.000,151.500=25.714,152.000=70.000,153.000=80.000,154.000=95.000,155.000=100.000,156.000=115.000,158.000=120.000,160.000=134.000,162.000=140.000,164.000=144.000,166.000=150.000,168.000=154.000,170.000=158.000;
#STOPS:;
#BGCHANGES:;

//---------------dance-single - ----------------
#NOTES:
     dance-single:
     :
     Hard:
     9:
     0.612,0.593,0.360,0.391,0.180: // measure 1
2002
0000
0000
0000
0000
0000
0000
3003
0000
0000
0000
0000
0000
0000
0000
0000
0000
0000
0000
0000
0000
0000
0000
0000
,  // measure 2
1001
0101
1001
1100
,  // measure 3
1000
0000
0000
0001
0000
0100
0001
0000
0000
0100
0000
0000
0010
0000
0000
1000
0000
0000
0100
0000
0000
0010
0000
0000
,  // measure 4
0011
0101
1010
1100
,  // measure 5
1001
0000
0000
0001
0000
0100
0002
0000
0000
0000
0000
0000
0003
0000
0000
0000
0000
0000
1100
0000
0000
0000
0000
0000
,  // measure 6
1001
0001
0100
0010
1000
0100
0010
0000
,  // measure 7
0100
0000
0000
0010
0000
0001
1000
0000
0000
0001
0000
0000
0100
0000
0000
0010
0000
0000
1001
0000
0000
0000
0000
0000
,  // measure 8
1000
0100
1000
0001
0100
0010
0100
0000
,  // measure 9
0001
0000
0100
0001
0000
0100
0001
0000
0000
0100
0000
0000
0020
0000
0000
0001
0000
0000
0000
0000
0000
1030
0000
0000
,  // measure 10
0010
1000
0100
0010
0100
0010
0001
1000
,  // measure 11
0010
0000
0100
0010
0000
0100
0010
0000
0000
1000
0000
0000
0100
0000
0000
0100
0000
0000
1001
0000
0000
0000
0000
0000
,  // measure 12
0202
0000
0303
0000
1000
0100
1000
0100
,  // measure 13
1001
0000
0000
2002
0000
0000
3003
0000
0000
0000
0000
0000
0001
0000
0000
0001
0000
0000
0001
0000
0000
1000
0000
0001
,  // measure 14
0100
0010
0100
0001
0010
0100
0010
0001
,  // measure 15
1000
0000
0000
0100
0000
0000
0000
0000
0110
0000
0000
0000
0001
0000
0000
0100
0000
0000
0001
0000
0000
0000
0000
0000
,  // measure 16
1000
0020
0000
0230
0000
0302
0000
0013
,  // measure 17
0100
0020
0000
0032
0000
2003
0000
3001
,  // measure 18
0200
0000
0000
0010
0000
0000
0000
0000
0010
0000
0000
0000
0310
0000
0000
0000
0000
1000
0000
0000
0000
0001
0000
0000
,  // measure 19
2000
0000
0000
0100
0000
0000
0000
0000
0001
3000
0000
0000
0002
0000
0000
1000
0000
0000
0000
0000
0103
0000
0000
0000
,  // measure 20
0001
0020
0000
0032
0000
0203
0000
0310
,  // measure 21
1000
0200
0000
0302
0000
0203
0000
1300
,  // measure 22
0002
0000
0000
0100
0000
0000
0000
0000
0100
0000
0000
0000
1003
0000
0000
0000
0000
0100
0000
0000
0000
0010
0000
0000
,  // measure 23
0002
0000
0000
1000
0000
0000
0000
0000
1003
0000
0000
0000
1000
0000
0000
0100
0000
0000
0010
0000
0000
0001
0000
0000
,  // measure 24
0101
0000
0000
0000
0000
0001
0100
0000
0000
0010
0000
0000
1000
0000
0000
0100
0000
0000
1100
0000
0000
0000
0000
1000
,  // measure 25
0010
0000
0000
0100
0000
0000
0001
0000
0000
0100
0000
0000
0110
0000
0000
0000
0000
0010
1000
0000
0000
0001
0000
0000
,  // measure 26
0010
0000
0000
0100
0000
0000
1100
0000
0000
0000
0000
0010
0001
0000
0000
1000
0000
0000
0001
0000
0000
0100
0000
0000
,  // measure 27
0101
0001
1000
0100
1100
1000
0010
0100
,  // measure 28
0101
0000
0000
0001
0000
0000
0010
0000
0000
0100
0000
0000
0110
0000
0000
0000
1001
0000
0000
0000
0110
0000
0000
0000
,  // measure 29
2002
0000
0000
0000
3003
0000
1000
0100
,  // measure 30
0020
0000
0031
0100
0020
0000
1030
0100
,  // measure 31
0010
0100
0001
0100
2000
0000
3001
0100
,  // measure 32
1000
0000
0100
0000
0010
0000
0100
0000
0001
0000
0010
0100
0010
0000
0001
0000
,  // measure 33
1000
0100
0020
0000
0130
0010
0001
1000
,  // measure 34
0001
0100
0001
0100
1000
0100
1000
0100
,  // measure 35
0010
0000
0100
0000
0010
0000
1000
0000
0100
0000
1000
0001
1000
0000
0001
0000
,  // measure 36
0100
0010
1000
0010
0100
0001
0010
0100
,  // measure 37
0010
0001
1000
0010
0100
0010
1000
0001
,  // measure 38
0100
0000
0010
0000
1000
0000
0001
0000
0010
0000
0001
0000
1000
0000
0002
0003
,  // measure 39
1001
0000
0000
0000
0000
0000
0101
0000
0000
0000
0000
0000
1000
0000
0100
1000
0000
0000
0001
0000
0000
0100
0000
0000
,  // measure 40
0001
0000
0000
0010
0000
0000
0100
0000
0000
0010
0000
0000
0001
0000
1000
0001
0000
0000
0110
0000
0000
0000
0000
0000
,  // measure 41
1000
0000
0000
0001
0000
0100
0001
0000
0000
0100
0000
0000
0010
0000
0000
1000
0000
0000
0100
0000
0000
0010
0000
0000
,  // measure 42
0001
0000
1000
0001
0000
1000
0100
0000
0000
1000
0000
0000
0020
0000
0000
0001
0000
0000
0000
0000
0000
1000
0000
0000
,  // measure 43
1030
0000
0000
0010
0000
0100
0010
0000
0000
1000
0000
0000
0100
0000
0000
0010
0000
0000
0001
0000
0000
1000
0000
0000
,  // measure 44
0100
0010
0001
1000
0001
0100
0001
0100
,  // measure 45
0010
0000
0000
1000
0000
0000
0010
0000
0000
1000
0000
0000
0100
0000
0000
0010
0000
0001
1000
0000
0000
0001
0000
0000
,  // measure 46
0100
0001
0100
0010
1000
0100
1000
0001
,  // measure 47
0100
0000
0000
0001
0000
0000
0010
0000
0001
0100
0000
0001
0100
0000
0000
0010
0000
2000
0002
0000
0000
0000
0000
0000
,  // measure 48
3003
0110
2001
0000
,  // measure 49
0200
0000
0000
3300
;

//---------------dance-single - ----------------
#NOTES:
     dance-single:
     :
     Medium:
     6:
     0.471,0.413,0.338,0.423,0.011: // measure 1
0200
0000
0000
0000
0000
0000
0000
0300
0000
0000
0000
0000
0000
0000
0000
0000
0000
0000
0000
0000
0000
0000
0000
0000
,  // measure 2
1001
0101
1000
0100
,  // measure 3
1000
0000
0001
0000
1000
0001
1000
0001
,  // measure 4
0100
0000
0010
0000
1000
0000
0001
1000
,  // measure 5
0100
0010
0002
0000
0003
0000
0110
0000
,  // measure 6
1001
0000
0001
0000
0100
0010
1000
0000
,  // measure 7
0100
0000
1000
0000
0001
0001
0101
0000
,  // measure 8
1000
0100
1000
0000
0001
0100
0001
0000
,  // measure 9
1000
0100
1000
0010
0200
0001
0000
0001
,  // measure 10
0301
0000
0100
0000
0001
1000
0100
0000
,  // measure 11
1000
0100
0010
0001
0200
0000
0310
0000
,  // measure 12
2002
0000
3003
0000
1000
0100
0010
0001
,  // measure 13
0100
0200
0300
0000
0001
0100
0001
0000
,  // measure 14
1001
0000
1100
0000
0010
0001
1000
0100
,  // measure 15
2000
0010
0002
3003
,  // measure 16
1000
0002
0000
0203
0000
0320
0000
1030
,  // measure 17
0100
0020
0000
0032
0000
0203
0000
0301
,  // measure 18
2000
0010
0000
0001
0000
0100
0000
3001
,  // measure 19
0020
0100
0000
0001
0000
0100
0000
0031
,  // measure 20
1000
0002
0000
0203
0000
0320
0000
1030
,  // measure 21
0100
0020
0000
0230
0000
0320
0000
0031
,  // measure 22
0200
1000
0000
0010
0000
0001
0000
0310
,  // measure 23
2000
0100
0000
3001
1000
0100
0010
0001
,  // measure 24
0011
0000
0001
0100
0010
0000
1010
0000
,  // measure 25
1000
0000
0100
0000
0011
0000
0001
0100
,  // measure 26
0010
0000
1001
0000
0100
0000
0010
1000
,  // measure 27
1010
0100
1001
0010
,  // measure 28
0101
0000
0000
0010
0000
0000
1100
0000
1000
0000
0001
0000
,  // measure 29
2002
0000
0000
0000
3003
0000
1000
0010
,  // measure 30
0200
0000
0310
0100
0002
0000
2003
0000
,  // measure 31
3200
0000
0310
0001
0200
0000
0301
0100
,  // measure 32
0020
0000
1030
0100
1000
0000
0001
0000
,  // measure 33
0100
0010
2000
0000
3100
0100
0010
0001
,  // measure 34
0101
0001
1001
1000
,  // measure 35
1100
0000
0010
0001
0100
0001
0100
0000
,  // measure 36
0101
0000
0010
0000
1001
0000
1000
0100
,  // measure 37
0010
0000
0100
0010
0001
0000
0100
0001
,  // measure 38
1000
0000
0001
0100
0001
1000
0200
0300
,  // measure 39
1001
0100
0010
1000
,  // measure 40
0100
0000
0010
0000
0001
0100
0001
0000
,  // measure 41
1000
0010
0100
0000
0001
1000
0001
0000
,  // measure 42
1000
0000
0100
0010
0002
1000
0000
1003
,  // measure 43
0001
0000
0100
0000
0010
0100
0010
1000
,  // measure 44
0200
0300
0011
0100
,  // measure 45
1010
0000
0100
0000
0001
1000
0010
1000
,  // measure 46
0001
0110
1001
1100
,  // measure 47
0011
0000
0101
0000
0001
0100
0020
0000
,  // measure 48
0030
0110
1002
0000
,  // measure 49
0200
0000
0000
0303
;

//---------------dance-single - ----------------
#NOTES:
     dance-single:
     :
     Easy:
     4:
     0.340,0.464,0.338,0.413,0.000: // measure 1
0000
0000
0000
0000
,  // measure 2
0001
0100
0001
1000
,  // measure 3
0100
0010
0100
0100
,  // measure 4
0100
0010
0001
1000
,  // measure 5
0110
2002
3003
0110
,  // measure 6
1001
0001
0100
0001
,  // measure 7
0010
0100
0020
0030
,  // measure 8
0001
0100
0010
0100
,  // measure 9
0001
1000
0200
0300
,  // measure 10
0010
0100
0010
0001
,  // measure 11
1000
0001
0200
0300
,  // measure 12
0220
0330
0010
1000
,  // measure 13
2002
3003
0001
0100
,  // measure 14
0001
0001
1000
0100
,  // measure 15
0010
0001
1000
0001
,  // measure 16
2000
0000
3020
0000
,  // measure 17
0230
0000
0320
0000
,  // measure 18
2030
0000
0010
0000
,  // measure 19
0002
0000
3003
0000
,  // measure 20
0002
0000
0023
0000
,  // measure 21
0230
0000
0320
0000
,  // measure 22
0032
0000
0010
0000
,  // measure 23
2000
0000
3003
0000
,  // measure 24
1000
0100
0010
0010
,  // measure 25
0001
1000
1000
0001
,  // measure 26
0100
0100
0010
0100
,  // measure 27
1001
0100
0010
1000
,  // measure 28
0100
0010
0220
0330
,  // measure 29
2002
0000
3003
0000
,  // measure 30
1001
0100
1001
0010
,  // measure 31
1000
0001
0020
0030
,  // measure 32
0100
0010
0001
0100
,  // measure 33
0010
1000
0001
1000
,  // measure 34
1001
0001
1001
1000
,  // measure 35
0110
0010
0110
0100
,  // measure 36
1001
0010
1001
0100
,  // measure 37
0110
0001
0110
1000
,  // measure 38
0001
0100
0010
2000
,  // measure 39
3000
0001
0100
0010
,  // measure 40
0100
0001
2002
3003
,  // measure 41
1000
0001
0100
0010
,  // measure 42
0100
0001
2002
3003
,  // measure 43
1000
0100
0010
0100
,  // measure 44
0220
0330
1001
0100
,  // measure 45
1001
0010
0001
1000
,  // measure 46
0010
0010
0110
1000
,  // measure 47
0110
1001
0110
2002
,  // measure 48
3003
1001
2002
3003
,  // measure 49
0220
0000
0000
0330
;

//---------------dance-single - ----------------
#NOTES:
     dance-single:
     :
     Beginner:
     1:
     0.144,0.203,0.127,0.000,0.000:
0000
0000
0000
0000
,
0001
0000
0100
0000
,
0001
0000
1000
1000
,
1000
0000
0001
0000
,
1001
1001
0000
0000
,
1001
0000
0001
0000
,
0100
0000
0000
0000
,
0010
0000
0100
0000
,
0001
0000
1000
0000
,
0001
0000
1000
0000
,
0100
0000
0100
0000
,
0110
0000
0000
0000
,
1001
0000
0000
0000
,
1000
0000
0001
0000
,
0100
0000
0001
0000
,
1000
0000
0000
0000
,
0100
0000
0000
0000
,
0010
0000
0000
0000
,
0001
0000
0000
0000
,
1000
0000
0000
0000
,
0010
0000
0000
0000
,
0100
0000
0000
0000
,
0001
0000
0100
0100
,
0100
0000
0010
0000
,
1000
0000
1001
0000
,
0001
0000
0010
0000
,
0110
0000
0100
0000
,
0010
0000
1001
0000
,
0000
0000
1001
0000
,
0001
0000
0100
0000
,
0001
0000
1000
0000
,
0100
0000
0010
0000
,
0100
0000
0000
0000
,
0010
0000
0001
0000
,
0010
0000
0001
0000
,
1000
0000
0010
0000
,
1000
0000
0001
0000
,
0100
0000
0010
0010
,
0000
0000
0000
0000
,
0000
0000
0000
0000
,
1001
0000
1000
0000
,
0100
0000
1000
0000
,
0001
0000
0100
0000
,
0000
0000
0110
0000
,
0100
0000
0010
0000
,
1000
1000
1000
0000
,
0001
0000
1000
1000
,
0000
0001
0001
0000
,
1001
0000
0000
0000
;
