#TITLE:Rock It;
#SUBTITLE:;
#ARTIST:Hommarju;
#TITLETRANSLIT:;
#SUBTITLETRANSLIT:;
#ARTISTTRANSLIT:;
#GENRE:;
#CREDIT:;
#BANNER:[Round 1] - Rock It.png;
#BACKGROUND:[Round 1] - Rock It-bg.png;
#LYRICSPATH:;
#CDTITLE:;
#MUSIC:[Round 1] - Rock It.ogg;
#OFFSET:0.605000;
#SAMPLESTART:45.987236;
#SAMPLELENGTH:11.294121;
#SELECTABLE:YES;
#BPMS:0.000000=170.000000
;
#STOPS:66.000000=0.353000,
257.000000=0.353000
;
#BGCHANGES:;
#KEYSOUNDS:;
#ATTACKS:;

//---------------dance-single - ----------------
#NOTES:
     dance-single:
     :
     Hard:
     9:
     0.608843,0.796322,0.487555,0.336245,0.109280,507.000000,449.000000,58.000000,40.000000,0.000000,0.000000,0.608843,0.796322,0.487555,0.336245,0.109280,507.000000,449.000000,58.000000,40.000000,0.000000,0.000000:
// measure 0
0000
0000
0000
0000
,  // measure 1
0000
0000
0000
0000
,  // measure 2
0000
0000
0000
0000
,  // measure 3
0000
0000
0000
0000
,  // measure 4
0000
0000
0000
0000
,  // measure 5
0010
0000
0000
0000
,  // measure 6
0000
0000
0000
0000
,  // measure 7
0010
0000
0000
0000
,  // measure 8
0000
0000
0000
0000
,  // measure 9
0001
0100
0001
0100
0020
0000
1030
0000
,  // measure 10
0100
1000
0100
1000
0020
0000
0130
0000
,  // measure 11
0001
0010
0001
0010
0200
0000
1300
0000
,  // measure 12
0001
0000
0100
0000
0001
0000
0020
0000
0000
0000
0130
0010
0100
0000
0000
0000
,  // measure 13
1000
0000
0000
0010
0000
0000
1000
0000
0000
0010
0000
0000
0100
0000
0001
0000
,  // measure 14
0010
0000
0000
0100
0000
0000
0010
0000
0000
0100
0000
0000
0010
0000
0001
0000
,  // measure 15
1000
0000
0000
0010
0000
0000
0001
0000
0000
0010
0000
0000
0100
0000
0001
0000
,  // measure 16
0010
0000
0100
1000
0000
1000
0010
0000
1001
0000
0000
0000
0001
0000
0100
0000
,  // measure 17
0010
0100
0001
1000
0001
0100
0000
0010
,  // measure 18
1000
0100
1000
0001
0010
0001
0000
1000
,  // measure 19
0010
0100
0001
0010
0001
1000
0100
0001
,  // measure 20
0100
1000
0010
0001
0010
1000
0000
0001
,  // measure 21
1000
0010
1000
0001
0010
0100
0000
0010
,  // measure 22
0001
1000
0100
1000
0010
1000
0000
0001
,  // measure 23
0010
0001
1000
0100
1000
0010
0000
0100
,  // measure 24
1000
0100
0001
0020
0000
0030
0000
0110
,  // measure 25
0000
0110
0000
0110
0000
0110
0000
1001
,  // measure 26
0000
1001
0000
1001
0000
1001
0000
0101
,  // measure 27
0000
0101
0000
1100
0000
1100
0000
1010
,  // measure 28
0000
1010
0000
1000
1001
0000
0001
0010
,  // measure 29
0001
0010
0200
0000
0300
0000
1000
0100
,  // measure 30
1000
0100
0020
0000
0030
0000
0001
1000
,  // measure 31
0001
1000
0200
0000
0300
0000
0010
0001
,  // measure 32
0010
0100
1000
0020
0230
0320
1030
1000
,  // measure 33
0001
0010
0010
0001
0100
1000
0100
0100
,  // measure 34
0010
1000
1000
0001
0010
1000
0010
0010
,  // measure 35
0100
1000
1000
0001
0100
1000
0100
0100
,  // measure 36
0010
1000
1000
0001
1001
0000
0001
0001
,  // measure 37
0010
0100
0010
0010
0100
1000
0010
0010
,  // measure 38
0001
0000
0010
0000
0010
0000
0100
0000
0001
0000
1000
0000
0100
0000
0000
0010
,  // measure 39
0000
0000
0100
0000
0000
1000
0000
0000
0001
0000
0100
0000
0010
0000
1000
0000
,  // measure 40
1000
0001
1000
1000
0100
0000
0012
0000
,  // measure 41
0100
0013
1100
2010
,  // measure 42
0100
3010
0101
0012
,  // measure 43
0100
0013
1100
2010
,  // measure 44
0100
3010
0101
2100
,  // measure 45
0010
3100
0011
0102
,  // measure 46
0010
0103
1010
2100
,  // measure 47
0010
3100
0011
0102
,  // measure 48
0010
0103
1010
2100
,  // measure 49
3200
0000
0301
0100
1000
0000
0020
0000
,  // measure 50
0230
0000
0310
1000
0001
0000
0021
0000
,  // measure 51
0230
0000
1300
0100
0001
0000
0200
0000
,  // measure 52
0310
0000
0100
1000
0001
0000
0201
0000
,  // measure 53
0310
0000
1000
0100
0001
0000
0200
0000
,  // measure 54
1300
0000
0100
1000
0010
0000
2001
0000
,  // measure 55
3100
0000
0010
0001
1000
0000
0110
0000
,  // measure 56
0110
0000
0110
0010
1001
0000
1000
0100
,  // measure 57
1000
0100
0020
0000
0031
0000
0001
0100
,  // measure 58
0001
0100
0020
0000
1030
0000
0001
0010
,  // measure 59
0001
0010
0200
0000
1300
0000
0001
0000
,  // measure 60
1000
0000
0020
0000
0000
0000
0130
0001
0100
0000
0000
0000
0001
0000
0000
0010
,  // measure 61
0000
0000
1000
0000
0000
0010
0000
0000
0100
0000
0010
0000
0001
0000
0000
0100
,  // measure 62
0000
0000
1000
0000
0000
0100
0000
0000
0010
0000
1000
0000
0001
0000
0010
0000
,  // measure 63
1000
0000
0010
0000
0100
0000
1000
0000
0010
0000
0100
0000
0001
0000
1000
0010
,  // measure 64
0000
0100
0001
0000
1001
0000
0000
0000
1000
0000
0010
0000
1000
0000
0010
0000
,  // measure 65
1000
0010
1000
0010
0100
0010
0100
0010
,  // measure 66
0100
0001
0100
0001
1000
0001
1000
0001
,  // measure 67
1000
0001
1000
0001
0010
1000
0010
0001
,  // measure 68
0100
1000
0100
0010
1000
0100
1000
0100
,  // measure 69
1000
0100
1000
0100
0010
0100
0010
0100
,  // measure 70
0010
0001
0010
0001
1000
0001
1000
0001
,  // measure 71
1000
0001
1000
0001
0010
1000
0010
0001
,  // measure 72
0100
0020
0000
0030
0000
1001
0000
0110
,  // measure 73
0000
1001
0000
0110
0000
0101
0000
1010
,  // measure 74
0000
0101
0000
1010
0000
1100
0000
0011
,  // measure 75
0000
1100
0000
0011
0000
1001
0000
0110
,  // measure 76
0000
0100
1001
0000
0001
0010
0001
0100
,  // measure 77
0020
0000
1030
0000
1000
0010
0100
0010
,  // measure 78
2000
0000
3001
0000
0001
1000
0100
1000
,  // measure 79
0002
0000
1003
0000
0001
0000
0010
0200
,  // measure 80
0000
0000
0310
0000
1001
0000
0000
0000
1000
0000
0010
0000
0100
0001
0000
0100
,  // measure 81
0001
0000
1000
0000
0100
1000
0000
0100
1000
0100
0010
0001
1000
0010
0100
0001
,  // measure 82
0020
0002
0030
0003
0000
0000
0000
0000
;

//---------------dance-single - ----------------
#NOTES:
     dance-single:
     :
     Medium:
     7:
     0.437118,0.553963,0.151310,0.504367,0.067249,364.000000,346.000000,18.000000,60.000000,0.000000,0.000000,0.437118,0.553963,0.151310,0.504367,0.067249,364.000000,346.000000,18.000000,60.000000,0.000000,0.000000:
// measure 0
0000
0000
0000
0000
,  // measure 1
0000
0000
0000
0000
,  // measure 2
0000
0000
0000
0000
,  // measure 3
0000
0000
0000
0000
,  // measure 4
0000
0000
0000
0000
,  // measure 5
0010
0000
0000
0000
,  // measure 6
0000
0000
0000
0000
,  // measure 7
0010
0000
0000
0000
,  // measure 8
0000
0000
0000
0000
,  // measure 9
1000
0100
0020
0030
,  // measure 10
0001
0100
0020
0030
,  // measure 11
1000
0100
0020
0030
,  // measure 12
0001
0000
1000
0020
0000
0130
1001
0000
,  // measure 13
0001
0100
0001
0100
0002
0000
0003
0000
,  // measure 14
1000
0100
1000
0100
2000
0000
3000
0000
,  // measure 15
0010
1000
0010
1000
0020
0000
0030
0000
,  // measure 16
0100
0000
0000
0100
0000
0000
0010
0000
1001
0000
0000
0000
0001
0000
0000
0000
,  // measure 17
0100
0000
0010
0000
1000
0001
0010
0000
,  // measure 18
0100
0000
1000
0000
0010
1000
0100
0000
,  // measure 19
1000
0000
0001
0000
0010
0100
1000
0000
,  // measure 20
0001
0000
0100
0010
1000
0001
0010
0000
,  // measure 21
0100
0000
1000
0000
0010
1000
0100
0000
,  // measure 22
0010
0000
0001
0000
0100
0010
1000
0000
,  // measure 23
0001
0000
0010
0000
0100
0010
0001
0000
,  // measure 24
1000
0000
0010
0200
0000
0300
0000
0001
,  // measure 25
0000
1000
0000
0001
0000
1000
0000
0010
,  // measure 26
0000
0010
0000
0010
0000
0010
0000
1000
,  // measure 27
0000
0001
0000
1000
0000
0001
0000
0100
,  // measure 28
0000
0100
0000
0100
0001
0000
1000
0010
,  // measure 29
1000
0010
2000
0000
3000
0000
0001
0100
,  // measure 30
0001
0100
0002
0000
0003
0000
0010
0001
,  // measure 31
0010
0001
0020
0000
0030
0000
0200
0000
,  // measure 32
0000
0000
0000
0000
0000
0000
1300
0000
0100
0000
0010
0000
0100
0000
0000
0100
,  // measure 33
0000
0000
0100
0000
0000
0010
0000
0000
0010
0000
0000
0000
0001
0000
0000
0001
,  // measure 34
0000
0000
0001
0000
0000
1000
0000
0000
1000
0000
0000
0000
0010
0000
0000
0010
,  // measure 35
0000
0000
1000
0000
0000
1000
0000
0000
0100
0000
0000
0000
0010
0000
0000
0001
,  // measure 36
0000
0000
0100
0000
0000
0010
0000
0000
1001
0000
0000
0000
0001
0000
0000
0010
,  // measure 37
0000
0000
0001
0000
0000
1000
0000
0000
0100
0000
0000
0000
0010
0000
0000
0100
,  // measure 38
0000
0000
1000
0000
0000
0001
0000
0000
0100
0000
0000
0000
0010
0000
0000
1000
,  // measure 39
0000
0000
0100
0000
0000
1000
0000
0000
0001
0000
0010
0000
0100
0000
0100
0000
,  // measure 40
0010
0001
1000
0001
1000
0000
0002
0000
,  // measure 41
0203
0310
1001
2000
,  // measure 42
3200
0310
1001
0002
,  // measure 43
0203
0310
1001
2000
,  // measure 44
3200
0310
1001
2000
,  // measure 45
3200
0310
0011
0002
,  // measure 46
0203
0310
1010
2000
,  // measure 47
3002
0103
0101
0002
,  // measure 48
2003
3100
1100
2000
,  // measure 49
3020
0000
0130
0001
0100
0000
0002
0000
,  // measure 50
0023
0000
0130
1000
0100
0000
2000
0000
,  // measure 51
3002
0000
0103
0010
0100
0000
0002
0000
,  // measure 52
0023
0000
0130
1000
0100
0000
2000
0000
,  // measure 53
3020
0000
0130
0001
0010
0000
0200
0000
,  // measure 54
2300
0000
3010
0100
0001
0000
2000
0000
,  // measure 55
3200
0000
0310
0100
1000
0000
1001
0000
,  // measure 56
1001
0000
1001
0000
0110
0000
1000
0010
,  // measure 57
1000
0010
2000
0000
3000
0000
0001
0100
,  // measure 58
0001
0100
0002
0000
0003
0000
1000
0001
,  // measure 59
1000
0001
2000
0000
3000
0000
0001
0000
,  // measure 60
0100
0020
0000
1030
1001
0000
0001
0010
,  // measure 61
0100
1000
0200
0000
0300
0000
1000
0100
,  // measure 62
0010
0001
2000
0000
3000
0000
0001
0010
,  // measure 63
0100
0000
1000
0000
0002
0000
0000
0000
0003
0000
0000
0000
0100
0000
0000
0100
,  // measure 64
0000
0010
1001
0000
0001
0000
0010
0000
,  // measure 65
0001
0000
1000
0100
1000
0000
0010
0100
,  // measure 66
0010
0000
0100
0001
1000
0000
0100
0000
,  // measure 67
1000
0010
0200
0301
,  // measure 68
2000
3010
1000
0001
,  // measure 69
0010
0000
0100
0010
0001
0000
0010
0100
,  // measure 70
1000
0000
0100
1000
0010
0000
0100
0000
,  // measure 71
0001
1000
0002
0013
,  // measure 72
0100
0020
0000
0030
0000
0100
0000
0100
,  // measure 73
0000
0010
0000
0010
0000
0001
0000
0001
,  // measure 74
0000
1000
0000
1000
0000
0010
0000
1000
,  // measure 75
0000
0001
0000
0100
0000
0001
0000
0010
,  // measure 76
0000
0100
1001
0000
0001
0100
0010
1000
,  // measure 77
0020
0000
0030
0000
1000
0010
0100
0001
,  // measure 78
2000
0000
3000
0000
0001
0100
0010
1000
,  // measure 79
0002
0000
0003
0000
1000
0000
0002
0020
,  // measure 80
0000
0000
0033
0000
0001
0100
0010
0000
,  // measure 81
1000
0010
0100
0000
0001
0100
0010
2000
,  // measure 82
0002
0000
3000
0003
0000
0000
0000
0000
;

//---------------dance-single - ----------------
#NOTES:
     dance-single:
     :
     Easy:
     4:
     0.315830,0.450095,0.075655,0.126092,0.000000,263.000000,254.000000,9.000000,15.000000,0.000000,0.000000,0.315830,0.450095,0.075655,0.126092,0.000000,263.000000,254.000000,9.000000,15.000000,0.000000,0.000000:
// measure 0
0000
0000
0000
0000
,  // measure 1
0000
0000
0000
0000
,  // measure 2
0000
0000
0000
0000
,  // measure 3
0000
0000
0000
0000
,  // measure 4
0000
0000
0000
0000
,  // measure 5
0010
0000
0000
0000
,  // measure 6
0000
0000
0000
0000
,  // measure 7
0010
0000
0000
0000
,  // measure 8
0000
0000
0000
0000
,  // measure 9
1000
1000
0001
0000
,  // measure 10
1000
1000
0001
0000
,  // measure 11
1000
1000
0001
0000
,  // measure 12
0100
0010
0100
0000
,  // measure 13
0001
0100
0010
0000
,  // measure 14
1000
0001
0010
0000
,  // measure 15
0100
1000
0010
0000
,  // measure 16
0100
0010
1001
0001
,  // measure 17
0100
0001
0001
1000
,  // measure 18
0100
1000
1000
0001
,  // measure 19
1000
0001
0001
0010
,  // measure 20
0100
1000
0010
0100
,  // measure 21
0001
0100
0100
0010
,  // measure 22
1000
0010
0010
1000
,  // measure 23
0001
1000
1000
0001
,  // measure 24
0010
0100
0000
0010
,  // measure 25
0000
0001
0000
1000
,  // measure 26
0000
0010
0000
0100
,  // measure 27
0000
0010
0000
1000
,  // measure 28
0000
0010
1001
0001
,  // measure 29
0001
1000
0000
0001
,  // measure 30
0001
0010
0000
0001
,  // measure 31
0001
1000
0000
0100
,  // measure 32
1000
0010
0100
0001
,  // measure 33
0000
1000
0000
0010
,  // measure 34
1000
0010
0100
0001
,  // measure 35
0000
1000
0000
0100
,  // measure 36
1000
0010
1001
0001
,  // measure 37
0000
0010
0000
0001
,  // measure 38
0100
0001
1000
0100
,  // measure 39
0000
1000
0000
0010
,  // measure 40
0100
0010
0100
0002
,  // measure 41
1000
1000
1000
2003
,  // measure 42
0001
0001
0001
3002
,  // measure 43
1000
1000
1000
2003
,  // measure 44
0001
0001
0001
3020
,  // measure 45
0100
0100
0130
0200
,  // measure 46
0010
0010
0310
0020
,  // measure 47
0100
0100
0130
0200
,  // measure 48
0010
0010
0310
1000
,  // measure 49
0002
0100
0103
0010
,  // measure 50
0200
0010
0310
0001
,  // measure 51
2000
0010
3010
0100
,  // measure 52
0020
0100
0130
0010
,  // measure 53
2000
0100
3100
0010
,  // measure 54
0002
0010
0013
0001
,  // measure 55
0200
0010
0310
1001
,  // measure 56
1001
1001
0110
0001
,  // measure 57
0001
1000
0000
0001
,  // measure 58
0001
1000
0000
0001
,  // measure 59
0001
1000
0000
0100
,  // measure 60
0010
0100
1001
1000
,  // measure 61
0100
0010
0000
0010
,  // measure 62
0001
0100
0000
0010
,  // measure 63
1000
0100
0000
0010
,  // measure 64
0100
1001
0001
0100
,  // measure 65
0010
1000
0010
0010
,  // measure 66
1000
1000
0001
0010
,  // measure 67
0001
0100
0010
1000
,  // measure 68
0100
1000
0001
1000
,  // measure 69
0010
1000
0100
0100
,  // measure 70
1000
1000
0001
0001
,  // measure 71
0100
0001
0010
0100
,  // measure 72
0010
0000
0001
0000
,  // measure 73
1000
0000
0010
0000
,  // measure 74
1000
0000
0100
0000
,  // measure 75
1000
0000
0001
0000
,  // measure 76
0100
0010
1000
0010
,  // measure 77
0100
0000
0001
0010
,  // measure 78
0100
0000
0010
0100
,  // measure 79
1000
0000
0001
1000
,  // measure 80
0010
0000
1000
0100
,  // measure 81
0010
0100
1000
0001
,  // measure 82
0100
0010
1000
0001
0000
0000
0000
0000
;

//---------------dance-single - ----------------
#NOTES:
     dance-single:
     :
     Beginner:
     1:
     0.117686,0.206790,0.058843,0.000000,0.000000,98.000000,91.000000,7.000000,0.000000,0.000000,0.000000,0.117686,0.206790,0.058843,0.000000,0.000000,98.000000,91.000000,7.000000,0.000000,0.000000,0.000000:
// measure 0
0000
0000
0000
0000
,  // measure 1
0000
0000
0000
0000
,  // measure 2
0000
0000
0000
0000
,  // measure 3
0000
0000
0000
0000
,  // measure 4
0000
0000
0000
0000
,  // measure 5
0000
0000
0000
0000
,  // measure 6
0000
0000
0000
0000
,  // measure 7
0000
0000
0000
0000
,  // measure 8
0000
0000
0000
0000
,  // measure 9
1000
0000
0000
0000
,  // measure 10
1000
0000
0000
0000
,  // measure 11
1000
0000
0000
0000
,  // measure 12
0010
0000
0000
0000
,  // measure 13
0100
0000
0000
0000
,  // measure 14
0100
0000
0000
0000
,  // measure 15
0100
0000
0000
0000
,  // measure 16
0010
0000
0000
0100
,  // measure 17
0000
0000
0000
0010
,  // measure 18
0000
0000
0000
1000
,  // measure 19
0000
0000
0000
0001
,  // measure 20
0000
1000
0000
0010
,  // measure 21
0000
0000
0000
1000
,  // measure 22
0000
0000
0000
0001
,  // measure 23
0000
0000
0000
0100
,  // measure 24
0000
0010
0000
1000
,  // measure 25
0000
0000
0000
0001
,  // measure 26
0000
0000
0000
0010
,  // measure 27
0000
0000
0000
0100
,  // measure 28
0000
0010
0000
0100
,  // measure 29
0000
0000
0000
1000
,  // measure 30
0000
0000
0000
0001
,  // measure 31
0000
0000
0000
0100
,  // measure 32
0000
0000
0000
0010
,  // measure 33
0000
0000
0000
0100
,  // measure 34
0000
0000
0000
0001
,  // measure 35
0000
0000
0000
0010
,  // measure 36
0000
0000
0000
1000
,  // measure 37
0000
0000
0000
0010
,  // measure 38
0000
0000
0000
0001
,  // measure 39
0000
0000
0000
0100
,  // measure 40
0000
0000
0000
0010
,  // measure 41
0000
0000
0000
0010
,  // measure 42
0000
0000
0000
1000
,  // measure 43
0000
0000
0000
1000
,  // measure 44
0000
0000
0000
0001
,  // measure 45
0000
0000
0000
0001
,  // measure 46
0000
0000
0000
0100
,  // measure 47
0000
0000
0000
0100
,  // measure 48
0000
0000
0000
1001
,  // measure 49
0000
0000
0000
1000
,  // measure 50
0000
0000
0000
1001
,  // measure 51
0000
0000
0000
0001
,  // measure 52
0000
0000
0000
0110
,  // measure 53
0000
0000
0000
0010
,  // measure 54
0000
0000
0000
0110
,  // measure 55
0000
0000
0000
1000
,  // measure 56
1000
1000
0000
0001
,  // measure 57
0000
0000
0000
1000
,  // measure 58
0000
0000
0000
0001
,  // measure 59
0000
0000
0000
0010
,  // measure 60
0000
0000
0000
0100
,  // measure 61
0000
0000
0000
0010
,  // measure 62
0000
0000
0000
1000
,  // measure 63
0000
0000
0000
0001
,  // measure 64
0000
1001
1000
0000
,  // measure 65
0000
0010
0010
0000
,  // measure 66
0100
0000
0001
0000
,  // measure 67
0000
0000
1000
0000
,  // measure 68
0001
0000
0100
0000
,  // measure 69
0000
0001
0001
0000
,  // measure 70
1000
0000
0100
0000
,  // measure 71
0000
1000
1000
0000
,  // measure 72
0010
0000
0100
0000
,  // measure 73
0000
0000
0010
0000
,  // measure 74
0000
0000
1000
0000
,  // measure 75
0000
0000
0001
0000
,  // measure 76
0000
1001
0001
0000
,  // measure 77
0000
0000
1000
0000
,  // measure 78
0000
0000
0010
0000
,  // measure 79
0000
0000
0100
0000
,  // measure 80
0000
0000
0010
0010
,  // measure 81
0010
0000
0100
0000
,  // measure 82
1001
0000
0000
0000
;
