#TITLE:Rich Boy;
#SUBTITLE:;
#ARTIST:Galantis;
#TITLETRANSLIT:;
#SUBTITLETRANSLIT:;
#ARTISTTRANSLIT:;
#GENRE:EDM;
#CREDIT:darkanine;
#BANNER:Rich Boy-bn.png;
#BACKGROUND:Rich Boy-bg.png;
#LYRICSPATH:;
#CDTITLE:darkanine.png;
#MUSIC:Rich Boy.ogg;
#OFFSET:-0.545455;
#SAMPLESTART:9.298004;
#SAMPLELENGTH:17.454544;
#SELECTABLE:YES;
#BPMS:0.000000=110.000000
;
#STOPS:
;
#BGCHANGES:0.000=Rich Boy.mp4=1.000=0=0=0=StretchNoLoop====,
99999=-nosongbg-=1.000=0=0=0 // don't automatically add -songbackground-
;
#KEYSOUNDS:;
#ATTACKS:;

//---------------dance-single - ----------------
#NOTES:
     dance-single:
     :
     Hard:
     8:
     0.551745,0.580507,0.360369,0.023502,0.552304,493.000000,447.000000,46.000000,3.000000,9.000000,0.000000,0.551745,0.580507,0.360369,0.023502,0.552304,493.000000,447.000000,46.000000,3.000000,9.000000,0.000000:
// measure 0
0000
0000
0000
0000
,  // measure 1
0000
0000
0000
0000
,  // measure 2
0000
0000
0000
0000
,  // measure 3
0000
0000
0000
0000
,  // measure 4
1000
0010
1000
0000
0101
0000
0000
0000
0001
0010
0001
0000
1100
0000
0000
0000
,  // measure 5
0001
0100
0001
0000
1010
0000
1000
0100
0010
0100
1000
0000
0011
0000
0000
0000
,  // measure 6
1000
0010
0100
0000
1001
0000
1000
0100
0010
0000
0000
0000
0011
0000
0011
0000
,  // measure 7
1100
0000
1010
1010
0101
0000
0110
0000
,  // measure 8
1000
0010
0000
0010
0001
0000
0010
0000
1000
0000
0010
0000
0110
0000
0000
0000
,  // measure 9
0001
0000
0000
0010
0001
0000
1000
0000
0010
0000
0100
0000
1001
0000
0000
0000
,  // measure 10
0100
0010
0000
0010
0100
0000
1000
0000
0100
0000
0001
0100
0010
0000
0000
0000
,  // measure 11
0001
0000
0000
1000
0100
0000
0010
0000
0000
0000
0010
0000
0001
0010
0100
0000
,  // measure 12
1000
0100
0000
0100
0001
0000
0100
0000
1000
0000
0100
0000
0110
0000
0000
0000
,  // measure 13
0001
0000
0000
0100
0001
0000
1000
0000
0100
0000
0010
0000
1001
0000
0000
0000
,  // measure 14
0010
0100
0000
0100
0010
0000
1000
0000
0010
0000
0001
0010
0100
0000
0000
0000
,  // measure 15
0001
0000
0000
1000
0000
0100
0010
0000
0000
0000
0010
0000
1000
0010
0001
0000
,  // measure 16
1000
0010
0000
1000
0001
0000
1000
0000
0100
1000
0000
0000
1001
0000
0010
0000
,  // measure 17
0001
0000
0000
0001
0100
0000
0001
0000
1000
0001
0000
0000
0010
0100
1000
0001
,  // measure 18
0100
0010
0000
0100
1000
0000
0100
0000
0010
0100
0000
0000
0101
0000
0001
0000
,  // measure 19
0010
0000
0000
0010
1000
0000
0010
0000
0100
0010
0000
0000
0001
0100
0010
1000
,  // measure 20
0001
0010
0000
0001
1000
0000
0001
0000
0100
0001
0000
0000
1001
0000
0100
0000
,  // measure 21
1000
0000
0000
1000
0100
0000
1000
0000
0001
1000
0000
0000
0010
0100
0001
1000
,  // measure 22
0100
0010
0000
0100
0001
0000
0100
0000
0010
0100
0000
0000
1100
0000
0001
0000
,  // measure 23
0010
0000
0000
0100
1000
0000
0001
0000
0100
0010
0000
0000
1001
0000
0000
0000
,  // measure 24
1000
0000
0000
0001
1000
0000
0010
0000
1000
0000
0000
0001
1000
0000
0100
0000
,  // measure 25
0010
0000
0000
0001
0010
0000
0100
0000
1000
0001
0000
1000
0010
0000
0100
0000
,  // measure 26
0001
0000
0000
1000
0001
0000
0100
0000
0001
0000
0000
1000
0001
0000
0010
0000
,  // measure 27
0100
0000
0000
1000
0100
0000
0010
0000
0001
1000
0000
0001
0100
0010
1000
0000
,  // measure 28
0001
0000
0000
1000
0001
0000
0010
0000
0001
0000
0000
1000
0001
0000
0100
0000
,  // measure 29
0010
0000
0000
1000
0010
0000
0100
0000
0001
1000
0000
0001
0010
0000
0100
0000
,  // measure 30
1000
0000
0000
0001
1000
0000
0100
0000
1000
0000
0000
0000
1001
0000
1010
0000
,  // measure 31
0101
0000
1001
0011
1100
0000
0110
0000
,  // measure 32
0001
0000
1000
0010
0000
1000
0001
0000
1000
0010
0100
0001
0000
0010
0100
0000
,  // measure 33
1000
0000
0001
0010
0000
0001
1000
0000
0010
0100
0001
1000
0000
0100
0010
0000
,  // measure 34
0001
0000
0010
1000
0000
0010
0100
0000
1000
0001
0100
0010
0000
1000
0001
0000
,  // measure 35
0100
0000
1000
0100
0000
0001
0100
0000
0010
1000
0100
0010
0000
0001
0100
0000
,  // measure 36
0010
1000
0010
0000
0101
0000
0000
0000
1000
0100
1000
0000
0011
0000
0000
0000
,  // measure 37
0001
0100
0001
0000
1010
0000
0001
0010
0100
0010
0001
0000
1100
0000
0000
0000
,  // measure 38
0010
0001
0010
0000
0100
0000
1000
0000
0010
1000
0010
0000
0100
0000
0001
0000
,  // measure 39
1000
0100
0010
0000
0001
0100
0010
0000
1000
0010
0100
0001
1000
0100
0010
0001
,  // measure 40
0200
0000
0000
0000
,  // measure 41
03M0
00M0
0000
00M0
00M0
0000
0M00
0000
000M
0000
000M
0M00
M000
0000
0000
0000
,  // measure 42
0001
0000
0000
1000
0010
0000
0100
0000
0001
0000
1000
0000
1100
0000
0000
0000
,  // measure 43
0001
0010
0000
0010
0001
0000
1000
0000
0100
0000
0001
0100
1000
0000
0000
0000
,  // measure 44
0001
0000
0000
0100
0010
0000
0100
0000
0001
0000
0010
0000
1000
0010
0001
0000
,  // measure 45
1000
0100
0000
0100
0010
0000
1000
0000
0010
0000
0001
0000
1001
0000
0000
0000
,  // measure 46
0001
0000
0000
1000
0010
0000
0100
0000
1000
0000
0100
0000
0110
0000
0000
0000
,  // measure 47
1000
0010
0000
0010
0001
0000
0010
0000
0100
0000
0010
0000
1001
0000
0000
0000
,  // measure 48
1000
0000
0000
0010
0000
0100
0001
0000
0000
0000
0010
0000
1000
0010
0001
0000
,  // measure 49
1000
0010
0000
0010
0100
0000
0010
0000
0001
0010
0000
0000
1010
0000
0100
0000
,  // measure 50
0001
0000
0000
0010
0100
0000
0010
0000
1000
0010
0000
0000
0001
1000
0010
0100
,  // measure 51
0001
0010
0000
0010
0100
0000
1000
0000
0010
0100
0000
0000
1001
0000
0100
0000
,  // measure 52
0010
0000
0000
0100
1000
0000
0010
0000
0100
0001
0000
0000
0010
0001
1000
0010
,  // measure 53
0100
0001
0000
0100
1000
0000
0100
0000
0010
0100
0000
0000
1001
0000
0100
0000
,  // measure 54
0010
0000
0000
0001
1000
0000
0010
0000
0100
0010
0000
0000
1000
0010
0100
0001
,  // measure 55
1000
0100
0000
0001
0100
0000
1000
0000
0010
0100
0000
0000
1001
0000
1010
0000
,  // measure 56
0101
0000
1001
0011
1100
0000
0220
0000
,  // measure 57
0330
0000
0000
0000
;
