#TITLE:Retro City;
#SUBTITLE:;
#ARTIST:Adventure Club;
#TITLETRANSLIT:;
#SUBTITLETRANSLIT:;
#ARTISTTRANSLIT:;
#GENRE:;
#CREDIT:;
#BANNER:Retro City-bn.png;
#BACKGROUND:Retro City-bg.png;
#LYRICSPATH:;
#CDTITLE:loodeecdtitle.png;
#MUSIC:Retro City.ogg;
#OFFSET:-1.706000;
#SAMPLESTART:69.035004;
#SAMPLELENGTH:17.066999;
#SELECTABLE:YES;
#DISPLAYBPM:110.000000:140.000000;
#BPMS:0.000000=140.000000
,96.000000=110.000000
;
#STOPS:
;
#BGCHANGES:;
#KEYSOUNDS:;
#ATTACKS:;

//---------------dance-single - Loodee----------------
#NOTES:
     dance-single:
     Loodee:
     Challenge:
     10:
     0.670840,0.841308,0.221922,0.940951,0.896566,529.000000,504.000000,25.000000,106.000000,26.000000,0.000000,0.670840,0.841308,0.221922,0.940951,0.896566,529.000000,504.000000,25.000000,106.000000,26.000000,0.000000:
// measure 0
0000
0000
0000
0000
,  // measure 1
0000
0000
0000
0000
,  // measure 2
0000
0000
0000
0000
,  // measure 3
0000
0000
0000
0000
,  // measure 4
1000
0000
0000
1000
0000
0000
1000
0000
0010
0000
0200
0000
0302
0000
0023
0000
,  // measure 5
0130
0000
0000
0100
0000
0000
0100
0000
0010
0000
0002
0000
2003
0000
3002
0000
,  // measure 6
0103
0000
0000
0100
0000
0000
0100
0000
0001
0000
2000
0000
3200
0000
0320
0000
,  // measure 7
0031
0000
0000
0001
0000
0000
0001
0000
1000
0000
0000
1000
0000
0000
1000
0000
,  // measure 8
1001
0000
0000
0011
0000
0000
0011
0000
1020
0000
0000
0200
0000
0000
0000
0330
,  // measure 9
0001
0100
0001
2000
0000
3002
0000
1003
0100
0000
0010
0001
0000
0100
0001
0000
,  // measure 10
1001
0000
0000
1000
0000
0000
1010
0000
0120
0000
0000
0000
0230
0000
0000
0000
,  // measure 11
0301
0000
0000
0000
0000
0000
0000
0000
0000
0000
0000
0000
1000
0000
0000
0000
0000
0000
0000
0000
0000
0000
0000
0000
0100
0000
0000
0000
0000
0000
M000
0000
0000
0000
0000
0000
0100
0000
0000
0000
0000
0000
0000
0000
0000
0000
0000
0000
0002
0000
0000
0000
0000
0000
0000
0000
0000
0000
0000
0000
0000
0000
0000
0000
0000
0000
0000
0000
0000
0000
0000
0000
0103
0000
0000
0000
0000
0000
0000
0000
000M
0000
0000
0000
0100
0000
0000
0000
0000
0000
0000
0000
0000
0000
0000
0000
1000
0000
0000
0000
0000
0000
0000
0000
0000
0000
0000
0000
0010
0000
0000
0000
0000
0000
0000
0000
0000
0000
0000
0000
0100
0000
0000
0000
0000
0000
0000
0000
0000
0000
0000
0000
0001
0000
0000
0000
0000
0000
0000
0000
0000
0000
0000
0000
0010
0000
0000
0000
0000
0000
0000
0000
0000
0000
0000
0000
0100
0000
0000
0000
0000
0000
0000
0000
0000
0000
0000
0000
1000
0000
0000
0000
0000
0000
0000
0000
0000
0000
0000
0000
0010
0000
0000
0000
0000
0000
0000
0000
0000
0000
0000
0000
,  // measure 12
0200
0000
0000
0000
0000
0000
0000
0000
0301
0010
0001
2000
0000
0000
0000
0000
,  // measure 13
3010
0100
0001
2000
0000
3002
0000
0013
0001
0000
1000
0010
0000
0100
0010
0000
,  // measure 14
0101
0000
0000
0001
0000
0000
1001
0000
1200
0000
0000
0000
0320
0000
0000
0000
,  // measure 15
0031
1000
0001
1000
0001
0010
0001
0100
0001
1000
0100
0010
0001
0010
0100
1000
,  // measure 16
0020
0000
2030
3200
0302
0000
0000
0000
,  // measure 17
0103
1000
0010
2000
0000
3020
0000
1030
0001
0000
0010
0001
0000
1000
0010
0000
,  // measure 18
0110
0000
0000
0100
0000
0000
0101
0000
0012
0000
0000
0000
2003
0000
0000
0000
,  // measure 19
3001
0000
0000
0000
0000
0000
0000
0000
0000
0000
0000
0000
1000
0000
0000
0000
0000
0000
0000
0000
0000
0000
0000
0000
0010
0000
0000
0000
0000
0000
M000
0000
0000
0000
0000
0000
0010
0000
0000
0000
0000
0000
0000
0000
0000
0000
0000
0000
0002
0000
0000
0000
0000
0000
0000
0000
0000
0000
0000
0000
0000
0000
0000
0000
0000
0000
0000
0000
0000
0000
0000
0000
0103
0000
0000
0000
0000
0000
0000
0000
000M
0000
0000
0000
0100
0000
0000
0000
0000
0000
0000
0000
0000
0000
0000
0000
1000
0000
0000
0000
0000
0000
0000
0000
0000
0000
0000
0000
0001
0000
0000
0000
0000
0000
0000
0000
0000
0000
0000
0000
1000
0000
0000
0000
0000
0000
0000
0000
0000
0000
0000
0000
0010
0000
0000
0000
0000
0000
0000
0000
0000
0000
0000
0000
1000
0000
0000
0000
0000
0000
0000
0000
0000
0000
0000
0000
0100
0000
0000
0000
0000
0000
0000
0000
0000
0000
0000
0000
0010
0000
0000
0000
0000
0000
0000
0000
0000
0000
0000
0000
0001
0000
0000
0000
0000
0000
0000
0000
0000
0000
0000
0000
,  // measure 20
0200
0000
0000
0000
0000
0000
0000
0000
0310
1000
0001
2000
0000
0000
0000
0000
,  // measure 21
3010
0100
0001
0200
0000
0302
0000
1003
0100
0000
1000
0001
0000
0100
0010
0000
,  // measure 22
0102
0000
0000
0023
0230
0000
0320
0000
,  // measure 23
0130
1000
0100
1000
0001
1000
0001
1000
0010
0100
0001
1000
0001
0010
0100
1000
,  // measure 24
0MM2
0003
0000
0000
0100
0000
0000
0000
0002
0003
1000
0000
0200
0300
0000
0000
,  // measure 25
0020
0030
0000
0000
0100
0000
0000
0000
0020
0030
0001
0000
0010
0001
1000
0010
,  // measure 26
0200
0300
0000
0000
0001
0000
0000
0000
0200
0300
0001
0000
2000
3000
0000
0000
,  // measure 27
0200
0300
0000
0000
0010
0000
0000
0000
0200
0300
2000
3000
0001
0100
0010
0100
,  // measure 28
0001
1000
0001
1000
0100
0010
0100
0010
,  // measure 29
0001
0100
0010
0100
0001
1000
0100
0010
,  // measure 30
0100
1000
0001
1000
0100
1000
0001
0100
0010
1000
0001
1000
0010
0100
0001
0010
,  // measure 31
0100
1000
0100
1000
0010
1000
0010
0100
0001
0010
0001
0100
0010
0100
0001
1000
,  // measure 32
1002
0000
0000
0000
0000
0000
0000
0000
0000
0000
0000
0000
0103
0000
0000
0010
0000
0000
1000
0000
0000
0002
0000
0000
0003
0000
0000
0200
0000
0000
0300
0000
0000
0001
0000
0000
2000
0000
0000
0000
0000
0000
3010
0000
M000
0010
0000
0000
,  // measure 33
0001
0010
0010
0010
0001
0010
0010
0010
0001
1000
0010
1000
0100
0010
0100
0000
,  // measure 34
2100
0000
0000
0000
0000
0000
0000
0000
0000
0000
0000
0000
3001
0000
0000
0100
0000
0000
0010
0000
0000
2000
0000
0000
3000
0000
0000
0002
0000
0000
0003
0000
0000
0010
0000
0000
0002
0000
0000
0000
0000
0000
0103
0000
000M
0100
0000
0000
,  // measure 35
1000
0100
0100
0100
1000
0100
0100
0100
1000
0001
0100
0010
0100
0001
1000
0100
,  // measure 36
0120
0000
0000
0000
0000
0000
0000
0000
0000
0000
0000
0000
0031
0000
0000
1000
0000
0000
0010
0000
0000
2000
0000
0000
3000
0000
0000
0002
0000
0000
0003
0000
0000
0010
0000
0000
0200
0000
0000
0000
0000
0000
0310
0000
0M00
0010
0000
0000
,  // measure 37
1000
0010
0010
0010
1000
0010
0010
0010
0100
0001
1000
0100
0010
0001
0100
0000
,  // measure 38
0102
0000
0000
0000
0000
0000
0000
0000
0000
0000
0000
0000
0013
0000
0000
0100
0000
0000
1000
0000
0000
0200
0000
0000
0300
0000
0000
0020
0000
0000
0030
0000
0000
0100
0000
0000
2000
0000
0000
0000
0000
0000
3010
0000
M000
0010
0000
0000
,  // measure 39
0001
0100
0100
0100
0010
0100
0100
0100
0001
1000
0100
0010
0001
1000
0100
0010
,  // measure 40
0210
0000
0000
0000
0000
0000
0000
0000
2300
0000
0000
0000
3020
0000
0000
0000
0230
0000
0000
0000
1300
00MM
1000
0000
0001
0000
1000
0000
0100
0000
0010
0000
,  // measure 41
0002
0000
0000
0000
0203
0000
0000
0000
0320
0000
0000
0000
0031
MM00
0001
0000
1000
0000
0100
0000
0010
0000
0100
0000
2000
0000
0000
0000
0000
0000
3000
0000
,  // measure 42
1020
0000
0000
0000
0000
0000
0000
0000
2030
0000
0000
0000
3200
0000
0000
0000
0320
0000
0000
0000
1030
0M0M
1000
0000
0001
0000
1000
0000
0010
0000
0100
0000
,  // measure 43
0002
0000
0000
0000
0023
0000
0000
0000
0230
0000
0000
0000
0301
M0M0
0001
0000
0100
0000
0010
0000
0100
0000
0001
0000
0020
0000
0000
0000
0000
0000
0030
0000
,  // measure 44
2001
0000
0000
0000
0000
0000
0000
0000
3020
0000
0000
0000
0230
0000
0000
0000
0320
0000
0000
0000
0031
MM00
0001
0000
0100
0000
0001
0000
0010
0000
0100
0000
,  // measure 45
2000
0000
0000
0000
3200
0000
0000
0000
0320
0000
0000
0000
1030
0M0M
1000
0000
0001
0000
0100
0000
0001
0000
1000
0000
0020
0000
0000
0000
0000
0000
0030
0000
,  // measure 46
0201
0000
0000
0000
0000
0000
0000
0000
0302
0000
0000
0000
0023
0000
0000
0000
0230
0000
0000
0000
0301
M0M0
0001
0000
0100
0000
0010
0000
1000
0000
0001
0000
,  // measure 47
0010
0100
0010
0100
1000
0100
0010
0100
0010
0001
0100
0010
1000
0001
1000
0100
,  // measure 48
0010
0000
0002
0000
1003
0010
0000
1000
0010
0000
0100
0000
0010
0000
0002
0000
,  // measure 49
0013
0000
2000
0000
3100
0010
0000
0100
0010
0000
0001
0000
1000
0010
0100
0010
,  // measure 50
2000
0000
3200
0000
0310
0001
0000
0010
0001
0000
1000
0000
0010
0000
0002
0000
,  // measure 51
0023
0000
0130
0010
1000
0000
0002
0000
1003
0100
0010
0000
0010
0001
1000
0001
,  // measure 52
0100
0000
0020
0000
1030
0001
0000
1000
0001
0000
0010
0000
0110
0000
0200
0000
,  // measure 53
1300
0000
2000
0000
3001
0100
0000
0001
0100
0000
0010
0000
1000
0100
0010
0100
,  // measure 54
0010
0000
0002
0000
0103
0001
0000
0100
0001
0000
1000
0000
1100
0000
0010
0000
,  // measure 55
0011
M000
0000
M000
;
