#TITLE:ROUNDABOUT;
#SUBTITLE:;
#ARTIST:Yes;
#TITLETRANSLIT:;
#SUBTITLETRANSLIT:;
#ARTISTTRANSLIT:;
#GENRE:;
#CREDIT:;
#BANNER:[Round 1] - ROUNDABOUT.png;
#BACKGROUND:[Round 1] - ROUNDABOUT-bg.png;
#LYRICSPATH:;
#CDTITLE:;
#MUSIC:[Round 1] - ROUNDABOUT.ogg;
#OFFSET:3.075000;
#SAMPLESTART:30.207001;
#SAMPLELENGTH:20.454000;
#LASTBEATHINT:1.932349;
#SELECTABLE:YES;
#BPMS:0.000000=57.000000
,11.000000=76.000000
,16.000000=69.000000
,17.250000=68.000000
,18.250000=67.250000
,20.000000=86.000000
,21.000000=137.500000
,52.000000=131.000000
,53.000000=135.000000
,54.000000=133.000000
,55.000000=135.000000
,67.000000=134.500000
,82.000000=121.000000
,84.000000=124.000000
,88.500000=134.000000
,91.000000=83.500000
,92.000000=135.000000
,99.000000=137.000000
,102.000000=135.000000
,106.500000=134.500000
,137.000000=120.000000
,139.000000=123.000000
,143.000000=111.000000
,144.500000=120.000000
,147.500000=130.500000
,150.000000=125.500000
,152.000000=130.000000
,169.000000=133.000000
,175.000000=130.250000
,177.500000=125.999992
,179.000000=130.500000
,193.000000=126.999992
,195.000000=130.000000
,203.000000=130.500000
,204.500000=134.000000
,205.500000=126.999992
,206.500000=133.500000
,210.000000=113.000000
,210.500000=82.500000
,213.000000=86.500000
,214.000000=137.500000
;
#STOPS:88.500000=2.073000
;
#BGCHANGES:;
#KEYSOUNDS:;
#ATTACKS:;

//---------------dance-single - ----------------
#NOTES:
     dance-single:
     :
     Hard:
     11:
     0.413577,0.513870,0.412324,0.157911,0.083342,330.000000,283.000000,47.000000,18.000000,0.000000,0.000000,0.413577,0.513870,0.412324,0.157911,0.083342,330.000000,283.000000,47.000000,18.000000,0.000000,0.000000:
// measure 0
0000
0000
0000
0000
,  // measure 1
0000
0000
0000
0000
,  // measure 2
0000
0000
0000
0000
,  // measure 3
0000
0000
0000
0000
,  // measure 4
0000
0000
0000
0000
,  // measure 5
0120
0000
0000
0000
0130
0000
0000
0000
0010
0000
0000
1000
0000
0000
0001
0000
,  // measure 6
0010
0000
0000
0000
1000
0000
0010
0000
0100
0000
0000
1000
0000
0000
0010
0000
,  // measure 7
0001
0000
0000
0000
0100
0000
0000
0000
1000
0000
0000
0001
0000
0000
0100
0000
,  // measure 8
0010
0000
0100
0000
0010
0100
0001
1000
,  // measure 9
0100
0000
0000
1000
0100
0000
0000
0100
0010
0000
0000
0001
0000
0000
0010
0000
,  // measure 10
0100
0000
0000
0100
0010
0000
0000
0010
0001
0000
0000
1000
0000
0000
0001
0000
,  // measure 11
0100
0000
0000
0001
0100
0000
0000
0100
0010
0000
0000
1000
0000
0000
0010
0000
,  // measure 12
1000
0001
0000
1000
0100
0000
0000
0000
0100
0000
0010
0000
0001
0000
1000
0001
,  // measure 13
0000
1000
0001
0100
0020
0000
0031
0000
,  // measure 14
0010
0100
0000
0110
0000
0010
1000
0000
,  // measure 15
0000
0001
1000
0100
0020
0000
1000
0000
,  // measure 16
0130
0010
0000
0011
0000
0001
1001
0000
,  // measure 17
0000
0001
1000
0010
0200
0000
1000
0000
,  // measure 18
0301
1000
0000
1200
0320
0000
1000
0000
,  // measure 19
0100
0001
0130
0010
,  // measure 20
0001
1000
0001
0100
0110
0010
1000
0100
,  // measure 21
0110
0010
0001
0100
0110
0010
1000
0100
,  // measure 22
1100
0000
0000
0000
0000
0000
0000
0000
0000
0000
0000
0000
0000
0000
0000
0000
0000
0000
0000
0000
0000
0000
0000
0000
0220
0330
0000
0000
0000
0000
0000
0000
0000
0000
0000
0000
0000
0000
0000
0000
0000
0000
0000
0000
0000
0000
0000
0000
0000
0000
0000
0000
0000
0000
0000
0000
0000
0000
0000
0000
0000
0000
0000
0000
0000
0000
0000
0000
0000
0000
0000
0000
0001
0000
0000
0000
0000
0000
0000
0000
0000
0000
0000
0000
0010
0000
0000
0000
0000
0000
0000
0000
0000
0000
0000
0000
0000
0000
0000
0000
0000
0000
0000
0000
0000
0000
0000
0000
0010
0000
0000
0000
0000
0000
0000
0000
0000
0000
0000
0000
0100
0000
0000
0000
0000
0000
0000
0000
0000
0000
0000
0000
0000
0000
0000
0000
0000
0000
0000
0000
0000
0000
0000
0000
2100
0000
0000
0000
0000
0000
0000
0000
0000
0000
0000
0000
0000
0000
0000
0000
0000
0000
0000
0000
0000
0000
0000
0000
0000
0000
0000
0000
0000
0000
0000
0000
0000
0000
0000
0000
0000
0000
0000
0000
0000
0000
0000
0000
0000
0000
0000
0000
,  // measure 23
3001
0000
0000
0000
1001
0000
0000
0001
0000
0000
0100
0000
0110
0000
0000
0000
,  // measure 24
0110
0000
0100
0000
0001
0000
0000
1000
0000
0000
0100
0000
0110
0000
0000
0000
,  // measure 25
1100
0000
0101
0000
0011
0001
1000
0010
,  // measure 26
0001
0010
0100
0001
1000
1100
0000
0001
,  // measure 27
1000
0100
0020
0000
1000
0000
0130
0010
,  // measure 28
0000
0110
0000
0010
0001
0000
0000
1000
,  // measure 29
0001
0100
0020
0000
0001
0000
0130
0010
,  // measure 30
0000
1010
0000
1000
1001
0000
0000
1000
,  // measure 31
0001
0010
0200
0000
0001
0000
1300
0001
,  // measure 32
0000
0201
0320
0000
0001
0000
0100
0000
,  // measure 33
1000
0000
0130
0000
0010
0000
1000
0001
,  // measure 34
1000
0100
0110
0010
0001
0100
0110
0010
,  // measure 35
1000
0100
0110
0010
0001
1000
2001
0000
,  // measure 36
0000
0010
0000
0000
0100
0000
0000
3001
,  // measure 37
0000
0000
1000
0001
0200
0000
0320
0000
,  // measure 38
0001
1000
0001
1000
,  // measure 39
0001
0000
1030
0010
0100
1000
0000
1000
,  // measure 40
0100
0010
0000
0010
0100
0001
0000
1000
,  // measure 41
0000
0100
0010
1000
0010
0001
0010
1000
,  // measure 42
0010
0001
0010
1000
0010
0001
0100
1000
,  // measure 43
0100
0001
0000
0001
1000
0001
0010
0100
,  // measure 44
0010
0001
1000
0010
0000
0100
0110
0000
,  // measure 45
0101
0000
1001
0000
1100
0100
0000
0110
,  // measure 46
0000
1100
1000
0001
0100
0010
0110
0000
,  // measure 47
0101
0000
1001
0001
0010
0100
0010
0001
,  // measure 48
1000
0010
0110
0000
1010
0000
1001
1000
,  // measure 49
0100
0010
0000
0110
0000
0010
1000
0010
,  // measure 50
0100
1000
0001
0100
0010
0001
0010
0100
,  // measure 51
1000
1100
0000
0110
1000
1001
0000
1100
,  // measure 52
0000
0110
0000
1100
0001
0201
0000
0000
,  // measure 53
0000
0310
0000
0000
;

//---------------dance-single - ----------------
#NOTES:
     dance-single:
     :
     Challenge:
     14:
     0.625379,0.770805,0.175457,0.965014,0.517598,499.000000,479.000000,20.000000,110.000000,0.000000,0.000000,0.625379,0.770805,0.175457,0.965014,0.517598,499.000000,479.000000,20.000000,110.000000,0.000000,0.000000:
0000
0000
0000
2000
,
3100
0000
0000
1000
0000
0000
0200
0000
0000
0000
0000
0000
0000
0000
0000
0000
0000
0000
0000
0000
0000
0000
0000
0000
0000
0000
0000
0000
0000
0000
0000
0000
0000
0000
0000
0000
0000
0000
0000
0000
0000
0000
0000
0000
0000
0000
0000
0000
0000
0000
0000
0000
0000
0000
0000
0000
0000
0000
0000
0000
0000
0000
0000
0000
0000
0000
0000
0000
0000
0000
0000
0000
0000
0000
0000
0000
0000
0000
0000
0000
0000
0000
0000
0000
0000
0000
0000
0000
0000
0000
0000
0000
0000
0000
0000
0000
0000
0000
0000
0000
0000
0000
0000
0000
0000
0000
0000
0000
0000
0000
0000
0000
0000
0000
0000
0000
0000
0000
0000
0000
0000
0000
0000
0000
0000
0000
0000
0000
0000
0000
0000
0000
0000
0000
0000
0000
0000
0000
0000
0000
0000
0000
0000
0000
0000
0000
0000
0000
0000
0000
0000
0000
0000
0000
0000
0000
0000
0000
0000
0000
0000
0000
0000
0000
0320
0000
0000
0000
0000
0000
0000
0000
0000
0000
0000
0000
0000
0000
0000
0000
0000
0000
0000
0000
0130
0000
0000
0000
0010
0000
0000
0000
,
0100
0000
0000
0000
2000
0000
0000
0000
0000
0000
0000
0000
0000
0000
0000
0000
0000
0000
0000
0000
0000
0000
0000
0000
3002
0000
0000
0000
0000
0000
0000
0000
0000
0000
0000
0000
0000
0000
0000
0000
0000
0000
0000
0000
0000
0000
0000
0000
0000
0000
0000
0000
0000
0000
0000
0000
0000
0000
0000
0000
0000
0000
0000
0203
0000
0000
0000
0000
0000
0000
0000
0000
0000
0000
0000
0000
0000
0000
0000
0000
0000
0000
0000
0000
0000
0000
0000
0000
0000
0000
0000
0000
0000
0000
0000
0000
0000
0000
0000
0000
0000
0000
0000
0000
0000
0000
0000
0000
0000
0000
0000
0000
0000
0000
0000
0000
0000
0000
0000
0000
0000
0000
0000
0000
0000
0000
0000
0000
0000
0000
0000
0000
0000
0000
0000
0000
0000
0000
0000
0000
0000
0000
0000
0000
0320
0000
0000
0000
0000
0000
0000
0000
0000
0000
0000
0000
0000
0000
0000
0000
0000
0000
0000
0000
0000
0000
0000
0000
0000
0000
0000
0000
0000
0000
0000
0000
0000
0000
0000
0000
0000
0000
0000
0000
0000
0000
0000
0000
0000
0000
0000
0000
,
0000
0000
0000
0000
,
0130
0000
0000
0000
0010
0000
0100
0010
1000
0000
0001
0000
1000
0000
0100
0000
0010
0000
0001
0000
0100
0000
0010
0000
0100
0000
0001
0000
1000
0000
0100
0000
,
0120
0000
0000
0000
0130
0000
0010
0100
0010
0000
0100
0010
0000
0100
0010
0001
,
1000
0000
0001
1000
0001
0000
1000
0001
1000
0000
0001
1000
0000
0001
1000
0010
,
0100
0000
0010
0100
0010
0000
0100
0010
0100
0000
0010
0100
0001
1000
0010
1000
,
0001
0000
1000
0100
0010
0000
0000
0000
0100
0010
0001
0100
0010
1000
0100
0010
,
0001
0000
0010
0001
0100
0000
0001
0100
0010
0000
0100
0010
0000
0100
0010
1000
,
0001
0000
1000
0001
0010
0000
0001
0010
0100
0000
0010
0100
0000
0010
0100
1000
,
0001
0000
1000
0001
0100
0000
0001
0100
0010
0000
0100
0010
1000
0100
0010
0001
,
1000
0001
1000
0001
0100
0000
0000
0000
0001
0100
0010
1000
0100
0010
0001
0100
,
0000
0000
0020
0000
0230
0000
0302
0000
0023
0000
0001
0000
0130
0000
0010
0100
,
1000
0000
0200
0000
1000
0000
0320
0000
0100
0000
0001
0000
0130
0010
0001
1000
,
0010
0000
2000
0000
3020
0000
0230
0000
0320
0000
0100
0000
1030
0000
0010
1000
,
0001
0000
2000
0000
0001
0000
3200
0000
1000
0000
0010
0000
1300
0100
0010
0001
,
1000
0000
0002
0000
2003
0000
3020
0000
0230
0000
0010
0000
0301
0000
0100
0001
,
1000
0000
0002
0000
1000
0000
0023
0000
0230
0000
0000
0310
0002
0000
0000
1003
,
0002
0000
0000
0103
0020
0000
0000
0130
0002
0000
0000
1003
0002
0000
0000
0013
,
0100
0000
0010
0100
0010
0100
1000
0000
0001
0000
0100
0000
1000
0000
0010
0000
,
0001
0010
1000
0100
0001
0010
1000
0010
,
0002
0000
0000
0000
0000
0000
0000
0000
0000
0000
0000
0000
0000
0000
0000
0000
0000
0000
0000
0000
0000
0000
0000
0000
2000
3003
0000
0000
0000
0000
0000
0000
0000
0000
0000
0000
0000
0000
0000
0000
0000
0000
0000
0000
0000
0000
0000
0000
0000
0000
0000
0000
0000
0000
0000
0000
0000
0000
0000
0000
0000
0000
0000
0000
0000
0000
0000
0000
0000
0000
0000
0000
0001
0000
0000
0000
0000
0000
0000
0000
0000
0000
0000
0000
0100
0000
0000
0000
0000
0000
0000
0000
0000
0000
0000
0000
0000
0000
0000
0000
0000
0000
0000
0000
0000
0000
0000
0000
0100
0000
0000
0000
0000
0000
0000
0000
0000
0000
0000
0000
0010
0000
0000
0000
0000
0000
0000
0000
0000
0000
0000
0000
0000
0000
0000
0000
0000
0000
0000
0000
0000
0000
0000
0000
1002
0000
0000
0000
0000
0000
0000
0000
0000
0000
0000
0000
0000
0000
0000
0000
0000
0000
0000
0000
0000
0000
0000
0000
0000
0000
0000
0000
0000
0000
0000
0000
0000
0000
0000
0000
0000
0000
0000
0000
0000
0000
0000
0000
0000
0000
0000
0000
,
1003
0000
0001
1000
0010
0000
1000
0010
0100
0010
1000
0001
1000
0000
0001
1000
,
0100
0000
1000
0100
0010
0000
0100
0010
0001
1000
0001
0100
0010
0000
0001
0000
,
0010
0000
1000
0000
0100
0000
0010
0000
1000
0000
0010
0100
0010
0001
0010
0100
,
1000
0001
0100
0001
1000
0000
0001
0100
0010
0000
0120
0000
0000
0000
0230
0000
,
0320
0000
2030
0000
3200
0000
1000
0000
0310
0000
0100
0010
0001
0000
0020
0000
,
0001
0000
0230
0000
0010
0000
1000
0000
0310
0100
1000
0001
0100
0000
0002
0000
,
0203
0000
0320
0000
0230
0000
0010
0000
0301
0000
0100
0001
1000
0000
0002
0000
,
1000
0000
0023
0000
0001
0000
0100
0000
0031
0010
0100
1000
0001
0000
2000
0000
,
3002
0000
0203
0000
0320
0000
0100
0000
1030
0000
0010
1000
0001
0000
2000
0000
,
0001
0000
3200
0000
0320
0000
0000
0130
2000
0000
0000
3001
2000
0000
0000
3010
,
0200
0000
0000
0310
2000
0000
0000
3001
2000
0000
0000
3100
0010
0000
0100
0010
,
0100
0010
0001
0000
1000
0000
0010
0000
0001
0000
0100
0000
1000
0000
0100
0000
,
0001
0010
1000
0100
0001
0100
2000
0000
,
0000
0001
0000
0000
0010
0000
0000
0100
,
0000
0000
3001
1000
0020
0100
2030
0010
,
3002
0023
0100
0000
1000
0000
0100
0000
,
0031
0010
0200
2300
3002
0203
0010
2300
,
3200
0320
0001
0230
0302
0203
0001
0320
,
0130
0000
0010
1000
0001
1000
0001
1000
0010
1000
0010
1000
0001
1000
0001
1000
,
0100
1000
0100
1000
0001
1000
0001
1000
0010
1000
0010
1000
0010
0100
0010
0100
,
0010
0100
0002
0000
0100
0000
2003
0000
3002
0000
0023
0000
0230
0000
0302
0000
,
0203
0320
0032
2003
0001
3010
1010
0100
,
1010
0100
1010
0100
1010
0110
1000
0110
,
1000
0110
0001
0010
0100
2000
0100
3002
,
2003
3020
0230
2300
3200
0320
2030
3002
,
1000
0013
0011
0100
0011
0100
0011
0100
,
0011
0110
0001
0110
0001
0110
1000
0001
,
0100
0020
0100
2030
3002
0023
0230
0320
,
1030
0120
0001
0230
1300
1020
0100
2030
,
0010
3002
1000
0023
0130
2002
0000
0000
,
0000
3003
0001
0000
0000
0000
0000
0000
;

//---------------dance-single - ----------------
#NOTES:
     dance-single:
     :
     Medium:
     9:
     0.285744,0.327008,0.140366,0.394778,0.004386,228.000000,212.000000,16.000000,45.000000,0.000000,0.000000,0.285744,0.327008,0.140366,0.394778,0.004386,228.000000,212.000000,16.000000,45.000000,0.000000,0.000000:
// measure 0
0000
0000
0000
0000
,  // measure 1
0000
0000
0000
0000
,  // measure 2
0000
0000
0000
0000
,  // measure 3
0000
0000
0000
0000
,  // measure 4
0000
0000
0000
0000
,  // measure 5
2000
3200
0320
0001
,  // measure 6
0230
0000
0320
0032
0000
0000
1003
0000
,  // measure 7
0002
0203
0320
0100
,  // measure 8
2030
0000
0010
0000
3001
1000
0001
0000
,  // measure 9
2000
3200
0310
0011
,  // measure 10
0002
0000
0203
0320
0000
0030
1010
0000
,  // measure 11
2000
0000
3002
0000
0023
0000
0130
0010
,  // measure 12
0001
0000
1000
0000
0001
1000
0001
0000
,  // measure 13
0000
1000
0010
0000
0200
0000
0010
0000
,  // measure 14
0301
0100
0000
0001
0000
0001
1000
0000
,  // measure 15
0000
0001
1000
0000
0200
0000
0010
0000
,  // measure 16
1300
0100
0000
0010
0000
0100
1000
0000
,  // measure 17
0000
0001
0100
0000
0020
0000
0001
0000
,  // measure 18
0130
0010
0000
0010
2000
0000
0001
0000
,  // measure 19
0100
0001
0010
3001
,  // measure 20
1000
0001
1000
0000
2001
0000
3100
0000
,  // measure 21
1200
0310
0120
0031
,  // measure 22
2002
0000
0000
0000
0000
0000
0000
0000
0000
0000
0000
0000
0000
0000
0000
0000
0000
0000
0000
0000
0000
0000
0000
0000
0000
3003
0000
0000
0000
0000
0000
0000
0000
0000
0000
0000
0000
0000
0000
0000
0000
0000
0000
0000
0000
0000
0000
0000
0000
0000
0000
0000
0000
0000
0000
0000
0000
0000
0000
0000
0000
0000
0000
0000
0000
0000
0000
0000
0000
0000
0000
0000
0001
0000
0000
0000
0000
0000
0000
0000
0000
0000
0000
0000
0000
0000
0000
0000
0000
0000
0000
0000
0000
0000
0000
0000
0000
0000
0000
0000
0000
0000
0000
0000
0000
0000
0000
0000
0100
0000
0000
0000
0000
0000
0000
0000
0000
0000
0000
0000
0000
0000
0000
0000
0000
0000
0000
0000
0000
0000
0000
0000
0000
0000
0000
0000
0000
0000
0000
0000
0000
0000
0000
0000
0120
0000
0000
0000
0000
0000
0000
0000
0000
0000
0000
0000
0000
0000
0000
0000
0000
0000
0000
0000
0000
0000
0000
0000
0000
0000
0000
0000
0000
0000
0000
0000
0000
0000
0000
0000
0000
0000
0000
0000
0000
0000
0000
0000
0000
0000
0000
0000
,  // measure 23
1030
0100
0110
0010
,  // measure 24
0001
0010
0001
0000
1001
0000
0001
0000
,  // measure 25
0100
1000
0010
0002
,  // measure 26
0203
0000
0310
0100
0000
0110
0000
1000
,  // measure 27
0100
0000
0020
0000
0100
0000
0031
0010
,  // measure 28
0000
0001
0000
0001
1000
0000
0000
0001
,  // measure 29
1000
0000
0020
0000
0100
0000
1030
0010
,  // measure 30
0000
0100
0000
0010
1000
0000
0000
0001
,  // measure 31
0010
0000
0200
0000
0001
0000
0310
0100
,  // measure 32
0000
0100
2000
0000
0001
0000
0010
0000
,  // measure 33
0001
0000
0100
0000
3001
0000
1000
0001
,  // measure 34
1000
2001
3010
1020
,  // measure 35
0130
0210
0301
1002
,  // measure 36
0000
0010
0000
0000
0100
0000
0000
1003
,  // measure 37
0000
0000
0001
1000
0002
0000
0023
0000
,  // measure 38
0100
0001
0100
0001
,  // measure 39
0100
0000
0031
0000
0010
0100
0000
0100
,  // measure 40
0010
0000
0001
0000
0001
0100
0000
0010
,  // measure 41
0000
0010
2000
0000
0001
0000
0100
0000
,  // measure 42
0001
0010
0001
3100
,  // measure 43
0100
1000
0000
1000
0100
0000
0010
0000
,  // measure 44
0001
0000
0100
0001
0000
1000
0001
0000
,  // measure 45
0100
0000
1000
0000
0100
1000
0000
0100
,  // measure 46
0000
0002
0000
0103
0001
0000
1000
0000
,  // measure 47
0100
0001
0010
0001
,  // measure 48
0100
1000
0010
0001
,  // measure 49
0010
0001
0000
0010
0000
2000
0000
3001
,  // measure 50
1000
0002
0000
0013
0100
0000
0010
0000
,  // measure 51
0001
1000
0000
1001
0000
0010
0000
0100
,  // measure 52
0000
0010
0000
1000
0000
1020
0000
0000
,  // measure 53
0000
1030
0000
0000
;
