#TITLE:RING A LING;
#SUBTITLE:;
#ARTIST:TIGGY;
#TITLETRANSLIT:;
#SUBTITLETRANSLIT:;
#ARTISTTRANSLIT:;
#CREDIT:;
#BANNER:;
#BACKGROUND:;
#LYRICSPATH:;
#CDTITLE:;
#MUSIC:Ring A Ling.ogg;
#OFFSET:0.000;
#SAMPLESTART:44.656;
#SAMPLELENGTH:12.000;
#SELECTABLE:YES;
#BPMS:0.000=134.360;
#STOPS:;
#BGCHANGES:;

//---------------dance-single - ----------------
#NOTES:
     dance-single:
     :
     Hard:
     8:
     0.474,0.524,0.350,0.000,0.200:
0000
0000
0000
0000
,
0000
0000
0000
0000
,
0000
0000
0000
0000
,
0000
0000
0000
0000
,
0000
0000
0000
0000
,
0000
0000
0000
0000
,
0000
0000
0000
0000
,
0000
0000
0000
0000
,
1000
0000
0100
0000
0001
0100
1000
0000
,
0001
0000
0100
0000
1000
0100
0001
0000
,
1000
0100
0001
0100
0010
0000
0001
1000
,
0001
0100
1000
0001
1000
0100
0001
0000
,
1000
0010
0001
0010
1000
0100
1000
0010
,
1010
0000
0011
1000
1001
0000
0001
1000
,
0001
0010
1000
0010
0100
0000
1000
0001
,
1000
0010
0001
1000
0001
0010
1000
0001
,
1000
0100
0010
0001
0100
0010
1000
0001
,
0000
0101
1000
1100
0000
0000
1000
0001
,
1001
0000
1000
0100
0001
0100
1000
0100
,
0010
0000
0001
0100
1000
0100
0001
0011
,
0000
0100
1000
1010
0000
0010
0100
0101
,
0000
1100
0000
1000
0001
1000
0010
0100
,
1001
0000
0001
0100
1000
0100
0001
0100
,
0010
0000
0010
1000
0100
0001
0100
0010
,
0001
0000
0001
0100
1000
0100
0001
0010
,
1000
0100
0001
1000
,
0001
0100
0001
0100
0001
0000
1000
0000
1100
0000
0000
0000
0100
0000
0001
0000
,
0100
1000
0100
0010
0011
0100
1001
0000
,
0001
0100
0001
0100
0001
0000
1000
0000
1100
0000
0000
0000
0010
0000
0100
0000
,
1000
0100
0010
0001
0100
1000
0100
0000
,
0010
1000
0010
1000
0010
0000
1000
0000
0011
0000
0000
0000
0010
0000
1000
0000
,
0010
0001
0010
0100
1100
0010
1010
0000
,
0010
1000
0010
1000
0010
0000
0100
0000
0101
0000
0000
0000
0100
0000
1000
0000
,
0100
0001
0010
1000
0010
0001
1001
0000
,
1100
0000
0000
1000
0100
0000
0000
0100
0010
0000
0000
0010
0001
0000
0000
0001
,
0100
0000
0000
0100
0010
0000
0000
0010
1000
0000
0000
0000
1001
0000
0000
0000
,
0101
0000
0000
0001
0100
0000
0000
0100
0010
0000
0000
0010
1000
0000
0000
1000
,
0100
0000
0000
0100
0010
0000
0000
0010
0001
0000
0000
0000
1001
0000
0000
0000
,
1010
0000
0000
1000
0010
0000
0000
0010
0100
0000
0000
0100
0001
0000
0000
0001
,
0010
0000
0000
0010
0100
0000
0000
0100
1000
0000
0000
0000
1001
0000
0000
0000
,
0011
0000
0000
0001
0010
0000
0000
0010
0100
0000
0000
0100
1000
0000
0000
1000
,
0010
0000
0000
0010
0100
0000
0000
0100
0001
0000
0000
0000
1001
0000
0000
0000
,
0010
0000
0000
0000
;

//---------------dance-single - ----------------
#NOTES:
     dance-single:
     :
     Medium:
     6:
     0.346,0.419,0.162,0.000,0.000:
0000
0000
0000
0000
,
0000
0000
0000
0000
,
0000
0000
0000
0000
,
0000
0000
0000
0000
,
0000
0000
0000
0000
,
0000
0000
0000
0000
,
0000
0000
0000
0000
,
0000
0000
0000
0000
,
1000
0000
0001
0000
1000
0001
1000
0000
,
0001
0000
1000
0000
0001
1000
0001
0000
,
1000
0000
0001
0100
1000
0000
0000
0000
,
1000
0100
0001
1001
,
1000
0000
0100
0001
0010
0000
1000
0100
,
0010
0001
1001
0000
,
0101
0000
0001
0100
1000
0000
0100
0000
,
0001
0000
0010
1000
0100
0000
0001
0000
,
0010
0000
0001
0000
0100
1000
0010
0001
,
0000
1000
0001
0100
0000
0000
0000
0000
,
0101
0000
0001
0100
1000
0100
0001
1000
,
0001
0000
1000
0100
0001
0100
1000
0001
,
1000
0010
0100
0001
,
1000
1000
0001
1000
,
1001
0000
0001
0010
1000
0010
0001
1000
,
0001
0000
1000
0010
0001
0010
1000
0001
,
1000
0000
0001
0100
1000
0010
0001
0100
,
1000
0010
0001
1000
,
0001
0100
1000
0100
0001
0000
1000
0000
,
0001
1000
0001
0000
1001
0000
1001
0000
,
1000
0100
0001
0100
1000
0000
0001
0000
,
1000
0001
0100
0001
1000
0000
0000
0000
,
0001
0010
1000
0010
0001
0000
1000
0000
,
0001
1000
0001
0000
1001
0000
1001
0000
,
1000
0010
0001
0010
1000
0000
0001
0000
,
1000
0001
1000
0010
1000
0000
0000
0000
,
1000
0000
1000
0100
0010
0000
0010
0001
,
1000
0000
1000
0100
1000
0000
0001
0000
,
1001
0000
0001
0100
0010
0000
1000
0000
,
0001
0000
0010
0100
1000
0000
0001
0000
,
1001
0000
1000
0100
0001
0000
0100
0010
,
0001
0000
0001
0100
1000
0000
0100
0000
,
0110
0000
0010
1000
0100
0000
0010
1000
,
0001
0000
0100
1000
0001
0000
1000
0000
,
0110
0000
0000
0000
;

//---------------dance-single - ----------------
#NOTES:
     dance-single:
     :
     Easy:
     4:
     0.241,0.262,0.125,0.000,0.000:
0000
0000
0000
0000
,
0000
0000
0000
0000
,
0000
0000
0000
0000
,
0000
0000
0000
0000
,
0000
0000
0000
0000
,
0000
0000
0000
0000
,
0000
0000
0000
0000
,
0000
0000
0000
0000
,
1000
1000
0100
0100
,
0010
0010
0001
0001
,
1000
0001
0101
0000
,
0001
0100
1000
0100
,
0001
1000
0100
0010
,
0001
0001
1100
0000
,
1000
0001
0011
1000
,
0010
0100
0001
0001
,
0100
0010
1000
0100
,
0000
0010
0100
0100
0000
0000
0000
0000
,
1000
0100
0001
0100
,
1000
0010
0001
0010
,
1000
1000
0001
0001
,
0100
0110
0000
0000
,
0010
1000
0100
1000
,
0010
0001
0100
0001
,
0010
1000
0100
0001
,
0100
0000
0000
0000
,
1000
1000
1100
0001
,
0100
0010
1000
1000
,
0001
0001
0101
0001
,
0100
0010
1000
0000
,
1000
1000
1010
0001
,
0010
0100
1000
1000
,
0001
0001
0011
0001
,
0100
0010
1000
0000
,
1000
0010
0001
0010
,
0100
0001
1001
0000
,
0001
0010
1000
0010
,
0001
0100
1000
0000
,
1000
0100
0010
1000
,
0100
0010
0001
0011
,
0001
0100
0010
1000
,
0010
0001
0010
0100
,
0001
0000
0000
0000
;

//---------------dance-double - ----------------
#NOTES:
     dance-double:
     :
     Hard:
     1:
     0.198,0.288,0.125,0.000,0.000: // measure 1
00000000
00000000
00000000
00000000
,  // measure 2
00000000
00000000
00000000
00000000
,  // measure 3
00000000
00000000
00000000
00000000
,  // measure 4
00000000
00000000
00000000
00000000
,  // measure 5
00000000
00000000
00000000
00000000
,  // measure 6
00000000
00000000
00000000
00000000
,  // measure 7
00000000
00000000
00000000
00000000
,  // measure 8
00000000
00000000
00000000
00000000
,  // measure 9
00010000
00001000
00000100
00000010
00001000
00000100
00000001
00000100
,  // measure 10
00010000
01000000
00100000
00010000
01000000
00100000
00010000
00100000
,  // measure 11
10000000
01000000
00010000
00001000
00000100
00000000
00000000
00000001
,  // measure 12
00000100
00001000
00010000
00100000
10000000
00010000
01100000
00000000
,  // measure 13
01000000
10000000
00100000
00010000
00001000
00000100
00000010
00001000
,  // measure 14
00001100
00000001
00000101
00001000
00001001
00000001
00000100
00001000
,  // measure 15
00011000
00010000
01000000
00100000
00010000
00000000
10000000
00010000
,  // measure 16
01000000
10000000
01000000
00001000
00000100
00000001
00000110
00000000
,  // measure 17
00000100
00001000
00000010
00000001
00001000
00000001
00000010
00000000
,  // measure 18
00000000
00001010
00010000
00011000
00000000
00000000
00001000
00010000
,  // measure 19
00011000
00000000
00010000
01000000
10000000
01000000
00010000
00001000
,  // measure 20
00010000
00000000
00010000
00001000
00000100
00000001
00000010
00001000
,  // measure 21
00000000
00010000
01000000
10000000
01000000
00010000
01000000
00100000
,  // measure 22
00010000
01000000
00100000
00010000
00100000
10000000
00010000
01000000
,  // measure 23
01010000
00000000
00000000
00000000
;

//---------------dance-double - ----------------
#NOTES:
     dance-double:
     :
     Medium:
     1:
     0.000,0.000,0.000,0.000,0.000: // measure 1
00000000
00000000
00000000
00000000
;

//---------------dance-double - ----------------
#NOTES:
     dance-double:
     :
     Easy:
     1:
     0.000,0.000,0.000,0.000,0.000:
00000000
00000000
00000000
00000000
;

//---------------dance-single - Copied from----------------
#NOTES:
     dance-single:
     Copied from:
     Edit:
     8:
     0.514,0.524,0.374,0.062,0.169:
0000
0000
0000
0000
,
0000
0000
0000
0000
,
0000
0000
0000
0000
,
0000
0000
0000
0000
,
0000
0000
0000
0000
,
0000
0000
0000
0000
,
0000
0000
0000
0000
,
0000
0000
0000
0000
,
1000
0000
0001
0000
1000
0000
0001
1000
0000
0001
1000
0000
0010
0000
0010
0000
,
1000
0000
0001
0000
1000
0000
0001
1000
0000
0001
1000
0000
0100
0000
0100
0000
,
1000
0100
0001
0100
0010
0000
0001
1000
,
0001
0100
1000
0001
1000
0100
0001
0000
,
1000
0010
0001
0010
1000
0100
1000
0010
,
1010
0000
0011
1000
1001
0000
0001
1000
,
0001
0010
1000
0010
0100
0000
1000
0001
,
1000
0010
0001
1000
0001
0010
1000
0001
,
1000
0100
0010
0001
0100
0010
1000
0001
,
0100
0000
0010
0000
1000
0010
0000
0010
0100
0000
0001
1000
0001
0000
1000
0000
,
1001
0000
1000
0100
0001
0100
1000
0100
,
0010
0000
0001
0100
1000
0100
0001
0011
,
0000
0100
1000
1010
0000
0010
0100
0101
,
0000
1200
0000
0000
0301
0100
1000
0001
,
1001
0000
0001
0100
1000
0100
0001
0100
,
0010
0000
0010
1000
0100
0001
0100
0010
,
0001
0000
0001
0100
1000
0100
0001
0010
,
2000
3200
0302
2003
,
3001
0100
0001
0100
0001
0000
1000
0000
1100
0000
0000
0000
0100
0000
0001
0000
,
0100
1000
0100
0010
0011
0100
1001
0000
,
0001
0100
0001
0100
0001
0000
1000
0000
1100
0000
0000
0000
0010
0000
0100
0000
,
1000
0100
0010
0001
0100
1000
0100
0000
,
0010
1000
0010
1000
0010
0000
1000
0000
0011
0000
0000
0000
0010
0000
1000
0000
,
0010
0001
0010
1000
0010
0100
1000
0000
,
0010
1000
0010
1000
0010
0000
0100
0000
0101
0000
0000
0000
0100
0000
1000
0000
,
0100
0001
0010
1000
0010
0001
1001
0000
,
1100
0000
0000
1000
0100
0000
0000
0100
0010
0000
0000
0010
0001
0000
1000
0000
,
0100
1000
0001
0100
0110
0001
0011
0000
,
0101
0000
0000
0001
0100
0000
0000
0100
0010
0000
0000
0010
1000
0000
0100
0000
,
0001
0100
0010
0001
0101
1000
1100
0000
,
1010
0000
0000
1000
0010
0000
0000
0010
0100
0000
0000
0100
0001
0000
1000
0000
,
0010
1000
0100
0010
0011
1000
0101
0000
,
0011
0000
0000
0001
0010
0000
0000
0010
0100
0000
0000
0100
1000
0000
0010
0000
,
0001
0010
0110
1001
0110
0000
1001
0000
,
0010
0000
0000
0000
;
