#TITLE:Pizza Dance;
#SUBTITLE:;
#ARTIST:Lolita;
#TITLETRANSLIT:;
#SUBTITLETRANSLIT:;
#ARTISTTRANSLIT:;
#GENRE:;
#CREDIT:;
#BANNER:Pizza Dance-bn.png;
#BACKGROUND:Pizza Dance-bg.png;
#LYRICSPATH:;
#CDTITLE:;
#MUSIC:Pizza Dance.ogg;
#OFFSET:1.408;
#SAMPLESTART:44.780;
#SAMPLELENGTH:12.000;
#LASTBEATHINT:0.996;
#SELECTABLE:YES;
#DISPLAYBPM:150.000;
#BPMS:0.000=150.100,213.000=155.000,214.000=150.100;
#STOPS:;
#TIMESIGNATURES:0.000=4=4
;
#BGCHANGES:;
#KEYSOUNDS:;

//---------------dance-single - ----------------
#NOTES:
     dance-single:
     :
     Hard:
     8:
     0.525,0.534,0.000,0.082,0.200,351.000,0.000,8.000,0.000,0.000,0.000,0.525,0.534,0.000,0.082,0.200,351.000,0.000,8.000,0.000,0.000,0.000:
0000
0000
0000
0000
,
0000
0000
0000
0000
,
0000
0000
0000
0000
,
0000
0000
0000
0000
,
0000
0000
0000
0000
,
0001
0000
1000
0000
0010
0000
0100
0010
0000
0000
0100
0000
0100
0000
0000
0000
,
0001
0000
0010
0000
0001
0000
1000
0000
0100
0000
0010
0100
0000
0000
0000
0000
,
1000
0000
0010
0000
0100
0000
0001
0100
0000
0000
0010
0000
0010
0000
0000
0000
,
1000
0000
0001
0010
0001
0000
1000
0000
0001
0010
0001
0000
1000
0000
0100
0010
,
0100
0000
1000
0000
0100
0000
0010
0100
0000
0000
0010
0000
0010
0000
0000
0000
,
0001
0000
0100
0000
0001
0000
1000
0000
0010
0000
0100
0010
0000
0000
0000
0000
,
1000
0000
0100
0000
0010
0000
0001
0010
0000
0000
0100
0000
0100
0000
0000
0000
,
1000
0000
0001
0100
0001
0000
1000
0000
0001
0100
0001
0000
1000
0000
0010
0100
,
0010
0000
1000
0000
0100
0100
0000
0010
,
0001
1000
0001
0010
0000
0001
0001
1000
,
0010
0000
0100
0000
0010
0010
0000
1000
,
0100
0000
1000
0000
0001
0000
0010
0001
0000
0000
0000
0000
0000
0000
0000
0000
,
0100
0000
0001
0000
0010
0010
0000
0100
,
1000
0001
1000
0100
0000
1000
1000
0001
,
0100
0000
0010
0000
0100
0100
0000
0001
,
0010
0000
0001
0000
1000
0000
0100
1000
0000
0000
0000
0000
0000
0000
0000
0000
,
0001
0100
0010
1000
0000
0010
0000
1000
,
0100
0010
0001
1000
0000
0001
0010
0001
,
0100
0010
1000
0010
0000
0100
0000
0001
,
1000
0000
0100
0000
0010
0000
0100
0000
0000
1000
0100
0000
1000
0000
0001
0000
,
1000
0010
0100
0001
0000
0100
0000
0001
,
0010
0100
1000
0001
0000
1000
0100
1000
,
0000
0000
0001
0000
0001
0100
0001
0010
,
0001
0000
0001
0000
0002
0000
0000
0203
,
0000
0010
0010
0310
0100
0001
0000
1000
,
0000
0100
0010
0100
1000
0001
0000
1000
,
0000
0010
1000
0100
1000
0001
0000
0010
,
0001
0000
0100
0000
0010
0000
1000
0100
0000
0000
1000
0000
0000
0000
0020
0000
,
0000
0100
0100
0130
0010
1000
0000
0001
,
0000
0010
0100
0010
0001
1000
0000
0001
,
0000
0000
0100
0000
0001
0000
0010
0000
0001
0000
1000
0000
0100
1000
0000
0100
,
0000
1000
0010
0200
0000
0000
0000
0320
,
0000
0100
0100
0130
0010
1000
0000
0001
,
0000
0010
0100
0010
0001
1000
0000
0001
,
0000
0100
0001
0010
0001
1000
0000
0100
,
1000
0000
0010
0000
0100
0000
0001
0010
0000
0000
0001
0000
0000
0000
0200
0000
,
0000
0010
0010
0310
0100
0001
0000
1000
,
0000
0100
0010
0100
1000
0001
0000
1000
,
0000
0000
0010
0000
1000
0000
0100
0000
1000
0000
0001
0000
0010
0001
0000
0010
,
0000
0001
0100
0020
0000
0000
0000
0000
,
1030
0000
0001
0000
0100
0000
0010
0100
0000
0000
0010
0000
0010
0000
0000
0000
,
1000
0000
0100
0000
1000
0000
0001
0000
0010
0000
0100
0010
0000
0000
0000
0000
,
0001
0000
0100
0000
0010
0000
1000
0010
0000
0000
0100
0000
0100
0000
0000
0000
,
0001
0000
1000
0100
1000
0000
0001
0000
1000
0100
1000
0000
0001
0000
0010
0100
,
0010
0000
0001
0000
0010
0000
0100
0010
0000
0000
0100
0000
0100
0000
0000
0000
,
1000
0000
0010
0000
1000
0000
0001
0000
0100
0000
0010
0100
0000
0000
0000
0000
,
0001
0000
0010
0000
0100
0000
1000
0100
0000
0000
0010
0000
0010
0000
0000
0000
,
0001
0000
1000
0010
1000
0000
0001
0000
1000
0010
1000
0000
0001
0000
0100
0010
,
0100
0000
0001
0000
0100
0000
0010
0100
0000
0000
0010
0000
0010
0000
0000
0000
,
1000
0000
0100
0000
1000
0000
0001
0000
0010
0000
0100
0010
0000
0000
0000
0000
,
0001
0000
0100
0000
0010
0000
1000
0010
0000
0000
0100
0000
0100
0000
0000
0000
,
0001
0000
1000
0100
1000
0000
0001
0000
1000
0100
1000
0000
0001
0000
0010
0100
,
0020
0000
0000
0000
,
0030
0000
0000
0000
;

//---------------dance-single - ----------------
#NOTES:
     dance-single:
     :
     Challenge:
     9:
     0.649,0.742,0.092,0.072,0.624,428.000,9.000,7.000,0.000,0.000,0.000,0.649,0.742,0.092,0.072,0.624,428.000,9.000,7.000,0.000,0.000,0.000:
0000
0000
0000
0000
,
0000
0000
0000
0000
,
0000
0000
0000
0000
,
0000
0000
0000
0000
,
0000
0000
0000
0000
,
0000
0001
1000
0001
0100
0000
0010
0100
0000
0010
1000
0001
1000
0100
0000
0000
,
0000
0010
0100
1000
0100
0000
0010
0000
0001
0010
0100
1000
0000
0000
0000
0000
,
0000
0001
1000
0001
0100
0000
0010
0100
0000
0010
1000
0001
1000
0100
0000
0000
,
1000
0100
1000
0100
0010
0000
0001
0100
0001
0100
0010
0000
1000
0100
1000
0100
,
0000
1000
0001
1000
0010
0000
0100
0010
0000
0100
0001
1000
0001
0010
0000
0000
,
0000
0100
0010
0001
0010
0000
0100
0000
1000
0100
0010
0001
0000
0000
0000
0000
,
0000
1000
0001
1000
0010
0000
0100
0010
0000
0100
0001
1000
0001
0010
0000
0000
,
0001
0010
0001
0010
0100
0000
1000
0010
1000
0010
0100
0000
0001
0010
0001
0010
,
0100
0000
1000
0000
0010
0010
0000
0100
,
0001
0010
0001
1000
0000
0100
1000
0010
,
0100
0000
0001
0000
0010
0010
0000
0100
,
1000
0000
0010
0000
1000
0000
0100
0010
0000
0100
0010
0000
0001
0000
1000
0000
,
0010
0000
1000
0000
0100
0100
0000
0010
,
0001
0100
0001
1000
0000
0010
1000
0100
,
0010
0000
0001
0000
0100
0100
0000
0010
,
1000
0000
0100
0000
1000
0000
0010
0100
0000
0010
0100
0000
0001
0000
1000
0000
,
0001
0100
0010
1000
0000
0100
0000
1000
,
0100
0010
0001
0100
0000
0001
0010
0001
,
0100
0010
1000
0100
0000
0010
0000
0100
,
1000
0000
0010
0000
0100
0000
0010
0000
0000
0100
0001
0000
1001
0000
1000
0000
,
0001
0010
0100
1000
0000
0010
0000
1000
,
0100
0010
0001
0100
0000
0010
0100
0001
,
0000
0000
1001
0000
1010
1000
0100
0010
,
0011
0000
0000
0000
1001
0000
0000
0001
0100
0000
0010
0000
0010
0000
0200
0000
,
0000
0001
0001
0001
0010
0301
0000
0101
,
0000
0100
0001
1000
0100
0010
0000
0001
,
0000
1000
0100
1000
0010
0100
0000
0001
,
1000
0000
0100
0000
0010
0000
0100
1000
0000
0000
0001
0000
1000
0000
0200
0000
,
0000
1000
1000
1000
0010
1300
0000
1100
,
0000
0100
1000
0001
0100
0010
0000
1000
,
0000
0000
0001
0000
0100
0000
0001
0000
0010
0000
0100
0000
1000
0010
0000
0010
,
0000
0100
0010
2000
0000
0000
0000
3020
,
0000
1000
1000
1000
0100
1030
0000
1010
,
0000
0010
1000
0001
0010
0100
0000
1000
,
0000
0001
0010
0001
0100
0010
0000
1000
,
0001
0000
0010
0000
0100
0000
0010
0001
0000
0000
1000
0000
0001
0000
0020
0000
,
0000
0001
0001
0001
0100
0031
0000
0011
,
0000
0010
0001
1000
0010
0100
0000
0001
,
0000
0000
1000
0000
0010
0000
1000
0000
0100
0000
0010
0000
0001
0100
0000
0100
,
0000
0010
0100
0002
0000
0000
0000
0000
,
0003
1000
0001
1000
0010
0000
0100
0010
0000
0100
0001
1000
0001
0010
0000
0000
,
0000
0100
0010
0001
0010
0000
0100
0000
1000
0100
0010
0001
0000
0000
0000
0000
,
0000
1000
0001
1000
0010
0000
0100
0010
0000
0100
0001
1000
0001
0010
0000
0000
,
0001
0010
0001
0010
0100
0000
1000
0010
1000
0010
0100
0000
0001
0010
0001
0010
,
0000
0001
1000
0001
0100
0000
0010
0100
0000
0010
1000
0001
1000
0100
0000
0000
,
0000
0010
0100
1000
0100
0000
0010
0000
0001
0010
0100
1000
0000
0000
0000
0000
,
0000
0001
1000
0001
0100
0000
0010
0100
0000
0010
1000
0001
1000
0100
0000
0000
,
1000
0100
1000
0100
0010
0000
0001
0100
0001
0100
0010
0000
1000
0100
1000
0100
,
0000
0010
0001
1000
0100
0000
0010
0100
0000
0010
0001
1000
0001
0100
0000
0000
,
0000
0010
0100
0001
0100
0000
0010
0000
1000
0010
0100
0001
0000
0000
0000
0000
,
0000
1000
0001
1000
0100
0000
0010
0100
0000
0010
0001
1000
0001
0100
0000
0000
,
0001
0100
0001
0100
0010
0000
1000
0100
1000
0100
0010
0000
0001
0010
0100
2000
,
0000
0000
0000
0000
,
3000
0000
0000
0000
;

//---------------dance-single - ----------------
#NOTES:
     dance-single:
     :
     Medium:
     7:
     0.399,0.386,0.000,0.020,0.107,271.000,0.000,2.000,0.000,0.000,0.000,0.399,0.386,0.000,0.020,0.107,271.000,0.000,2.000,0.000,0.000,0.000:
0000
0000
0000
0000
,
0000
0000
0000
0000
,
0000
0000
0000
0000
,
0000
0000
0000
0000
,
0000
0000
0000
0000
,
0001
0000
0010
0000
0001
0000
0000
1000
0000
0000
0001
0000
0010
0000
0000
0000
,
0100
0000
1000
0000
0100
0000
0000
0000
1000
0000
0000
0010
0000
0000
0000
0000
,
1000
0000
0100
0000
1000
0000
0000
0001
0000
0000
1000
0000
0100
0000
0000
0000
,
1000
0000
0000
1000
0000
0000
1000
0000
,
0001
0000
0100
0000
0001
0000
0000
1000
0000
0000
0001
0000
0100
0000
0000
0000
,
0010
0000
1000
0000
0010
0000
0000
0000
1000
0000
0000
0100
0000
0000
0000
0000
,
1000
0000
0010
0000
1000
0000
0000
0001
0000
0000
1000
0000
0100
0000
0000
0000
,
1000
0000
0000
1000
0000
0000
1000
0000
,
0001
0000
0010
0000
0001
0001
0000
0000
,
1000
0010
1000
0010
0000
0000
0000
0000
,
1000
0000
0100
0000
1000
1000
0000
0000
,
0010
0000
0100
0000
0010
0000
0000
0010
0000
0000
0000
0000
0000
0000
0000
0000
,
1000
0000
0100
0000
1000
1000
0000
0000
,
0001
0100
0001
0100
0000
0000
0000
0000
,
0001
0000
0010
0000
0001
0001
0000
0000
,
0100
0000
0010
0000
0100
0000
0000
0100
0000
0000
0000
0000
0000
0000
0000
0000
,
0001
0010
0001
0010
0000
0000
0001
0000
,
1000
0010
1000
0010
0000
1000
0000
0000
,
0001
0100
0001
0100
0000
0000
0001
0000
,
1000
0100
1000
0100
0000
1000
0000
0000
,
0001
0010
0001
1000
0000
0000
0001
0000
,
1000
0010
1000
0001
0000
1000
0100
1000
,
0000
0000
0001
0000
0001
0100
0001
0010
,
0001
0000
0001
0000
0002
0000
0000
1003
,
0000
0100
0010
0100
0010
0100
0000
1000
,
0000
0010
0100
0010
0100
0010
0000
1000
,
0000
0001
0010
0001
0010
0001
0000
1000
,
0001
0000
0100
0000
0001
0000
0000
0100
0000
0000
0100
0000
0000
0000
0001
0000
,
0000
0100
0010
0100
0010
0100
0000
0001
,
0000
0010
0100
0010
0100
0010
0000
0001
,
0000
0000
1000
0000
0010
0000
1000
0000
0010
0000
1000
0000
0100
0000
0000
0100
,
0000
0000
1000
0100
0000
0000
0000
1000
,
0000
0100
0010
0001
0010
0100
0000
1000
,
0000
0010
0100
0001
0100
0010
0000
1000
,
0000
0001
0010
0100
0010
0001
0000
1000
,
0001
0000
0100
0000
0001
0000
0000
0100
0000
0000
0100
0000
0000
0000
0001
0000
,
0000
0100
0010
1000
0010
0100
0000
0001
,
0000
0010
0100
1000
0100
0010
0000
0001
,
0000
0000
1000
0000
0010
0000
0100
0000
0010
0000
1000
0000
0100
0000
0000
0100
,
0000
0000
1000
0100
0000
0000
0000
0000
,
1000
0000
0100
0000
1000
0000
0000
0001
0000
0000
1000
0000
0100
0000
0000
0000
,
0010
0000
0001
0000
0010
0000
0000
0000
0001
0000
0000
0100
0000
0000
0000
0000
,
0001
0000
0010
0000
0001
0000
0000
1000
0000
0000
0001
0000
0010
0000
0000
0000
,
0001
0100
0000
0001
0100
0000
0001
0000
,
1000
0000
0010
0000
1000
0000
0000
0001
0000
0000
1000
0000
0010
0000
0000
0000
,
0100
0000
0001
0000
0100
0000
0000
0000
0001
0000
0000
0010
0000
0000
0000
0000
,
0001
0000
0100
0000
0001
0000
0000
1000
0000
0000
0001
0000
0010
0000
0000
0000
,
0001
0010
0000
0001
0010
0000
0001
0000
,
1000
0000
0010
0000
1000
0000
0000
0001
0000
0000
1000
0000
0010
0000
0000
0000
,
0100
0000
0001
0000
0100
0000
0000
0000
0001
0000
0000
0010
0000
0000
0000
0000
,
0001
0000
0100
0000
0001
0000
0000
1000
0000
0000
0001
0000
0100
0000
0000
0000
,
0001
0010
0000
0001
0010
0000
0001
0000
,
2000
0000
0000
0000
,
3000
0000
0000
0000
;

//---------------dance-single - ----------------
#NOTES:
     dance-single:
     :
     Easy:
     4:
     0.250,0.237,0.000,0.020,0.000,169.000,0.000,2.000,0.000,0.000,0.000,0.250,0.237,0.000,0.020,0.000,169.000,0.000,2.000,0.000,0.000,0.000: // measure 1
0000
0000
0000
0000
,  // measure 2
0000
0000
0000
0000
,  // measure 3
0000
0000
0000
0000
,  // measure 4
0000
0000
0000
0000
,  // measure 5
0000
0000
0000
0000
,  // measure 6
0001
0010
0001
0000
,  // measure 7
1000
0010
1000
0000
,  // measure 8
0001
0010
0001
0000
,  // measure 9
1000
0000
0000
1000
0000
0000
1000
0000
,  // measure 10
0001
0100
0001
0000
,  // measure 11
1000
0100
1000
0000
,  // measure 12
0001
0100
0001
0000
,  // measure 13
1000
0000
0000
1000
0000
0000
1000
0000
,  // measure 14
0010
0010
0010
0000
,  // measure 15
0100
0100
0100
0000
,  // measure 16
0010
0010
0010
0000
,  // measure 17
1000
1000
1000
0000
,  // measure 18
0100
0100
0100
0000
,  // measure 19
0010
0010
0010
0000
,  // measure 20
0100
0100
0100
0000
,  // measure 21
1000
1000
1000
0000
,  // measure 22
0001
1000
0000
0001
,  // measure 23
1000
0001
0000
0100
,  // measure 24
0010
0100
0000
0001
,  // measure 25
1000
0001
0001
0000
,  // measure 26
1000
0001
0000
0010
,  // measure 27
0100
0010
0000
0001
,  // measure 28
1000
0001
1000
0010
,  // measure 29
1000
1000
2000
0000
,  // measure 30
3001
0000
0100
0000
0010
0010
0000
0000
,  // measure 31
1000
0000
0001
0000
0010
0010
0000
0000
,  // measure 32
0001
0000
1000
0000
0100
0100
0000
0000
,  // measure 33
1000
0010
1000
0000
,  // measure 34
0001
0000
0010
0000
0100
0100
0000
0000
,  // measure 35
1000
0000
0001
0000
0100
0100
0000
0000
,  // measure 36
0001
0000
1000
0000
0010
0010
0000
0000
,  // measure 37
1000
0100
1000
0000
,  // measure 38
0001
0000
0010
0000
0100
0100
0000
0000
,  // measure 39
1000
0000
0001
0000
0100
0100
0000
0000
,  // measure 40
0001
0000
1000
0000
0010
0010
0000
0000
,  // measure 41
1000
0100
1000
0000
,  // measure 42
0001
0000
0100
0000
0010
0010
0000
0000
,  // measure 43
1000
0000
0001
0000
0010
0010
0000
0000
,  // measure 44
0001
0000
1000
0000
0100
0100
0000
0000
,  // measure 45
1000
0010
1000
0000
,  // measure 46
0001
0010
0100
0000
,  // measure 47
1000
0010
0100
0000
,  // measure 48
0001
0010
0100
0000
,  // measure 49
1000
0000
0000
0010
0000
0000
1000
0000
,  // measure 50
0001
0100
0010
0000
,  // measure 51
1000
0100
0010
0000
,  // measure 52
0001
0100
0010
0000
,  // measure 53
1000
0000
0000
0100
0000
0000
1000
0000
,  // measure 54
0001
0100
0010
0000
,  // measure 55
1000
0100
0010
0000
,  // measure 56
0001
0100
0010
0000
,  // measure 57
1000
0000
0000
0100
0000
0000
0020
0000
,  // measure 58
0000
0000
0000
0000
,  // measure 59
0030
0000
0000
0000
;

//---------------dance-single - ----------------
#NOTES:
     dance-single:
     :
     Beginner:
     1:
     0.120,0.145,0.000,0.051,0.000,77.000,0.000,5.000,0.000,0.000,0.000,0.120,0.145,0.000,0.051,0.000,77.000,0.000,5.000,0.000,0.000,0.000:
0000
0000
0000
0000
,
0000
0000
0000
0000
,
0000
0000
0000
0000
,
0000
0000
0000
0000
,
0000
0000
0000
0000
,
0001
0000
0000
0000
,
0100
0000
0000
0000
,
0001
0000
0000
0000
,
2000
0000
3000
0000
,
0001
0000
0000
0000
,
0010
0000
0000
0000
,
0001
0000
0000
0000
,
2000
0000
3000
0000
,
0010
0010
0010
0000
,
0100
0000
0100
0000
,
0010
0010
0010
0000
,
0100
0000
0100
0000
,
0001
0001
0001
0000
,
1000
0000
1000
0000
,
0001
0001
0001
0000
,
1000
0000
1000
0000
,
0100
0100
0000
0000
,
1000
1000
0000
0000
,
0001
0001
0000
0000
,
1000
0000
1000
0000
,
0010
0010
0000
0000
,
1000
1000
0000
0000
,
0001
0000
0001
0000
,
0010
0010
0010
0000
,
0100
0000
0000
0000
,
0100
0000
0000
0000
,
1000
0000
0000
0000
,
0001
0000
0001
0000
,
1000
0000
0000
0000
,
1000
0000
0000
0000
,
0010
0000
0000
0000
,
0100
0000
0100
0000
,
0001
0000
0000
0000
,
0001
0000
0000
0000
,
1000
0000
0000
0000
,
0001
0000
0001
0000
,
0010
0000
0000
0000
,
0100
0000
0000
0000
,
1000
0000
0000
0000
,
0001
0000
0001
0000
,
1000
0000
0000
0000
,
0100
0000
0000
0000
,
1000
0000
0000
0000
,
0002
0000
0003
0000
,
1000
0000
0000
0000
,
0010
0000
0000
0000
,
1000
0000
0000
0000
,
0002
0000
0003
0000
,
1000
0000
0000
0000
,
0100
0000
0000
0000
,
0010
0000
0000
0000
,
0002
0000
0003
0000
;
