#TITLE:One More Time;
#SUBTITLE:;
#ARTIST:Daft Punk;
#TITLETRANSLIT:;
#SUBTITLETRANSLIT:;
#ARTISTTRANSLIT:;
#GENRE:;
#CREDIT:;
#BANNER:One More Time.png;
#BACKGROUND:One More Time-bg.png;
#LYRICSPATH:;
#CDTITLE:;
#MUSIC:One More Time.ogg;
#OFFSET:0.000000;
#SAMPLESTART:16.600000;
#SAMPLELENGTH:15.000000;
#SELECTABLE:YES;
#DISPLAYBPM:123.000000;
#BPMS:0.000000=122.874001
;
#STOPS:
;
#BGCHANGES:;
#KEYSOUNDS:;
#ATTACKS:;

//---------------dance-single - ----------------
#NOTES:
     dance-single:
     :
     Hard:
     7:
     0.374178,0.424959,0.062363,0.115817,0.106908,294.000000,287.000000,7.000000,13.000000,0.000000,0.000000,0.374178,0.424959,0.062363,0.115817,0.106908,294.000000,287.000000,7.000000,13.000000,0.000000,0.000000:
0000
0000
0000
0000
,
0000
0000
0000
0000
,
0000
0000
0000
0000
,
0000
0000
0000
0000
,
0000
0000
0000
0000
,
0010
0000
0010
0000
,
0010
0000
0000
0000
0000
0100
0000
0000
,
0001
0000
0000
0001
0010
0000
0000
0001
0010
0000
0000
0001
0010
0000
0000
0001
,
0010
0000
0000
0001
0010
0000
0000
0001
0010
0000
0002
0000
0100
0000
0000
0000
,
0103
0000
0010
1000
0100
0000
0010
1000
,
0100
0000
0010
1000
0000
0100
0010
0001
,
0100
0000
0010
0100
0001
0000
0010
0100
,
0001
0000
0010
0100
0000
0001
0100
0010
,
0100
0000
0010
1000
0100
0000
0010
1000
,
0100
0000
0010
1000
0000
0010
0100
0001
,
0010
0000
0000
0010
0100
0000
0000
0010
0100
0000
0000
0010
0100
0000
0000
0010
,
0100
0000
0000
0010
0100
0000
0000
0010
0100
0000
0020
0000
0000
0000
0000
0000
,
0031
0100
0001
0010
0001
0001
1000
0020
,
0000
0130
0001
0010
0001
0100
0010
0010
,
0100
0000
0000
0001
2000
0000
0000
0000
3001
0000
0000
1000
0002
0000
0000
0000
,
1003
0010
0100
0001
0010
0010
0001
0100
,
0010
0000
0110
0000
0100
0001
0010
0001
,
0000
0100
0010
1000
0100
1000
0010
0100
,
0010
0000
0000
0010
2000
0000
0000
0000
3100
0000
0000
1000
0020
0000
0000
0000
,
0130
0001
0010
0001
0100
0100
0001
0001
,
2000
0000
3100
1000
0010
0010
0100
0001
,
0000
0100
0010
1000
0100
0010
0001
0100
,
0010
0000
0000
0010
0200
0000
0000
0000
0310
0000
0000
0100
0020
0000
0000
0000
,
0130
0010
1000
0100
1000
0010
0100
0100
,
0002
0000
0013
0001
0100
1000
0100
0010
,
0000
0010
1000
0100
1000
0010
0100
0001
,
0010
0010
0100
0000
,
0000
0000
1100
0101
,
1001
0000
0001
1000
0010
0000
0001
1000
,
0010
0000
0010
0100
0010
1000
0000
0100
,
1000
0000
0010
1000
0100
0000
0010
1000
,
0100
0000
1000
0001
0100
0010
0000
0010
,
0100
0000
0100
0001
0010
0000
0100
0001
,
0010
0001
0100
0010
0000
1010
0000
0100
,
1100
0000
0000
0100
1000
0000
0000
1000
0010
0000
0000
0010
0100
0000
0000
0100
,
0001
0000
0000
0001
0010
0000
0000
0010
0001
0000
0100
0000
0000
0000
0010
0000
,
1000
0100
1000
0010
0100
0100
0010
0100
,
0001
0010
0001
0100
0010
0010
1000
0100
,
1000
0010
0100
0001
0001
0010
0001
0100
,
0100
0010
1000
0010
0001
0010
0100
0100
,
0001
0010
0001
0100
0010
1000
0100
0010
,
0001
0100
0010
1000
0100
0100
1000
0010
,
0100
0001
0010
0010
0001
0100
0010
0010
,
1000
1000
0100
0100
1000
0010
0100
0000
,
0220
0000
0000
0000
,
0000
0000
0000
0000
,
0000
0000
0000
0000
,
0000
0000
0000
0000
,
0330
0000
0000
0000
;

//---------------dance-single - ----------------
#NOTES:
     dance-single:
     :
     Medium:
     6:
     0.258361,0.377742,0.124726,0.106908,0.000000,203.000000,189.000000,14.000000,12.000000,0.000000,0.000000,0.258361,0.377742,0.124726,0.106908,0.000000,203.000000,189.000000,14.000000,12.000000,0.000000,0.000000:
0000
0000
0000
0000
,
0000
0000
0000
0000
,
0000
0000
0000
0000
,
0000
0000
0000
0000
,
0000
0000
0000
0000
,
0010
0000
0010
0000
,
0010
0000
0000
0000
0000
0100
0000
0000
,
1010
0000
0011
0000
,
0101
0000
0110
0100
,
1001
0000
0001
0010
0001
0000
0100
0001
,
0100
0000
0100
0000
0010
0010
0000
0000
,
0010
0000
1000
0010
1000
0000
0100
0010
,
0100
0000
1000
0000
0001
0001
0000
0000
,
0100
0000
0010
0100
0010
0000
1000
0100
,
1000
0000
0010
0000
0100
0100
0000
0000
,
0102
0010
0100
0010
,
0100
0000
0010
0000
0103
1000
0000
0000
,
0110
0000
0000
0000
0010
1000
0010
0000
,
0010
0000
0000
0000
0100
0010
0100
0010
,
0100
0001
0010
0100
,
1000
0000
0010
0000
0100
0010
0100
0000
,
0201
0000
0010
0010
,
0310
0000
1000
0000
0100
1000
0100
0000
,
1000
0002
0103
0200
,
0310
0000
0010
0000
0100
0001
0100
0000
,
0010
0000
0000
0000
0020
0000
0000
1030
,
0000
0000
0010
0000
1000
0100
1000
0000
,
0001
0200
0310
0020
,
1030
0100
1000
0010
,
0200
0000
0010
0010
,
0310
0000
1000
0000
0100
0010
0100
0000
,
0010
0001
0100
0000
,
0000
0000
1000
0100
,
0110
0000
0000
0100
0010
0000
0000
0100
,
0010
0010
0100
0001
,
0010
0000
0000
0001
0010
0000
0000
0001
,
0010
0001
0100
0100
,
0010
0000
0000
1000
0010
0000
0000
1000
,
0010
0010
0100
0001
,
0012
0100
0010
0100
,
0010
0000
0100
0000
0013
0001
0000
0000
,
0200
0000
0310
0000
0010
1000
0010
0000
,
0100
0000
0001
0000
0010
0001
0100
0000
,
0110
0000
0010
1000
0010
0000
0100
0010
,
0100
0000
0001
0010
0001
0000
0101
0000
,
0100
0000
0110
0000
0010
1000
0100
0000
,
1000
0000
1000
0000
0010
0100
0001
0010
,
0001
0001
1000
0000
1000
1000
0001
0000
,
0001
0100
0010
1000
0100
0010
0100
1000
,
2002
0000
0000
0000
,
0000
0000
0000
0000
,
0000
0000
0000
0000
,
0000
0000
0000
0000
,
3003
0000
0000
0000
;

//---------------dance-single - ----------------
#NOTES:
     dance-single:
     :
     Easy:
     3:
     0.169271,0.236089,0.026727,0.062363,0.000000,133.000000,130.000000,3.000000,7.000000,0.000000,0.000000,0.169271,0.236089,0.026727,0.062363,0.000000,133.000000,130.000000,3.000000,7.000000,0.000000,0.000000:
0000
0000
0000
0000
,
0000
0000
0000
0000
,
0000
0000
0000
0000
,
0000
0000
0000
0000
,
0000
0000
0000
0000
,
1000
0000
0000
0000
,
0001
0000
0000
0000
,
0202
0000
0000
0000
,
0000
0300
0100
0100
,
0103
0000
0010
0000
,
0100
0100
0001
0000
,
0010
0000
0001
0000
,
0010
0010
0100
0000
,
1000
0000
1000
0000
,
0010
0010
0100
0000
,
0001
1000
0001
1000
,
0001
1000
0001
0000
,
0010
0000
0100
0100
,
0100
0000
0001
0010
,
0100
0000
1000
0000
,
0100
0000
1000
0010
,
0100
0000
0100
0100
,
0100
0001
0010
0010
,
0001
0001
1000
1000
,
0001
0100
0110
0000
,
0010
0010
1000
0000
,
1000
1000
0100
0000
,
1000
0010
0100
0100
,
0010
0000
0010
0010
,
0100
0000
0001
0010
,
0100
0000
1000
0010
,
0200
0000
0020
0000
,
0000
0000
0000
0330
,
0010
1000
0100
0000
,
1000
0010
0100
0000
,
0100
0001
0010
0000
,
0010
0100
1000
0000
,
0010
0100
0001
0000
,
0010
0001
0100
0000
,
0010
1000
0100
1000
,
0010
0100
0001
0000
,
0010
0001
0100
0100
,
0001
0010
0100
1000
,
0010
0010
0100
0100
,
0010
0100
0010
0010
,
1000
0100
0001
0100
,
1000
0000
0010
0000
0100
0001
0100
0000
,
0001
0001
0020
0000
,
0130
0000
1000
0010
,
0220
0000
0000
0000
,
0000
0000
0000
0000
,
0000
0000
0000
0000
,
0000
0000
0000
0000
,
0330
0000
0000
0000
;

//---------------dance-single - ----------------
#NOTES:
     dance-single:
     :
     Beginner:
     2:
     0.122181,0.165262,0.017818,0.035636,0.000000,96.000000,94.000000,2.000000,4.000000,0.000000,0.000000,0.122181,0.165262,0.017818,0.035636,0.000000,96.000000,94.000000,2.000000,4.000000,0.000000,0.000000:
// measure 0
0000
0000
0000
0000
,  // measure 1
0000
0000
0000
0000
,  // measure 2
0000
0000
0000
0000
,  // measure 3
0000
0000
0000
0000
,  // measure 4
0000
0000
0000
0000
,  // measure 5
1000
0000
0000
0000
,  // measure 6
0001
0000
0000
0000
,  // measure 7
1001
0000
0000
0000
,  // measure 8
0000
0000
0100
0000
,  // measure 9
0100
0000
0010
0000
,  // measure 10
0010
0000
1000
0000
,  // measure 11
0100
0000
1000
0000
,  // measure 12
0010
0000
0010
0000
,  // measure 13
1000
0000
0001
0000
,  // measure 14
0100
0000
0100
0000
,  // measure 15
0002
0000
0000
0003
,  // measure 16
2000
0000
0000
3000
,  // measure 17
0010
0000
0100
0000
,  // measure 18
0010
0000
0010
0000
,  // measure 19
0100
0000
0001
0000
,  // measure 20
1000
0000
0100
0000
,  // measure 21
1000
1000
1000
0000
,  // measure 22
0001
0001
0001
0000
,  // measure 23
0100
0000
0010
0000
,  // measure 24
0100
0000
0010
0010
,  // measure 25
0010
0000
1000
0000
,  // measure 26
0100
0000
1000
1000
,  // measure 27
1000
0000
0010
0000
,  // measure 28
0100
0000
0001
0001
,  // measure 29
0001
0000
0010
0000
,  // measure 30
0100
0000
0010
0010
,  // measure 31
0010
0000
0001
0000
,  // measure 32
0000
0000
0010
0000
,  // measure 33
0010
0000
0100
0000
,  // measure 34
0010
0010
0010
0000
,  // measure 35
1000
0000
0001
0000
,  // measure 36
1000
1000
1000
0000
,  // measure 37
0100
0000
1000
0000
,  // measure 38
0010
0010
0010
0000
,  // measure 39
0100
0000
0001
0000
,  // measure 40
0100
0000
0010
0000
,  // measure 41
1000
0000
1000
0000
,  // measure 42
0001
0000
1000
1000
,  // measure 43
1000
0000
0010
0000
,  // measure 44
0100
0000
0010
0010
,  // measure 45
0100
0000
0100
0000
,  // measure 46
0001
0000
0010
0010
,  // measure 47
0001
0000
0100
0000
,  // measure 48
0001
0000
1000
0000
,  // measure 49
2002
0000
0000
0000
,  // measure 50
0000
0000
0000
0000
,  // measure 51
0000
0000
0000
0000
,  // measure 52
0000
0000
0000
0000
,  // measure 53
3003
0000
0000
0000
;
