#TITLE:On the FM;
#SUBTITLE:;
#ARTIST:C-Show;
#TITLETRANSLIT:;
#SUBTITLETRANSLIT:;
#ARTISTTRANSLIT:;
#CREDIT:Grithokskulk;
#BANNER:On the FM.png;
#BACKGROUND:On the FM-bg.png;
#LYRICSPATH:;
#CDTITLE:beatmania IIDX.png;
#MUSIC:On the FM.mp3;
#OFFSET:-3.527;
#SAMPLESTART:41.815;
#SAMPLELENGTH:15.000;
#SELECTABLE:YES;
#DISPLAYBPM:200.000;
#BPMS:0.000=200.000,12.000=100.000,21.000=200.000,112.000=100.000,128.000=200.000,224.000=100.000,232.000=200.000;
#STOPS:12.000=0.600
,21.000=0.300
,21.500=0.300
,22.000=0.300
,22.500=0.300
,23.000=0.160
,23.500=0.160
,128.000=0.300
,128.500=0.300
,129.000=0.300
,129.500=0.300
,130.000=0.160
,130.500=0.140
,131.000=0.300
,131.500=0.300
,132.000=0.300
,132.500=0.300
,133.000=0.160
,133.500=0.140
,134.000=0.160
,134.500=0.140
,135.000=0.160
,135.500=0.140
,140.000=0.300
,140.500=0.300
,141.000=0.160
,141.500=0.140
,142.000=0.160
,142.500=0.140
,208.000=0.300
,208.500=0.300
,209.000=0.300
,209.500=0.300
,210.000=0.160
,210.500=0.140
,211.000=0.300
,211.500=0.300
,212.000=0.300
,212.500=0.300
,213.000=0.160
,213.500=0.140
,214.000=0.160
,214.500=0.140
,215.000=0.160
,215.500=0.140
,220.000=0.300
,220.500=0.300
,221.000=0.160
,221.500=0.140
,222.000=0.140
,222.500=0.140
,248.000=0.300
,248.500=0.300
,249.000=0.140
,249.500=0.160
;
#BGCHANGES:;

//---------------dance-single - ----------------
#NOTES:
     dance-single:
     :
     Easy:
     4:
     0.288,0.362,0.096,0.029,0.000:
1000
1000
1000
1000
,
1000
1000
1000
0000
,
0001
1000
0001
0000
,
1001
0000
0000
0010
,
0010
0000
0000
0100
,
0100
0001
1000
0100
,
0020
0000
0000
0000
,
0000
0000
0000
0000
,
0130
0000
0100
0000
,
0100
0100
0100
0000
,
0001
0001
0001
0001
,
0001
0001
0001
0000
,
1000
1000
1000
1000
,
1000
0010
1000
0000
,
0100
0100
0100
0100
,
0100
0100
0100
0000
,
0010
0000
0010
0000
0010
0000
0000
0200
,
0000
0300
0010
0000
0010
0000
0000
0000
,
0001
0001
0001
0001
,
0001
0001
0001
0000
,
0100
0100
0100
0100
,
0100
0100
0100
0000
,
0010
0010
0010
0010
,
0010
0010
0010
0000
,
0100
0100
0100
0100
,
0100
0100
0100
0000
,
0002
0000
0000
0000
,
0000
0000
0000
0003
,
1000
0100
1000
0100
,
0010
0001
0010
0001
,
0100
0001
0100
0001
,
1000
0100
1000
0100
,
1001
0000
0000
1001
,
0000
0000
0011
0000
,
1100
0000
0000
0000
,
0010
0010
0010
0010
0010
0010
0100
0000
,
0001
0001
0001
0000
,
1000
1000
1000
0000
,
0100
0100
0100
0100
,
0100
0100
0100
0000
,
0010
0010
0010
0000
,
0100
0100
0100
0000
,
0010
0010
0010
0010
,
0010
0010
0010
0000
,
0001
0001
0001
0000
,
1000
1000
1000
0000
,
0001
0001
0001
0001
,
0001
0001
0001
0000
,
0100
0100
0100
0000
,
0010
0010
0010
0000
,
1000
1000
1000
1000
,
1000
1000
1000
1000
,
1001
0110
0000
0011
,
1100
0001
1000
1000
,
0001
0001
0001
0001
,
0100
0000
0000
0110
0000
0000
0000
0000
,
0100
0001
0010
0001
,
0100
0100
0010
0010
,
1000
0000
1000
0000
,
0100
0100
0100
0000
,
0010
0000
0100
0000
,
1000
1000
1000
0000
,
0010
0010
0010
0010
0100
0000
0010
0000
;

//---------------dance-single - ----------------
#NOTES:
     dance-single:
     :
     Medium:
     6:
     0.431,0.512,0.163,0.144,0.000:
1000
0010
0100
0001
,
0010
0100
0010
0100
0010
0000
0000
0000
,
0001
0010
0001
0010
0001
0010
0000
0000
,
2002
0000
3003
0000
0000
0100
0100
0000
,
0000
0010
0100
0000
0001
0010
0010
0000
,
0100
0000
0110
0000
1001
0000
0001
1000
,
2002
0000
0000
0000
,
0000
0000
0000
0000
0000
0000
0003
3000
,
1000
1000
1000
1000
,
0001
0001
0001
0000
,
0100
0000
0010
0000
0100
0001
0100
0000
,
0001
0000
0010
0000
0100
0010
0100
0010
,
0100
0001
0010
0100
,
1000
0100
1000
0100
1000
0000
0001
0000
,
0100
0000
0010
0000
0100
0001
0100
0000
,
0001
0000
1000
0000
0100
1000
0000
0000
,
0010
0000
0100
0000
0001
1000
0001
2000
,
0000
0001
0001
3001
,
0010
0000
0100
0000
0010
0001
0010
0000
,
0001
0000
0100
0000
0010
0100
0000
0000
,
0001
0000
1000
0000
0100
1000
0100
0000
,
1000
0000
0010
0000
0100
0010
0100
0010
,
0100
0000
0001
0000
0010
0001
0010
0000
,
0001
0000
0100
0000
0010
1000
0000
0000
,
0100
0000
0010
0000
0100
1000
0100
2000
,
0000
0100
0100
3100
,
0020
0100
0100
0100
,
0100
0100
0100
0130
,
0200
0010
0000
0010
0000
0010
0000
0310
,
0002
0100
0000
0100
0000
0100
0000
0103
,
0020
1000
0000
1000
0000
1000
0000
1030
,
0200
0010
0000
0010
0000
0010
0310
0000
,
0110
0000
1001
0000
0001
0100
0110
0000
,
1001
0000
1000
0100
0010
0010
0010
0010
,
0100
0100
0100
0100
,
0010
0010
0100
0100
0010
0001
0100
0000
,
0010
0010
0010
0100
,
0001
0001
0001
0010
,
0100
0100
0010
0010
,
0001
1000
1001
0000
,
1000
1000
1000
0010
,
0100
0100
0100
0010
,
1000
0001
1000
0001
,
0010
0001
0010
0100
,
0010
0010
0010
0100
,
1000
1000
1000
0010
,
0100
0001
1000
0100
,
1000
0010
1000
0001
,
0010
0010
0010
0100
,
1000
1000
1000
0010
,
0100
0001
1000
0100
,
1000
1000
0001
0001
,
1001
0000
0110
0000
0001
0010
0110
0000
,
0011
0000
1000
0010
0100
0100
0100
0100
,
0010
0010
0010
0010
,
1000
0100
0010
0100
1000
1000
1000
0000
,
0020
0100
0000
0100
0000
0100
0000
0130
,
0002
0010
0000
0010
0000
0010
0000
0013
,
0200
0001
1000
0010
,
0001
0001
0010
0310
,
2000
0010
0001
0010
,
0001
0001
3001
0010
,
0110
0110
0110
1001
0100
0000
0010
0000
;

//---------------dance-single - ----------------
#NOTES:
     dance-single:
     :
     Hard:
     9:
     0.708,0.995,0.682,0.106,0.341:
1000
0100
1000
0100
0010
0100
0010
0100
,
0010
0001
0010
0001
0020
0000
0030
0000
,
0001
0100
0010
1000
0100
0010
0000
0100
,
0210
0000
0000
0000
0010
0000
0310
0000
0000
0001
0000
0010
0000
0100
0000
1000
,
0010
0000
0200
0000
2300
0000
3200
0000
0301
0010
0000
0100
0000
0001
0000
0100
,
0010
0001
1001
0110
0101
1010
1100
0011
,
2002
0000
0000
0000
,
0000
0000
0000
3003
,
0001
0100
0001
0000
1000
0100
1000
0000
,
0001
0010
0100
1000
0010
0000
0101
0000
,
1000
0100
0010
0100
1000
0100
0010
0000
,
0001
0010
0100
0010
0001
0010
0100
0000
,
1000
0010
1000
0000
0001
0100
0001
0000
,
0010
0100
0010
0100
1000
0010
0001
0010
,
1000
0010
0100
0010
1000
0010
1000
0000
,
0001
0010
0100
0010
0001
0010
0001
0000
,
0100
0010
1000
0000
1000
0100
0010
0200
,
0000
0010
0320
0000
0031
0010
0100
1000
,
0010
0100
0010
0100
0001
0100
0001
0100
,
0001
1000
0100
0001
0100
1000
0010
0000
,
0100
0010
0100
0010
1000
0010
1000
0010
,
1000
0100
0001
0100
1000
0010
0100
0000
,
0001
0010
0001
0010
0001
1000
0001
1000
,
0001
0100
0010
0100
0001
0010
0100
0000
,
1000
0100
1000
0100
1000
0010
1000
0010
,
0100
0010
0100
0010
0100
0001
0100
0001
,
0020
0100
0100
0100
,
0100
0100
0100
0130
,
0110
0000
0011
0000
0000
1100
0000
0000
0110
0000
1100
0000
1010
0000
0010
1000
,
0100
0000
0010
0001
0100
0000
0010
0000
0010
0000
0100
0010
1000
0100
0010
0000
,
0001
0000
0101
0000
0000
1010
0000
0000
1100
0000
0110
0000
1100
0000
1000
0010
,
0001
0000
0010
0100
0001
0000
0010
0100
0100
0100
0100
0100
0010
0000
0100
0000
,
0110
1001
0101
1010
1100
0011
1001
0110
,
0101
1010
1001
0110
1100
0011
1100
0011
,
0100
0000
0100
0010
0000
0010
1000
0000
1000
0100
0000
0100
,
0110
0000
0000
1100
0000
0000
0011
0000
0000
1001
0000
0000
0010
0000
0000
0100
0000
0000
0001
0000
0000
0000
0001
0000
,
0010
0000
0010
0100
0000
0100
0010
0000
0000
0001
0000
0000
,
0100
0000
0100
0010
0000
0010
1000
0000
0000
0100
0000
0000
,
0001
0000
0001
0100
0000
0000
1000
0000
1000
0100
0000
0000
,
0010
0000
0010
0100
0000
0100
1000
0000
0000
0010
0000
0000
,
0100
0000
0100
0010
0000
0010
1000
0000
0000
0001
0000
0000
,
0010
0000
0010
0001
0000
0001
0100
0000
0000
0010
0000
0000
,
0100
0000
0100
0001
0000
0000
1000
0000
1000
0100
0000
0000
,
0010
0000
0010
0100
0000
0100
1000
0000
0000
1010
0000
0000
,
0010
0000
0010
0100
0000
0100
0010
0000
0000
1010
0000
0000
,
1000
0000
1000
0100
0000
0100
0010
0000
0000
0110
0000
0000
,
0100
0000
0100
1000
0000
0000
1000
0000
1000
0010
0000
0000
,
0010
0000
0010
0100
0000
0000
0100
0000
0100
0001
0000
0000
,
0001
0000
0001
0010
0000
0010
0100
0000
0000
0110
0000
0000
,
0010
0000
0010
0001
0000
0001
0100
0000
0000
0110
0000
0000
,
0001
0000
0001
1000
0000
0000
0100
0000
0100
0010
0000
0100
,
1000
0000
0100
1000
0000
0100
1000
0000
0010
0100
0000
0001
,
0011
1100
1010
0110
1001
0110
0011
1100
,
1010
0101
1001
0110
0011
1100
0011
1100
,
0001
0000
0001
0100
0000
0100
0010
0000
0010
1000
0000
1000
,
1100
0011
0101
2010
0100
0010
0001
0000
,
3100
0000
0110
0000
0000
0011
0000
1000
1000
0010
0100
0001
0010
0000
0100
1000
,
0010
0000
0100
0001
0010
0000
0100
0000
1000
0010
0100
0010
1000
0000
0100
0000
,
0010
0000
0001
0100
0000
0010
0100
0000
,
0001
0100
1000
0100
0010
0000
1000
0100
,
0001
0000
0001
0100
0000
0100
1000
0010
,
0010
0010
0010
0010
1000
0000
0100
0000
,
0011
1100
1010
0101
0010
0000
0100
0000
;
