#TITLE:Make Your Move(New Generation Special);
#SUBTITLE:;
#ARTIST:good-cool feat. JP miles;
#TITLETRANSLIT:;
#SUBTITLETRANSLIT:;
#ARTISTTRANSLIT:;
#GENRE:;
#CREDIT:;
#BANNER:[Round 1] - Make Your Move(New Generation Special).png;
#BACKGROUND:[Round 1] - Make Your Move(New Generation Special)-bg.png;
#LYRICSPATH:;
#CDTITLE:;
#MUSIC:Make Your Move.ogg;
#OFFSET:0.000000;
#SAMPLESTART:59.750000;
#SAMPLELENGTH:15.000000;
#SELECTABLE:YES;
#DISPLAYBPM:120.000000;
#BPMS:0.000000=120.000000
;
#STOPS:
;
#BGCHANGES:;
#KEYSOUNDS:;
#ATTACKS:;

//---------------dance-couple - ----------------
#NOTES:
     dance-couple:
     :
     Medium:
     7:
     0.268571,0.408000,0.030000,0.000000,0.035000,188.000000,185.000000,3.000000,0.000000,0.000000,0.000000,0.268571,0.408000,0.030000,0.000000,0.035000,188.000000,185.000000,3.000000,0.000000,0.000000,0.000000:
00000000
00000000
00000000
00000000
,
00000000
00000000
00000000
00000000
,
00000000
00000000
00000000
00000000
,
00000000
00000000
00000000
00000000
,
00000000
00000000
00000000
00000000
,
00000010
00000000
00000001
00000000
10000100
00000000
00000001
00000000
00001000
00000100
00001000
00000000
10000100
00000000
00000000
00000000
,
00000010
00000000
00001000
00000000
10000100
00000000
00001000
00000000
00000001
00000100
00000001
00000000
10000100
00000000
00000000
00000000
,
00001000
00000000
00000001
00000000
10001000
00000000
00000100
00000000
00000010
00000100
00000010
00000000
10000100
00000000
00000000
00000000
,
00000001
00000000
00001000
00000000
10000001
00000000
00000100
00000000
00000010
00000100
00000010
00000000
10000100
00000000
00000000
00000000
,
00100000
00000000
00010000
00000000
01000001
00000000
00010000
00000000
10000000
01000000
10000000
00000000
01000001
00000000
00000000
00000000
,
00100000
00000000
10000000
00000000
01000001
00000000
10000000
00000000
00010000
01000000
00010000
00000000
01000001
00000000
00000000
00000000
,
10000000
00000000
00010000
00000000
10000001
00000000
01000000
00000000
00100000
01000000
00100000
00000000
01000001
00000000
00000000
00000000
,
00010000
00000000
10000000
00000000
00010001
00000000
01000000
00000000
00100000
01000000
00100000
00000000
01000001
00000000
00000000
00000000
,
00000001
00000000
00000000
00000001
01000000
00000000
00000001
00000000
00000000
00000000
00000000
00000000
01000001
00000000
00000000
00000000
,
00001000
00001000
01001000
00000000
00001000
00000001
01000100
00000000
,
00001000
00000000
00000000
00001000
01000000
00000000
00001000
00000000
00000000
00000000
00000000
00000000
01001000
00000000
00000000
00000000
,
00000001
00000001
01000001
00000000
00000001
00001000
01000100
00000000
,
00010000
00000000
00000000
00010000
00000010
00000000
00010000
00000000
00000000
00000000
00000000
00000000
00010010
00000000
00000000
00000000
,
10000000
10000000
10000010
00000000
10000000
00010000
01000010
00000000
,
10000000
00000000
00000000
10000000
00000010
00000000
10000000
00000000
00000000
00000000
00000000
00000000
10000010
00000000
00000000
00000000
,
00010000
00010000
00010010
00000000
00010000
10000000
01000010
00000000
,
00100000
00100000
00000010
00000010
,
00010000
00010000
00000001
00000001
,
10000000
10000000
00001000
00001000
,
01000100
00000000
00000000
00000000
01000100
00100010
01000100
00000000
,
00010001
00010001
10001000
10001000
,
10001000
00000000
00000000
10001000
00000000
00000000
10001000
00000000
00000000
00000000
00000000
00000000
00000000
00000000
00000000
00000000
,
01000100
00000000
01000100
01000100
,
10011001
10011001
01000100
00000000
00100010
00000000
00100010
00000000
,
10001000
00010001
01000100
00000000
00000000
00000000
00000000
00000000
,
00010000
10000000
00010001
10000000
00100000
01000000
00100001
01000000
,
00010000
10000000
01000001
10000000
00010000
01000000
00010001
10000000
,
01000000
10000000
01000001
00100000
00010000
01000000
00010001
01000000
,
00010000
10000000
01000001
10000000
01000000
00100000
00010001
00000000
,
00000001
00001000
10000001
00001000
00000010
00000100
10000010
00000100
,
00000001
00001000
10000100
00001000
00000001
00000100
10000001
00001000
,
00000100
00001000
10000100
00000010
00000001
00000100
10000001
00000100
,
00000001
00001000
10000100
00001000
00000100
00000010
10000001
00000000
,
01000000
10000000
01000001
10000000
00010000
01000000
00010001
01000000
,
00100000
10000000
00100001
10000000
00010000
00100000
00010001
00100000
,
01000000
10000000
01000001
10000000
00010000
01000000
00010001
01000000
,
00100000
10000000
01000001
10000000
00100000
10000000
01000001
00000000
,
00000100
00001000
10000100
00001000
00000001
00000100
10000001
00000100
,
00000010
00001000
10000010
00001000
00000001
00000010
10000001
00000010
,
00000100
00001000
10000100
00001000
00000001
00000100
10000001
00000100
,
00000010
00001000
10000100
00001000
00000010
00001000
10000100
00000000
,
10000001
00000000
10000001
00000000
00011000
00011000
00011000
00000000
,
10000001
10000001
10000001
00000000
00011000
00000000
10000001
00000000
,
01100110
00000000
00000000
00000000
;

//---------------dance-solo - ----------------
#NOTES:
     dance-solo:
     :
     Easy:
     4:
     0.210000,0.216000,0.020000,0.000000,0.000000,147.000000,145.000000,2.000000,0.000000,0.000000,0.000000,0.210000,0.216000,0.020000,0.000000,0.000000,147.000000,145.000000,2.000000,0.000000,0.000000,0.000000:
000000
000000
000000
000000
,
000000
000000
000000
000000
,
000000
000000
000000
000000
,
000000
000000
000000
000000
,
000000
000000
000000
000000
,
000100
000100
000000
000000
,
100000
100000
000000
000000
,
001000
001000
000000
000000
,
000001
000001
000000
000000
,
010000
000010
010000
000010
,
000100
001000
000100
001000
,
100000
000001
100000
000001
,
000010
001000
000010
001000
,
010000
000010
010000
000000
,
000010
001000
000010
000000
,
100000
001000
100000
000000
,
000001
001000
000001
000000
,
000100
000010
000100
000000
,
010000
000100
010000
000000
,
000010
100000
000010
000000
,
010000
000001
001000
001000
,
000010
000000
000010
000000
,
010000
000000
010000
000000
,
001000
000000
001000
000000
,
100000
000000
100000
000000
,
000100
000100
000010
001000
,
100000
001000
010000
000010
,
001000
000000
000001
000000
,
010000
000010
010000
000000
000000
000000
000000
000000
,
001100
001100
000000
000000
,
100000
000001
010000
000010
,
000100
001000
100000
000001
,
001000
000100
100000
000001
,
010000
000010
001000
000100
,
000001
000010
100000
010000
,
000001
001000
100000
001000
,
000100
000100
010000
001000
,
000100
000100
000010
001000
,
010000
010000
100000
100000
,
001000
001000
000001
000001
,
000010
000010
000100
000100
,
100000
000001
010000
001000
,
000010
000010
100000
100000
,
000100
001000
100000
001000
,
000010
100000
001000
000100
,
000001
001000
100000
001000
,
000100
000100
000001
000001
,
010000
000010
100000
001000
,
000001
000000
000000
000000
;

//---------------dance-solo - ----------------
#NOTES:
     dance-solo:
     :
     Medium:
     5:
     0.291429,0.336000,0.020000,0.000000,0.030000,204.000000,202.000000,2.000000,0.000000,0.000000,0.000000,0.291429,0.336000,0.020000,0.000000,0.030000,204.000000,202.000000,2.000000,0.000000,0.000000,0.000000:
000000
000000
000000
000000
,
000000
000000
000000
000000
,
000000
000000
000000
000000
,
000000
000000
000000
000000
,
000000
000000
000000
000000
,
000100
000100
010000
000000
000001
000000
000001
000000
,
000100
000100
000010
000000
100000
000000
100000
000000
,
000100
001000
000100
000000
010000
000000
100000
000000
,
000100
001000
000100
000000
000010
000000
000001
000000
,
100000
000000
001000
000000
000100
000010
000001
000000
,
000001
000000
001000
000000
000100
010000
100000
000000
,
000001
010000
100000
000010
,
001000
000000
001000
000000
000010
001000
000010
000000
,
010000
000000
000000
010000
000000
000000
010000
000000
000000
000000
001000
000000
001000
000000
000000
000000
,
000001
000000
000100
001000
000000
100000
100000
000000
,
000010
000000
000000
000010
000000
000000
000010
000000
000000
000000
001000
000000
001000
000000
000000
000000
,
100000
000000
000100
001000
000000
000001
000001
000000
,
000100
000000
000000
010000
000000
000000
000010
000000
000000
000000
001000
000000
001000
000000
000000
000000
,
000001
000000
010000
010000
000000
000001
100000
000000
,
000100
000000
000000
000010
000000
000000
010000
000000
000000
000000
001000
000000
001000
000000
000000
000000
,
100000
000000
000010
000010
000000
100000
000001
000000
,
000100
100000
001000
000001
,
000100
000000
000000
000100
000000
000000
000100
000000
000000
000000
000000
000000
001000
000000
000000
000000
,
000001
100000
000010
001000
,
100000
000000
000000
000000
000010
000100
000001
000000
,
100000
001000
010000
000001
,
000010
000000
000000
000010
000000
000000
000010
000000
000000
000000
000000
000000
000100
000000
000000
000000
,
010000
000010
010000
000010
,
000100
100000
001000
000000
010000
000010
000100
000000
,
001100
001100
000000
000000
,
010000
100000
010000
000000
000001
000000
001000
000000
,
000010
000001
000010
000000
100000
000000
010000
000000
,
000001
000100
000001
000000
100000
000000
001000
000000
,
100000
000100
100000
000000
000001
000000
001000
000000
,
000100
010000
001000
000000
100000
000000
000001
000000
,
000100
000010
001000
000000
000001
000000
100000
000000
,
000100
000100
000100
000000
010000
000000
000010
000000
,
000100
000001
001000
000010
010000
001000
100000
000001
,
001000
000000
001000
001000
,
000100
000000
100000
000000
001000
010000
010000
000000
,
000100
000000
000001
000000
001000
000010
000010
000000
,
000100
100000
000100
100000
,
000000
000100
100000
010000
000000
000010
000010
000000
,
000000
000100
000001
000010
000000
010000
010000
000000
,
000000
000100
000000
001000
000000
000010
000000
010000
,
000000
001000
000000
100000
000000
000010
000010
000000
,
000000
010000
000000
000001
000000
100000
000000
001000
,
000000
000100
000000
000001
000000
010000
000000
001000
,
100000
000000
000000
000000
;

//---------------dance-solo - ----------------
#NOTES:
     dance-solo:
     :
     Hard:
     7:
     0.475714,0.480000,0.060000,0.000000,0.000000,333.000000,327.000000,6.000000,0.000000,0.000000,0.000000,0.475714,0.480000,0.060000,0.000000,0.000000,333.000000,327.000000,6.000000,0.000000,0.000000,0.000000:
000000
000000
000000
000000
,
000000
000000
000000
000000
,
000000
000000
000000
000000
,
000000
000000
000000
000000
,
000000
000000
000000
000000
,
000100
000100
010000
000010
100000
000001
001000
000000
,
001000
001000
000001
100000
000010
010000
001000
000000
,
000010
000010
010000
001000
100000
000001
010000
000000
,
001000
100000
000010
001000
000100
010000
001000
000000
,
000100
000010
010000
000100
100000
000001
001000
000000
,
000100
010000
001000
100000
000001
000100
000010
000000
,
001000
000010
010000
000001
000100
000001
100000
000000
,
010000
000010
000100
000001
100000
000100
001000
000000
,
000100
000010
010000
000001
000010
000001
100000
001000
,
010000
000001
001000
000100
100000
000001
001000
000000
,
000010
000100
000001
010000
001000
100000
000001
001000
,
000100
010000
001000
000100
000010
001000
000001
001000
,
000100
010000
000010
010000
100000
000100
000001
001000
,
000001
010000
000010
100000
001000
000100
000010
001000
,
000001
100000
001000
010000
000001
001000
000100
010000
,
001000
100000
001000
010000
000100
001000
000001
001000
,
000010
000100
001000
010000
000001
001000
000010
000001
,
000100
010000
100000
010000
000001
001000
000001
100000
,
001000
000100
000010
001000
000001
010000
001000
100000
,
000001
001000
000100
100000
010000
001000
000100
010000
,
000001
001000
000001
000100
000010
010000
001000
000100
,
000001
001000
000001
100000
000100
010000
000010
010000
,
001000
000100
000001
100000
010000
001000
000010
000100
,
100001
100001
010010
000000
000100
000000
001000
000000
,
010010
010010
100001
000000
000000
000000
000000
000000
,
000100
010000
000010
100000
010000
100000
000001
001000
,
000010
100000
001000
000100
000001
100000
001000
000000
,
010000
000100
100000
000010
001000
000001
100000
001000
,
000100
000010
001000
000100
010000
001000
100000
001000
,
000100
000010
010000
000010
000001
000100
100000
001000
,
100000
000010
010000
000001
001000
000100
010000
001000
,
100000
000001
001000
000010
100000
001000
000100
000010
,
001000
000001
001000
000010
000100
001000
100000
001000
,
010000
000100
001000
000010
100000
001000
010000
100000
,
000100
000010
000001
000010
100000
001000
100000
000001
,
001000
000100
010000
001000
100000
000010
001000
000001
,
100000
001000
000100
000001
000010
001000
000100
000010
,
100000
001000
100000
000100
010000
000010
001000
000100
,
100000
001000
100000
000001
000100
000010
010000
000010
,
001000
000100
100000
000001
000010
001000
010000
000100
,
001000
000001
100000
001000
010000
000010
000001
000100
,
010000
001000
100000
000010
001000
000001
100000
001000
,
000100
000010
010000
001000
100000
000100
001000
000001
,
010000
000000
000000
000000
;

//---------------dance-single - ----------------
#NOTES:
     dance-single:
     :
     Challenge:
     9:
     0.600000,0.696500,0.490000,0.120000,0.690000,420.000000,371.000000,49.000000,12.000000,0.000000,0.000000,0.600000,0.696500,0.490000,0.120000,0.690000,420.000000,371.000000,49.000000,12.000000,0.000000,0.000000:
// measure 0
0000
0000
0000
0000
,  // measure 1
0000
0000
0000
0000
,  // measure 2
0000
0000
0000
0000
,  // measure 3
0000
0000
0000
0000
,  // measure 4
0000
0000
0000
0000
0000
0000
0000
0000
0000
0000
0000
0000
0001
0100
0000
0100
,  // measure 5
0001
0000
1000
0000
0100
0000
0010
0100
1000
0000
0010
0000
1000
0000
0000
0001
,  // measure 6
0100
0000
0001
0000
1000
0000
0100
0000
1000
0010
0001
0000
0010
0000
0000
1000
,  // measure 7
0100
0000
0010
0000
0001
0000
0100
0001
0010
0100
1000
0000
0010
0000
0110
0000
,  // measure 8
0101
0000
0001
0000
1000
0100
0000
0010
0100
1000
0001
0000
0100
0000
0010
0000
,  // measure 9
1010
0000
1000
0000
0001
0000
1000
0100
0010
0001
0100
0000
0010
0000
0000
1000
,  // measure 10
0010
0000
1000
0000
0001
0000
1000
0100
0001
0100
1000
0000
0100
0000
0000
0010
,  // measure 11
0100
0000
2000
0000
3001
0200
0000
0000
,  // measure 12
0310
1000
0001
0100
0001
1000
0100
0010
0001
1000
0010
0000
0100
0000
0001
0000
,  // measure 13
0011
0000
0000
1100
0000
0000
1001
0000
0000
0010
1000
0000
0001
0000
0100
0010
,  // measure 14
0100
0000
0001
0000
0010
0000
0100
1000
0100
0000
1000
0000
0010
0000
0100
0000
,  // measure 15
0101
0000
0000
0011
0000
0000
1001
0000
0000
1000
0100
0000
0010
0000
0100
1000
,  // measure 16
0001
0000
0100
0000
0001
0000
1000
0010
1000
0100
0000
0100
1000
0000
0001
0000
,  // measure 17
0011
0000
0000
1001
0000
0000
1010
0000
0000
0010
1000
0000
0001
0000
0010
0100
,  // measure 18
0010
0000
0001
0000
0100
0000
1000
0100
0001
0100
1000
0000
0100
0000
0001
0000
,  // measure 19
1001
0000
0000
1100
0000
0000
1010
0000
0000
1000
0001
0000
0010
0000
0001
0100
,  // measure 20
0001
0000
1000
0000
0010
0000
0100
0000
0001
1000
0020
0000
0000
2030
0000
0000
,  // measure 21
3002
1000
1000
2000
0000
0000
0000
3003
,  // measure 22
1001
0000
0000
1010
0000
0000
1100
0000
0000
0100
1000
0000
1000
0001
0000
1000
,  // measure 23
0000
0010
0000
0100
0000
0001
0000
0010
0000
0100
0000
1000
0000
0010
0000
0100
,  // measure 24
0001
0100
0001
0100
0001
0000
0000
1000
0100
0010
0001
0100
0010
0000
1000
0000
,  // measure 25
1002
0100
0100
0200
0000
0000
0000
0303
,  // measure 26
0101
0000
0000
1001
0000
0000
1100
0000
0000
1000
0001
0000
0100
0001
0000
1000
,  // measure 27
0000
0100
0000
1000
0000
0001
0000
0010
0000
0001
0000
0000
0100
0000
0010
0000
,  // measure 28
0110
0000
0000
0000
0110
0000
0000
0000
0110
0000
0000
0000
0100
0010
0100
0010
0100
0000
0001
0000
0010
0000
0100
0000
0000
0000
0010
0000
0100
0000
0000
0000
,  // measure 29
0010
0100
0000
0000
1010
0000
0000
0000
1000
0100
0001
0100
1000
0100
0001
0100
,  // measure 30
0000
1000
0010
0000
1000
0000
0001
0000
0100
0001
1000
0000
1010
0000
0000
0101
,  // measure 31
0000
0001
0010
0000
0001
0000
1000
0000
0010
1000
0100
0000
0110
0000
0000
0011
,  // measure 32
0000
0001
1000
0000
0010
0000
1000
0000
0001
0010
0001
0000
0011
0000
0000
1100
,  // measure 33
0000
0000
0000
0000
0000
0000
1001
0000
0000
0000
0000
0000
0001
0000
0000
0000
0010
0000
0000
0000
0100
0000
0000
0000
0000
0000
0000
1000
0000
0000
0000
0000
0000
0010
0000
0000
0000
0000
0000
0100
0000
0000
0000
0000
0000
0101
0000
0000
,  // measure 34
0000
0001
1000
0000
0010
0000
1000
0000
0100
1000
0100
0000
1100
0000
0000
1010
,  // measure 35
0000
0000
0010
0000
0100
0000
0000
0000
0001
0000
0000
0000
0010
0000
0000
0000
0001
0000
1000
0001
1000
0000
0000
0000
1010
0000
0000
0000
0000
0000
1001
0000
,  // measure 36
0000
1000
0100
0000
1000
0000
0001
0010
0100
1000
0010
0000
0110
0000
0000
0110
,  // measure 37
0000
0000
0000
0000
0000
0000
0110
0000
0000
0000
0000
0000
0010
0000
0000
0000
1000
0000
0000
0000
0001
0000
0000
0000
0000
0000
0000
0100
0000
0000
0000
0000
0000
0001
0000
0000
0000
0000
0000
0010
0000
0000
0000
0000
0000
0110
0000
0000
,  // measure 38
0000
0000
0100
0000
1000
0000
0002
0000
0000
0000
0000
0000
0000
0000
0000
0103
,  // measure 39
0010
1000
0000
0010
0000
0100
0000
0001
1000
0000
0100
0000
1100
0000
0000
1000
,  // measure 40
0001
0000
0100
0001
0000
0010
0002
0000
0000
0000
0000
0000
0000
0000
0000
0000
,  // measure 41
1003
0000
0000
0100
1000
0000
0010
0000
1000
0100
0000
0010
0000
0001
0000
0101
,  // measure 42
0000
1001
1000
0010
0100
0001
1000
0001
,  // measure 43
0010
0100
1000
0010
1000
0001
0100
0002
,  // measure 44
0000
0000
0000
0000
0000
0000
0000
1003
0000
0000
1010
0000
0000
1100
0000
0000
,  // measure 45
1001
0000
0000
0110
0000
0000
0100
0001
0000
0001
0010
0100
1000
0010
0100
0010
,  // measure 46
0000
0100
0001
0000
1000
0000
0100
0000
1000
0010
0001
0010
1000
0000
0000
0100
,  // measure 47
1000
0000
0010
0000
1000
0000
0001
0000
0100
0001
1000
0100
0001
0000
0100
0000
,  // measure 48
2000
0000
0000
0000
,  // measure 49
0000
0000
0000
3000
;
