#TITLE:Magical Voice Shower;
#SUBTITLE:;
#ARTIST:ウッチーズ;
#TITLETRANSLIT:;
#SUBTITLETRANSLIT:;
#ARTISTTRANSLIT:Ucchies;
#GENRE:;
#CREDIT:;
#BANNER:Magical Voice Shower - Ucchiesbn.png;
#BACKGROUND:Magical Voice Shower - Ucchiesbg.png;
#LYRICSPATH:Magical Voice Shower - Ucchies.lrc;
#CDTITLE:encorerebirth.png;
#MUSIC:Magical Voice Shower - Ucchies.ogg;
#OFFSET:-1.224;
#SAMPLESTART:57.117;
#SAMPLELENGTH:15.920;
#SELECTABLE:YES;
#BPMS:0.000=120.000
;
#STOPS:
;
#BGCHANGES:;
#KEYSOUNDS:;
#ATTACKS:;

//---------------dance-single - Spork!----------------
#NOTES:
     dance-single:
     Spork! - Heavy:
     Hard:
     8:
     0.473,0.478,0.440,0.276,0.384,300.000,51.000,32.000,0.000,0.000,0.000,0.473,0.478,0.440,0.276,0.384,300.000,51.000,32.000,0.000,0.000,0.000:
0000
0000
0000
0000
,
0000
0000
0000
0000
,
0000
0000
0000
0000
,
0000
0000
0000
0000
0000
0000
0010
0100
,
0001
0000
0000
0000
1000
0000
0000
1001
0000
0000
0000
0000
0000
0000
0010
0000
,
1000
0000
0000
0100
0000
1000
0000
0010
0000
0000
0000
0000
0000
0000
1000
0000
,
0001
0000
0000
0010
0000
0001
0000
0100
0000
0000
0000
0000
0100
0000
0001
0000
,
1000
0000
0000
0010
0000
0000
1000
0000
1100
0000
0000
0000
0010
0000
0100
0000
,
1000
0000
0000
0000
0001
0000
0000
1001
0000
0000
0000
0000
0000
0000
0010
0000
,
0001
0000
0000
0100
0000
0010
0000
0000
1010
0000
0000
0000
0010
0000
1000
0000
,
0100
0000
0000
0100
0000
0000
0010
0000
0001
0000
0000
0100
0000
0001
0000
0000
,
0020
0000
0000
0130
,
2000
0000
0000
0010
0000
0000
0000
0000
3020
0000
0000
0100
0000
0100
0000
0000
,
0230
0000
0000
0001
0000
0000
0001
0000
0302
0000
0000
0000
1000
0000
0003
0000
,
0002
0000
0000
0010
0000
0000
0010
0000
0023
0000
0000
0100
0000
0100
0000
0000
,
0230
0000
0000
1000
0000
0000
1000
0000
2300
0000
0000
0000
0010
0000
3000
0000
,
1010
0000
0000
1000
0001
0000
0000
0000
0101
0000
0000
0100
0000
0010
0000
0000
,
0110
0000
0000
0100
0010
0000
1000
0000
0100
0000
0000
0000
0010
0000
0000
0000
,
0011
0000
0000
0110
0000
0000
1100
0000
1001
0000
0000
0000
1010
0000
0000
0000
,
0120
0000
0000
0030
0101
0000
1100
0000
,
0100
0000
0000
0010
0000
0001
0000
2000
0000
0000
0000
0000
0100
0000
0000
0000
,
3010
0000
0000
1000
0010
1000
0000
0100
0000
0000
0001
0000
0100
0000
1000
0000
,
0010
0000
0000
0100
0010
0100
0000
0002
0000
0000
0000
0000
1000
0000
0000
0000
,
0103
0000
0000
0001
0100
0001
0000
0010
0000
0000
1000
0000
0010
0000
0001
0000
,
0100
0000
0000
0000
0010
0000
1000
0200
0000
0000
0000
0000
0000
1300
0001
0000
,
0010
0000
0000
0001
0000
0000
0100
0000
0020
0000
0000
0000
0130
0000
0001
0000
,
1000
0000
0000
0100
0000
0000
0010
0000
1001
0000
0000
0000
0011
0000
0000
0000
,
1010
0000
1000
0010
0000
1000
0001
0000
2000
0000
0000
0000
0000
0000
3000
0000
,
1100
0000
1000
0100
0000
0001
0000
0100
0000
1100
0000
0000
1001
0000
0000
0000
,
0101
0000
0000
0000
0000
0000
0001
0000
0000
0100
0000
0000
0000
0000
0000
1000
0000
0000
0000
0000
0000
0100
0000
0000
0000
0000
0000
0000
0001
0000
0000
0000
1000
0000
0000
0000
0100
0000
0000
0000
0000
0000
0000
0000
0000
0000
0000
0000
,
0110
0000
0100
1000
0000
0010
0000
0001
0000
0011
0000
0000
1010
0000
0000
0000
,
1001
0000
0000
0011
0000
0101
0000
0000
0110
0000
0000
0000
1010
0000
0000
0000
,
0011
0000
0001
0010
0000
1000
0000
0010
0000
0011
0000
0000
1001
0000
0000
0000
,
1010
0000
0000
0000
0000
0000
1000
0000
0000
0010
0000
0000
0000
0000
0000
0001
0000
0000
0000
0000
0000
0010
0000
0000
0000
0000
0000
0000
1000
0000
0000
0000
0001
0000
0000
0000
0010
0000
0000
0000
0000
0000
0000
0000
0000
0000
0000
0000
,
0021
0000
0000
0030
1200
0000
0000
0300
,
0000
1001
0000
1000
0010
1000
0000
1000
0001
0000
0000
0001
0100
0000
0100
0000
,
0120
1030
0100
0001
0100
1000
0001
0100
,
0210
0301
0010
1000
0010
0001
1000
0010
,
0120
1030
0010
0001
0010
1000
0001
0010
,
0210
0000
0000
0300
1100
0000
0101
0000
,
1002
0013
0100
0001
0100
1000
0010
0100
,
2001
3100
0010
1000
0010
0001
0100
0010
,
2001
3010
0100
1000
0100
0001
0010
0100
,
1000
0000
0000
0001
0000
1000
0000
0000
0010
0000
0000
0000
1000
0000
0100
0000
,
0010
0000
0000
0100
0000
0000
1000
0000
0010
0000
0000
0000
0010
0000
0100
0000
,
0001
0000
0000
0010
0000
0000
0001
0000
1000
0000
0000
0000
0001
0000
0100
0000
,
1000
0000
0000
0100
0000
0000
0001
0000
1000
0000
0000
0100
0000
0000
0001
0000
,
0200
0000
0010
0000
0001
0000
1300
0010
,
0100
0000
0000
0010
1000
0000
0100
0000
0010
0000
0000
0000
0001
0000
0010
0000
,
0100
0000
0000
0010
0001
0000
0100
0000
0010
0000
0000
0000
0100
0000
0001
0000
,
1000
0000
0000
0010
0000
0000
0001
0000
0010
0000
0000
1000
0000
0000
0001
0000
,
0020
0230
2300
0000
,
3002
0000
0203
0000
,
0310
0000
0000
0010
0000
0000
0010
0000
0000
0000
0100
0000
0000
0100
0000
0000
,
1001
0000
0000
1001
0000
0000
0000
0000
0000
1100
0000
0101
0000
0000
0220
0000
,
0000
0000
0000
0330
0000
0000
0000
0000
;

//---------------dance-single - Spork!----------------
#NOTES:
     dance-single:
     Spork! - Expert:
     Challenge:
     9:
     0.586,0.598,0.475,0.268,0.838,389.000,55.000,31.000,112.000,0.000,9.000,0.586,0.598,0.475,0.268,0.838,389.000,55.000,31.000,112.000,0.000,9.000:
00M0
0000
0000
M000
0000
0000
0M00
0000
0000
0000
00M0
0000
0000
00M0
0000
0000
,
0M00
0000
0000
000M
0000
0000
00M0
0000
0000
0000
0M00
0000
0000
0M00
0000
0000
,
00M0
0000
0000
0M00
0000
0000
M000
0000
0000
0000
0M00
0000
0000
0M00
0000
0000
,
000M
0000
0010
0100
0010
0000
100M
0000
0100
0000
0010
0000
M000
0000
0100
0000
0000
0000
1000
0000
00M0
0000
0001
0000
0100
0000
M000
0000
0010
0000
0000
0000
,
0110
0000
0000
0000
01M1
0000
0000
1100
0000
0000
1000
0000
0010
0000
0100
0000
,
0101
0000
0000
M001
0000
0010
0000
0110
0000
0100
1000
0000
0010
0000
1000
0000
,
1010
0000
0000
0010
000M
0100
0000
0110
0000
0000
0100
0000
0001
0000
0010
0000
,
0110
0000
0000
11M0
0000
0000
0101
0000
0001
0010
0001
0000
1000
0000
0010
0000
,
0110
0000
0000
0000
1M10
0000
0000
0011
0000
0000
0001
0000
0100
0000
0010
0000
,
1010
0000
0000
1000
0000
0001
0000
0000
1000
0100
1000
0000
0010
0000
0100
0010
,
0200
0000
0000
0001
0000
0000
1000
0000
0320
0000
0000
0001
0000
1000
0000
0000
,
1030
0000
0000
1000
0001
0000
0000
1000
0100
0010
0000
0010
0100
0000
1000
0000
,
00M2
0000
0000
1M00
0000
0000
00M0
0000
0203
0000
M000
0010
0000
M001
0000
0000
,
032M
0000
0000
M100
0000
0000
1M00
0000
2030
0000
000M
0000
0100
00M0
3000
0000
,
2M00
0000
0000
001M
0000
0000
01M0
0000
3200
0000
000M
0010
0000
100M
0000
0000
,
M320
0000
0000
010M
0000
0000
M001
0000
0032
0000
0M00
0000
1000
00M0
0003
0000
,
M002
0000
0000
0M10
0000
0000
M000
0000
0203
0000
00M0
1000
0000
001M
0000
0000
,
M320
0000
0000
M001
0000
0000
1M00
0000
1030
0000
000M
0000
1100
00M0
0000
0000
,
2M00
0000
0000
001M
0000
0000
010M
0000
3200
0000
00M0
0000
0001
M000
0000
0000
,
032M
0000
0000
0030
0011
0000
0110
0000
,
1001
0000
1000
0001
0100
0001
0000
0010
0000
0100
0000
1000
0010
0000
1000
0000
,
1100
0000
0100
1000
0010
0001
0000
0010
0000
0100
0010
1000
0001
0000
0100
0000
,
0101
0000
0100
0001
0010
1000
0000
0010
0000
0100
0000
0010
0001
0000
1000
0000
,
1001
0000
0001
1000
0010
1000
0000
0100
0000
0010
0100
0010
0001
0000
0100
0000
,
0101
0000
M001
0010
0000
0M01
1000
0000
001M
0000
0100
001M
0000
1000
0M10
0000
,
001M
0000
1M00
0001
0000
20M0
0000
0000
020M
3000
0000
M000
0320
0000
010M
0000
,
M230
0000
000M
1000
0300
00M0
0001
0000
M101
0000
0000
0000
0M11
0000
0000
0000
,
1001
0000
1000
0001
0000
1000
0010
0000
0200
0010
0000
0000
0001
0000
0300
0000
,
0101
0000
0001
0010
0000
1000
0000
0010
0000
0110
0000
0000
1100
0000
0000
0000
,
0011
0000
0000
0000
0000
0000
0001
0000
0000
0100
0000
0000
0000
0000
0000
1000
0000
0000
0000
0000
0000
0100
0000
0000
0000
0000
0000
0000
0010
0000
0000
0000
0100
0000
0000
0000
0101
0000
0000
0000
0000
0000
0000
0000
0000
0000
0000
0000
,
1010
0000
1000
0100
0000
0001
0000
0100
0000
0110
0000
0000
0011
0000
0000
0000
,
1100
0000
1000
0001
0000
0100
0000
0000
0010
0100
0000
0100
0001
1000
0000
0000
,
1100
0000
1000
0010
0000
0001
0000
0010
0000
1010
0000
0000
1100
0000
0000
0000
,
0101
0000
0000
0000
0000
0000
0001
0000
0000
0010
0000
0000
0000
0000
0000
1000
0000
0000
0000
0000
0000
0010
0000
0000
0000
0000
0000
0000
0100
0000
0000
0000
1000
0000
0000
0000
1010
0000
0000
0000
0000
0000
0000
0000
0000
0000
0000
0000
,
1100
0000
0000
0100
0000
0000
0010
0000
1001
0000
1000
0000
0010
0100
0000
0000
,
0000
0101
0000
0001
1000
0001
0000
0010
0100
0000
0000
0100
1000
0000
0010
0000
,
0110
0000
0010
0100
0000
0010
1000
0010
0000
0100
0001
1000
0000
0100
0000
1100
,
0000
0100
0010
0100
0000
0010
0001
0010
0000
0100
1000
0001
0000
1000
0000
1010
,
0000
1000
0010
0100
0000
0001
0010
0100
0000
1000
0001
0100
0000
0010
0000
0000
,
0110
0000
001M
0100
0000
0001
0000
0010
0001
0100
M000
0100
0010
0000
1000
0000
,
1001
0000
0001
0010
0000
0100
1000
0010
0000
0100
0001
0010
0000
0001
0000
1001
,
0000
0010
1000
0100
0000
0010
0001
0100
0000
0010
1000
0001
0000
0010
0000
0110
,
0000
1000
0100
0010
0000
0001
0100
0010
0000
1000
0001
0010
0000
0000
0001
0000
,
0100
0000
M000
0010
0000
010M
0000
0000
00M1
0000
0000
0000
1000
0000
0100
0000
,
0010
0000
0000
1000
0000
0000
0010
0000
0004
0000
0403
0000
0310
0000
1000
0000
,
0001
0000
0000
0100
0000
0000
1000
0000
0200
0000
0000
0000
0301
0000
1000
0000
,
1010
0000
0000
1000
0004
0000
0013
0000
0011
0000
0000
0010
0400
0000
0310
0000
,
1001
0000
0000
1000
0000
0000
0010
0000
0200
0000
0000
0000
0310
0000
1000
0000
,
00M1
0000
M100
0001
0000
0M01
0010
0000
4000
0000
3M40
0000
0031
M000
0100
0000
,
001M
0000
1000
010M
0000
0100
10M0
0000
0002
0000
M000
0000
0403
M000
0310
0000
,
100M
0000
0000
1M00
0040
0000
0M31
0000
0010
0000
M000
0010
0400
M000
0301
0000
,
20M0
0000
0000
00M0
3200
0000
000M
0000
0320
0000
M000
0000
0000
0M00
0000
0000
,
M032
0000
0000
0M00
0000
0000
00M0
0000
0203
0000
00M0
0000
0000
M000
0000
0000
,
030M
0000
0000
00M0
0000
0000
0M00
0000
0000
0000
00M0
0000
0000
M000
0000
0000
,
0101
0000
0000
1100
0000
1000
0000
1000
0010
0100
0000
0001
0010
0000
0220
0000
,
0000
0000
0000
0330
0000
0000
0000
0000
;

//---------------dance-single - Spork!----------------
#NOTES:
     dance-single:
     Spork! - Beginner:
     Beginner:
     1:
     0.088,0.140,0.069,0.078,0.000,54.000,8.000,9.000,0.000,0.000,0.000,0.088,0.140,0.069,0.078,0.000,54.000,8.000,9.000,0.000,0.000,0.000:
0000
0000
0000
0000
,
0000
0000
0000
0000
,
0000
0000
0000
0000
,
0000
0000
0000
0000
,
0010
0000
0000
0000
,
0100
0000
0000
0000
,
0001
0000
0000
0000
,
0001
0000
0000
0000
,
0010
0000
0000
0000
,
0100
0000
0000
0000
,
1000
0000
0000
0000
,
1000
0000
0000
0000
,
0002
0000
0000
0003
,
0200
0000
0000
0300
,
0002
0000
0000
0003
,
0020
0000
0000
0030
,
0200
0000
0000
0300
,
2000
0000
0000
3000
,
0020
0000
0000
0030
,
2000
0000
0001
3001
,
0001
0000
0000
0000
,
0010
0000
0001
0000
,
1000
0000
0000
0000
,
0010
0000
1000
0000
,
0100
0000
0000
0000
,
0010
0000
0000
0000
,
0100
0000
0000
0000
,
0100
0000
0000
0000
,
0110
0000
0000
0000
,
0110
0000
0000
0000
,
0110
0000
0000
0000
,
0001
0000
1000
0000
,
1001
0000
0000
0000
,
1001
0000
0000
0000
,
1001
0000
1001
0000
,
0000
0000
0000
0000
,
0001
0000
0000
0000
,
0010
0000
0000
0000
,
0100
0000
0000
0000
,
1000
0000
0001
0000
,
1000
0000
0000
0000
,
0010
0000
0000
0000
,
0100
0000
0000
0000
,
0000
0000
0000
0000
,
0001
0000
0000
0000
,
0001
0000
0000
0000
,
1000
0000
0000
0000
,
1000
0000
0000
0000
,
0010
0000
0000
0000
,
0100
0000
0000
0000
,
0001
0000
0000
0000
,
2000
0000
0000
0000
,
0000
0000
0000
0000
,
3000
0000
0000
0000
,
1001
0000
0000
0000
;

//---------------dance-single - Spork!----------------
#NOTES:
     dance-single:
     Spork! - Light:
     Easy:
     2:
     0.184,0.237,0.147,0.259,0.000,102.000,17.000,30.000,0.000,0.000,0.000,0.184,0.237,0.147,0.259,0.000,102.000,17.000,30.000,0.000,0.000,0.000: // measure 0
0000
0000
0000
0000
,  // measure 1
0000
0000
0000
0000
,  // measure 2
0000
0000
0000
0000
,  // measure 3
0000
0000
0000
0000
,  // measure 4
0020
0000
0130
0000
,  // measure 5
0200
0000
0301
0000
,  // measure 6
0002
0000
0013
0000
,  // measure 7
0020
0000
0130
0000
,  // measure 8
0020
0000
0130
0000
,  // measure 9
0200
0000
1300
0000
,  // measure 10
2000
0000
3002
0000
,  // measure 11
0203
0000
0000
0000
,  // measure 12
0302
0000
0100
0000
,  // measure 13
1000
0000
0010
0000
,  // measure 14
2003
0000
0010
0000
,  // measure 15
0001
0000
0100
0000
,  // measure 16
3002
0000
0010
0000
,  // measure 17
0100
0000
1003
0000
,  // measure 18
2000
0000
0100
0000
,  // measure 19
0010
0000
3001
1000
,  // measure 20
0100
0000
1100
0000
,  // measure 21
0100
0000
1000
0001
,  // measure 22
0100
0000
0101
0000
,  // measure 23
0100
0000
0010
1000
,  // measure 24
0001
0000
0001
0000
,  // measure 25
1000
0000
1000
0000
,  // measure 26
0100
0000
0110
0000
,  // measure 27
2002
0000
0000
3003
,  // measure 28
0021
0000
0000
0030
,  // measure 29
1200
0000
0000
0300
,  // measure 30
0120
0000
0000
0030
,  // measure 31
1001
0000
0100
0000
,  // measure 32
1020
0000
0000
0030
,  // measure 33
0201
0000
0000
0300
,  // measure 34
0120
0000
0200
0000
,  // measure 35
0330
0000
0000
0000
,  // measure 36
1000
0000
0100
0000
,  // measure 37
0001
0000
0010
0000
,  // measure 38
1000
0000
0001
0000
,  // measure 39
0200
0000
0310
0100
,  // measure 40
0001
0000
0010
0000
,  // measure 41
1000
0000
0100
0000
,  // measure 42
0001
0000
1000
0000
,  // measure 43
0001
0001
0002
0000
,  // measure 44
1003
0000
0110
0000
,  // measure 45
0001
0000
0110
0000
,  // measure 46
1000
0100
0010
0001
,  // measure 47
1000
1000
2000
0000
,  // measure 48
3001
0000
0110
0000
,  // measure 49
1000
0000
0110
0000
,  // measure 50
0001
0010
0001
0100
,  // measure 51
0020
2030
3002
0000
,  // measure 52
0023
0000
0230
0000
,  // measure 53
0300
0000
0000
0000
,  // measure 54
1001
0000
0000
0000
0000
0000
0000
0110
;

//---------------dance-single - Spork!----------------
#NOTES:
     dance-single:
     Spork! - Standard:
     Medium:
     6:
     0.355,0.383,0.285,0.225,0.095,229.000,33.000,26.000,0.000,0.000,0.000,0.355,0.383,0.285,0.225,0.095,229.000,33.000,26.000,0.000,0.000,0.000:
0000
0000
0000
0000
,
0000
0000
0000
0000
,
0000
0000
0000
0000
,
0000
0000
0000
0000
0000
0000
0100
0001
,
1000
0000
0000
0000
1000
0000
0000
1000
0000
0000
0000
0000
0000
0000
0100
0000
,
0010
0000
0100
1000
0001
0000
0000
0100
,
0001
0000
0010
0001
0100
0000
0010
0000
,
0100
0000
0010
1000
0100
0000
0100
1000
,
0001
0000
0000
0000
0001
0000
0000
0001
0000
0000
0000
0000
0000
0000
0100
0000
,
0010
0000
0100
0001
1000
0000
0010
0000
,
1000
0000
0000
1000
0000
0000
1000
0000
0001
0000
0000
0001
0000
0000
0001
0000
,
2000
0100
3002
0000
,
2003
0000
0000
0100
3000
0000
0000
0000
0020
0000
0000
0100
0030
0000
0000
0000
,
1000
0000
0000
1000
0000
0000
0100
0000
0020
0000
0000
0000
0000
0000
0000
0000
,
0032
0000
0000
0100
0003
0000
0000
0000
0020
0000
0000
0100
0030
0000
0000
0000
,
0001
0000
0000
0001
0000
0000
1000
0000
0020
0000
0000
0000
0000
0000
0000
0000
,
0130
1001
0010
1001
,
0001
0000
0000
0001
0000
0000
0010
0000
0100
0000
0000
0000
1000
0000
0000
0000
,
0010
0000
0000
0010
0000
0000
0010
0000
0100
0000
0000
0000
0100
0000
0000
0000
,
0210
0000
0301
1000
,
0001
0010
0001
0010
0200
0000
0010
0000
,
1300
0000
1000
0001
1000
0100
0010
0001
,
1000
0010
1000
0010
0200
0000
0010
0000
,
0301
0000
0001
1000
0001
0010
0100
1000
,
0001
0000
0100
0000
0011
0000
0000
0001
,
1000
0100
1010
0010
,
0100
0000
0000
0100
0000
0000
0100
0000
0010
0000
0000
0000
0010
0000
0000
0000
,
0120
0100
2030
0000
,
3001
0000
0100
0000
0001
0010
1000
0000
,
0010
0000
0100
0000
1000
0100
0001
0000
,
0100
0000
0010
0000
0001
1000
0010
0000
,
2000
0000
0001
3001
,
1000
0000
0010
0000
0001
0010
1010
0000
,
0001
0000
0010
0000
1000
0010
0011
0000
,
0201
0000
0000
0300
1020
0000
0000
0000
,
0030
0000
0000
0000
0000
0000
0010
1000
,
0001
0011
1010
0011
,
1000
1100
0101
1100
,
0010
0101
1100
1001
,
0200
0000
0310
1000
,
0001
0000
0011
0000
0101
0000
1100
0100
,
1000
0000
1100
0000
1010
0000
0011
0010
,
0001
0101
0110
1001
,
0020
0000
0000
0000
0130
0000
0001
0100
,
0010
0000
0000
0010
0000
0000
0010
0000
1000
0000
0000
0000
1000
0000
0100
0000
,
0010
0000
0000
0010
0000
0000
0010
0000
0001
0000
0000
0000
0010
0000
0001
0000
,
1000
0000
0000
0010
0000
0000
1000
0000
0001
0000
0000
0100
0000
0000
0001
0000
,
0020
0000
0100
0000
0130
0000
0010
0001
,
1000
0000
1100
0000
0110
0000
0100
1000
,
0001
0000
0101
0000
0110
0000
0010
0100
,
0001
0000
0000
0100
0000
0000
0001
0000
1000
0000
0000
0001
0000
0000
1000
0000
,
0200
0320
0032
0000
,
2003
0000
3020
0000
,
0030
0000
0000
0000
,
0100
0000
0000
0100
0000
0000
0000
0000
0000
0010
0000
0010
0000
0000
2002
0000
,
0000
0000
0000
3003
0000
0000
0000
0000
;
