#TITLE:Lay it Down;
#SUBTITLE:;
#ARTIST:Lloyd;
#TITLETRANSLIT:;
#SUBTITLETRANSLIT:;
#ARTISTTRANSLIT:;
#GENRE:;
#CREDIT:;
#BANNER:Lay it Down-bn.png;
#BACKGROUND:Lay it Down-bg.png;
#LYRICSPATH:;
#CDTITLE:;
#MUSIC:Lloyd - Lay It Down.ogg;
#OFFSET:0.002000;
#SAMPLESTART:36.153999;
#SAMPLELENGTH:13.077000;
#SELECTABLE:YES;
#DISPLAYBPM:78.000000;
#BPMS:0.000000=78.000000
;
#STOPS:
;
#BGCHANGES:;
#KEYSOUNDS:;
#ATTACKS:;

//---------------dance-single - ----------------
#NOTES:
     dance-single:
     :
     Challenge:
     9:
     0.610467,0.585596,0.071221,1.000000,0.577682,404.000000,9.000000,127.000000,0.000000,0.000000,0.000000,0.610467,0.585596,0.071221,1.000000,0.577682,404.000000,9.000000,127.000000,0.000000,0.000000,0.000000:
// measure 0
0000
0000
0000
0000
,  // measure 1
0000
0000
0000
0000
,  // measure 2
0000
0000
0000
0000
,  // measure 3
0000
0000
0000
0000
0000
0000
0000
0000
0000
0000
0000
0000
0000
0000
0001
1000
0010
0000
0100
0000
0010
0000
1000
0000
0100
0000
1000
0000
0100
0000
1000
0000
,  // measure 4
0012
1003
0001
0100
0010
0100
0001
1000
0100
0010
0001
1000
0010
1000
0200
0000
,  // measure 5
2300
0000
0000
0000
3001
0000
0000
0000
2000
0000
0000
0000
3020
0000
0000
0000
0230
0000
0000
0000
0320
0000
0000
0000
2030
0000
0001
3000
1000
0000
0100
0000
,  // measure 6
0010
0100
1000
0001
0100
0010
0100
0001
1000
0001
0100
0010
1000
0001
0020
0000
,  // measure 7
0230
0000
1300
0000
0002
0000
0023
0000
0000
0032
2003
3020
0000
0100
0130
0001
,  // measure 8
1000
0100
0010
0001
1000
0010
0100
0001
2000
0000
3002
0000
0003
0000
0100
0010
,  // measure 9
1000
0010
0100
0001
1000
0100
0010
0001
2000
0000
3002
0000
0003
0000
1000
0001
,  // measure 10
0020
0000
0031
1000
0010
0100
0001
1000
0020
0100
0100
0030
0001
0000
1000
0001
,  // measure 11
0020
0000
0000
0000
0130
0000
0000
0000
0010
0000
0001
0000
1000
0000
0010
0000
0200
0000
0001
0000
0001
0000
0300
0000
2000
0000
0000
0000
3200
0000
0000
0300
,  // measure 12
0012
0000
2003
0000
3020
0000
0230
0000
0000
0001
0301
0000
2000
0000
3002
0000
,  // measure 13
0023
0000
0000
0000
0230
0000
0000
0000
2300
0000
0000
0000
3002
0000
0000
0000
0023
0000
0000
0000
0230
0000
0000
0000
2300
0000
0000
0000
3020
0000
0000
0030
,  // measure 14
0102
0000
2003
0000
3200
0000
0320
0000
0000
0001
0031
0000
2000
0000
3020
0000
,  // measure 15
0230
0000
0000
0000
0302
0000
0000
0000
2003
0000
0000
0000
3200
0000
0000
0000
0000
0000
0010
0000
0310
0000
0000
0000
0001
0000
1000
0000
0200
0000
0000
0300
,  // measure 16
1000
0000
0001
0000
0200
0000
0000
0300
0001
0000
1000
0000
0200
0000
0000
0300
1000
0000
0001
0000
0200
0000
0000
0300
0001
0000
1000
0000
0200
0000
0310
0000
,  // measure 17
0001
0000
0000
0000
1000
0000
0000
0000
0020
0000
0000
0000
0000
0000
0000
0000
1030
0000
0000
0000
0001
0000
0000
0000
0200
0000
0000
0300
0200
0000
0000
0000
0302
0000
0000
0000
0000
0000
0000
0000
1003
0000
0100
0000
0020
0000
0000
0000
0032
0000
0000
0000
0000
0000
0000
0000
2003
0000
0000
0000
0000
0000
3000
0000
,  // measure 18
0201
0000
0320
0000
2030
0000
3002
0000
0000
0010
0013
0000
0002
0000
0203
0000
,  // measure 19
0320
0000
2030
0000
3000
0000
1000
0010
0000
0000
1000
0100
0000
0000
0000
0000
,  // measure 20
0000
0000
0000
0000
0000
0000
0000
0000
0000
0000
0000
0000
0001
0010
0002
0000
,  // measure 21
2003
0000
3020
0000
0230
0000
0302
0000
0023
0000
0230
0000
2300
0000
3001
0100
,  // measure 22
0010
1000
0001
0010
1000
0010
0100
1000
0001
1000
0100
1000
0020
0000
0230
0000
,  // measure 23
0301
0000
0000
0000
1000
0000
0000
0000
0100
0000
0000
0000
0010
0000
0100
1000
0100
0000
1000
0000
0001
0000
0100
0000
0010
0000
0100
0001
1000
0000
0100
0000
,  // measure 24
0011
0001
1000
0010
0100
0001
0010
0001
0200
0000
0320
0000
0030
1000
0001
0010
,  // measure 25
0001
0100
0010
1000
0001
0100
0001
1000
0200
0000
0320
0000
0030
0000
0001
0010
,  // measure 26
0200
0000
0310
0001
1000
0010
0100
0010
2000
0001
0001
3000
1000
0010
0100
0001
,  // measure 27
0010
0000
0100
0000
1000
0000
0010
0000
0100
0000
0010
0000
1000
0000
0001
0000
0020
0000
0230
0000
0320
0000
2030
0000
3020
0000
0000
0000
0032
0000
0000
0003
,  // measure 28
1200
0000
2300
0000
3002
0000
0203
0000
0000
0010
0310
0000
2000
0000
3002
0000
,  // measure 29
0023
0000
0000
0000
0230
0000
0000
0000
2300
0000
0000
0000
3020
0000
0000
0000
0230
0000
0000
0000
0302
0000
0000
0000
2003
0000
0000
0000
3002
0000
0000
0003
,  // measure 30
0021
0000
0032
0000
2003
0000
3020
0000
0000
0100
0130
0000
0002
0000
2003
0000
,  // measure 31
3002
0000
0023
0000
0030
0000
0001
1000
0000
0000
1000
0001
0100
0010
1000
0000
,  // measure 32
0002
0000
0000
0010
1000
0000
0010
0000
0023
0100
0100
0000
0031
1000
1000
0000
,  // measure 33
0200
0000
0000
0010
1000
0000
0010
0000
2300
0010
0010
0000
3001
0100
0100
0010
,  // measure 34
2000
0000
0000
0001
0010
0000
0001
0000
3200
0010
0010
0310
0001
1000
0001
0010
,  // measure 35
0200
0000
0000
0000
0000
0000
1300
0000
0001
0000
0100
0000
0010
0000
1000
0000
0100
0000
0010
0000
0010
0000
0001
0000
1000
0000
0010
0100
0001
0000
0001
0000
,  // measure 36
1010
2000
0000
0000
0000
0000
3000
0001
1000
0100
0010
0100
2000
3000
0020
0000
,  // measure 37
0130
0002
0000
0000
0000
0000
0003
1000
0001
0010
0100
0010
0002
0000
0203
0000
,  // measure 38
0310
0000
1000
0000
0100
0000
1000
0000
0010
0000
1000
0000
0100
0000
1000
0000
0010
0000
1000
0000
0001
0000
0001
0000
0000
0000
0000
0000
0020
0000
0000
0030
,  // measure 39
0100
1000
0010
1000
0100
1000
0010
1000
0100
1000
0001
0001
1000
0010
0010
0100
,  // measure 40
0101
0000
0000
0000
;
