#TITLE:Ladies First;
#SUBTITLE:;
#ARTIST:Queen Latifah & Monie Love;
#TITLETRANSLIT:;
#SUBTITLETRANSLIT:;
#ARTISTTRANSLIT:;
#GENRE:;
#CREDIT:;
#BANNER:Ladies First-bn.png;
#BACKGROUND:Ladies First-bg.png;
#LYRICSPATH:;
#CDTITLE:;
#MUSIC:LADIES FIRST.mp3;
#OFFSET:-0.426000;
#SAMPLESTART:47.908001;
#SAMPLELENGTH:15.360000;
#SELECTABLE:YES;
#BPMS:0.000000=107.260002
;
#STOPS:
;
#BGCHANGES:;
#KEYSOUNDS:;
#ATTACKS:;

//---------------dance-single - ----------------
#NOTES:
     dance-single:
     :
     Hard:
     7:
     0.387249,0.459655,0.191025,0.000000,0.090964,298.000000,277.000000,21.000000,0.000000,0.000000,0.000000,0.387249,0.459655,0.191025,0.000000,0.090964,298.000000,277.000000,21.000000,0.000000,0.000000,0.000000:
// measure 0
0000
0000
0000
0000
,  // measure 1
0000
0000
0000
0000
,  // measure 2
0000
0000
0000
0000
,  // measure 3
0000
0000
0000
0000
,  // measure 4
0001
0000
0010
0000
0100
0000
1000
0100
0000
0000
0001
0100
0000
0000
0000
0000
,  // measure 5
1000
0000
0010
0000
0100
0000
0001
0100
0000
0000
1000
0100
0000
0000
0000
0000
,  // measure 6
0010
0000
1000
0000
0100
0000
0001
0100
0000
0000
1000
0100
0000
0000
0000
0000
,  // measure 7
0010
0000
0001
0000
0100
0000
1000
0100
0000
0000
0001
0100
0000
0000
0000
0000
,  // measure 8
0010
1000
0001
1000
0100
0010
0001
0100
,  // measure 9
0001
0010
0001
0100
0010
1000
0001
0010
,  // measure 10
1001
0100
0010
1000
0001
1000
0010
1000
,  // measure 11
0100
0000
0000
0000
0000
0000
1000
0001
,  // measure 12
0001
1000
0100
0010
0001
0100
0010
1000
,  // measure 13
0001
0001
0001
0001
,  // measure 14
0001
0010
1000
0001
0010
0000
0010
0001
,  // measure 15
1000
0100
0001
1000
0010
1000
0100
0010
,  // measure 16
0001
0100
1000
0001
0100
0000
0001
1000
,  // measure 17
0010
0001
1000
0100
0010
0011
1100
0011
,  // measure 18
1100
1000
0010
0100
0001
0010
0100
1000
,  // measure 19
0001
0100
0001
0010
0100
0001
0010
1000
,  // measure 20
0100
0010
0001
1000
0010
1000
0001
0010
,  // measure 21
0100
1000
0000
1000
,  // measure 22
0001
0000
0100
0000
0001
0000
0010
0001
0000
0000
1000
0001
0000
0000
0010
0000
,  // measure 23
0100
0000
1000
0000
0010
0000
1000
0001
0000
0000
1000
0010
0000
0000
0100
0000
,  // measure 24
0001
0010
0100
1000
0001
0010
1000
0100
,  // measure 25
0001
0010
0100
1000
0001
0100
1000
0010
,  // measure 26
0001
1000
0100
1000
0010
0001
0100
1000
,  // measure 27
1001
0000
0000
0000
0000
0000
0011
0001
,  // measure 28
1001
1000
0100
0100
0010
0010
0001
1001
,  // measure 29
1010
0010
0100
0100
0001
0001
0010
0110
,  // measure 30
1001
0000
0000
0000
0010
0100
0100
1001
,  // measure 31
0110
0000
0000
0000
,  // measure 32
1100
1000
0100
0001
1000
0001
0100
0001
,  // measure 33
0010
0100
1000
0010
0100
1000
0100
0010
,  // measure 34
1000
0100
0010
0001
0100
0010
0001
0010
,  // measure 35
0100
0010
0100
0010
1000
0001
0010
0100
,  // measure 36
0000
1000
0010
0010
0010
1000
0001
0000
,  // measure 37
0000
0001
0010
0100
0010
0001
1000
0000
,  // measure 38
0001
0001
0100
0100
1000
1000
0100
0010
,  // measure 39
1001
0000
0000
0000
,  // measure 40
0110
0000
0001
0000
0010
0000
0001
1000
0000
0000
0010
0100
0000
0000
0001
0000
,  // measure 41
0100
0000
0001
0000
0010
0000
0100
1000
0000
0000
0001
1000
0000
0000
0000
0000
,  // measure 42
0110
0000
0001
0000
0100
0000
1000
0001
0000
0000
1000
0100
0000
0000
0000
0000
,  // measure 43
0100
0010
0010
0000
0001
0100
0010
1000
,  // measure 44
1001
0000
0000
0000
0000
0000
0000
0000
0000
0000
1100
0000
0000
0101
0000
0000
,  // measure 45
1000
0000
0000
0000
0001
0000
0000
0000
0000
0000
0000
0000
0000
0000
0000
1000
;

//---------------dance-single - ----------------
#NOTES:
     dance-single:
     :
     Medium:
     6:
     0.310579,0.376081,0.081868,0.000000,0.009096,239.000000,230.000000,9.000000,0.000000,0.000000,0.000000,0.310579,0.376081,0.081868,0.000000,0.009096,239.000000,230.000000,9.000000,0.000000,0.000000,0.000000:
// measure 0
0000
0000
0000
0000
,  // measure 1
0000
0000
0000
0000
,  // measure 2
0000
0000
0000
0000
,  // measure 3
0000
0000
0000
0000
,  // measure 4
0010
0001
0100
0001
1000
0000
0001
0000
,  // measure 5
0010
0001
0100
0001
1000
0000
0001
0000
,  // measure 6
0010
0100
1000
0010
0100
0000
0010
0000
,  // measure 7
0100
0010
1000
0100
0010
0000
0100
0000
,  // measure 8
1000
0001
0100
0000
0001
0000
0001
0000
,  // measure 9
1000
1000
1000
0000
0100
0010
0100
0000
,  // measure 10
0010
0001
0100
0010
0000
0010
0000
0010
,  // measure 11
0100
0000
0000
0000
,  // measure 12
0001
1000
0001
1000
0010
0100
0001
1000
,  // measure 13
0010
1000
1000
1000
,  // measure 14
0100
1000
0001
0000
0010
0000
0100
1000
,  // measure 15
0001
0000
0010
0001
0100
0000
0010
1000
,  // measure 16
0001
0000
0100
0001
1000
0000
0100
1000
,  // measure 17
0100
0000
0010
0100
1000
0000
0010
0001
,  // measure 18
0010
0001
1000
1000
0001
0000
1000
0010
,  // measure 19
1000
1000
0001
0100
0001
0001
1000
1000
,  // measure 20
0100
0000
0010
0001
0100
0000
1000
0000
,  // measure 21
0110
0000
0000
0000
,  // measure 22
0010
0100
0001
1000
0001
0000
0100
0000
,  // measure 23
0010
0100
0001
1000
0001
0000
0100
0000
,  // measure 24
0001
0010
0001
0010
0100
1000
0100
1000
,  // measure 25
0010
1000
0010
1000
0001
0010
0001
0010
,  // measure 26
0001
0001
0100
0000
1000
1000
0100
0000
,  // measure 27
1001
0000
0000
0000
0000
0000
0010
0001
,  // measure 28
1000
0010
0100
0001
0100
0001
0010
0001
,  // measure 29
0010
0001
1000
0100
1000
0010
1000
0100
,  // measure 30
0110
0000
0000
0000
0001
0100
0010
0000
,  // measure 31
1001
0000
0000
0000
,  // measure 32
0010
1000
0001
0100
0010
0100
0001
1000
,  // measure 33
0100
0010
0100
1000
0001
1000
0100
0010
,  // measure 34
0001
0000
1000
0100
1000
0010
0100
0000
,  // measure 35
0001
0100
0001
0000
1000
1000
1000
0000
,  // measure 36
0000
0000
0010
1000
0001
0000
1010
0000
,  // measure 37
0000
0000
0001
0010
0100
0000
0011
0000
,  // measure 38
1100
0000
0010
0001
0100
0000
0001
0100
,  // measure 39
1000
0000
0000
0000
,  // measure 40
0010
1000
0001
0100
0010
0000
0001
0000
,  // measure 41
0010
1000
0001
0100
0010
0000
0001
0000
,  // measure 42
0010
0001
1000
0100
0010
0000
0100
0000
,  // measure 43
0010
0001
0100
0000
1000
0100
0001
0000
,  // measure 44
0011
0000
0000
0000
0000
0000
0000
0000
0000
0000
0001
0000
0000
0010
0000
0000
,  // measure 45
0001
0000
0000
0000
1010
0000
0000
0000
0000
0000
0000
0000
0000
0000
0000
0001
;

//---------------dance-single - ----------------
#NOTES:
     dance-single:
     :
     Easy:
     3:
     0.201421,0.251062,0.191025,0.000000,0.000000,155.000000,134.000000,21.000000,0.000000,0.000000,0.000000,0.201421,0.251062,0.191025,0.000000,0.000000,155.000000,134.000000,21.000000,0.000000,0.000000,0.000000:
// measure 0
0000
0000
0000
0000
,  // measure 1
0000
0000
0000
0000
,  // measure 2
0000
0000
0000
0000
,  // measure 3
0000
0000
0000
0000
,  // measure 4
0001
0010
0010
0000
,  // measure 5
1000
0010
0010
0000
,  // measure 6
0001
0100
0100
0000
,  // measure 7
1000
0001
0001
0000
,  // measure 8
0010
0100
0010
0001
,  // measure 9
1000
0010
0100
0010
,  // measure 10
1000
1000
0001
0001
,  // measure 11
1000
0000
0000
0001
,  // measure 12
1100
0001
0001
0001
,  // measure 13
0010
0000
0000
0000
,  // measure 14
0001
0100
0010
0000
,  // measure 15
1000
0001
0010
0000
,  // measure 16
0010
0010
0001
0000
,  // measure 17
1000
1000
0001
0100
,  // measure 18
0100
0010
1000
0001
,  // measure 19
0010
0100
1000
0010
,  // measure 20
0100
0000
0010
1000
,  // measure 21
0001
0000
0010
0000
,  // measure 22
0001
0001
1000
0100
,  // measure 23
0010
0010
0001
1000
,  // measure 24
0010
1000
0100
0001
,  // measure 25
0010
0001
0100
1000
,  // measure 26
0010
0100
0110
0010
,  // measure 27
1001
0000
0000
1000
,  // measure 28
0101
1000
0100
0010
,  // measure 29
1100
0010
0100
0001
,  // measure 30
1010
0000
0011
0000
,  // measure 31
1100
0000
0001
0001
,  // measure 32
0011
0001
1000
0000
,  // measure 33
0010
0110
0010
0000
,  // measure 34
1001
1001
0100
0000
,  // measure 35
0110
0110
0001
0000
,  // measure 36
1000
0010
0001
0100
,  // measure 37
1000
0100
0001
0010
,  // measure 38
1000
0001
0010
1000
,  // measure 39
0101
0000
0000
0000
,  // measure 40
0110
0010
1000
0010
,  // measure 41
0110
0100
0001
0100
,  // measure 42
1001
0010
0100
1000
,  // measure 43
0110
0000
0000
0000
,  // measure 44
1001
0000
0000
0000
,  // measure 45
0001
1000
0000
0000
,  // measure 46
0110
0000
0000
0000
;

//---------------dance-single - ----------------
#NOTES:
     dance-single:
     :
     Beginner:
     1:
     0.116954,0.146453,0.054579,0.000000,0.000000,90.000000,84.000000,6.000000,0.000000,0.000000,0.000000,0.116954,0.146453,0.054579,0.000000,0.000000,90.000000,84.000000,6.000000,0.000000,0.000000,0.000000:
// measure 0
0000
0000
0000
0000
,  // measure 1
0000
0000
0000
0000
,  // measure 2
0000
0000
0000
0000
,  // measure 3
0000
0000
0000
0000
,  // measure 4
0001
0000
0000
0000
,  // measure 5
1000
0000
0000
0000
,  // measure 6
0001
0000
0001
0000
,  // measure 7
1000
0000
1000
0000
,  // measure 8
0010
0000
0010
0000
,  // measure 9
1000
0000
1000
0000
,  // measure 10
0100
0000
0100
0000
,  // measure 11
0010
0000
0000
0000
,  // measure 12
1001
0000
0000
0000
,  // measure 13
0010
0010
0010
0000
,  // measure 14
0001
0000
0100
0000
,  // measure 15
1000
0000
0100
0000
,  // measure 16
0001
0000
1000
0000
,  // measure 17
0001
0000
1000
0000
,  // measure 18
0100
0100
0100
0000
,  // measure 19
0010
0010
0010
0000
,  // measure 20
0001
0000
1000
0000
,  // measure 21
0110
0000
0000
0000
,  // measure 22
0001
0001
0001
0000
,  // measure 23
1000
1000
1000
0000
,  // measure 24
0010
0000
0100
0000
,  // measure 25
0001
0000
1000
0000
,  // measure 26
0001
0001
0000
1000
,  // measure 27
1000
0000
0000
0001
,  // measure 28
0001
0000
0010
0000
,  // measure 29
0100
0000
1000
0000
,  // measure 30
0010
0000
0100
0100
,  // measure 31
0100
0000
0000
0000
,  // measure 32
0110
0000
0001
0000
,  // measure 33
0001
0000
0010
0000
,  // measure 34
0010
0000
0100
0000
,  // measure 35
1000
0000
1000
0000
,  // measure 36
0000
0001
0001
0001
,  // measure 37
0000
1000
1000
1000
,  // measure 38
0000
0010
0010
0000
,  // measure 39
0110
0000
0000
0000
,  // measure 40
0001
0000
0001
0000
,  // measure 41
0100
0000
0100
0000
,  // measure 42
1000
0000
1000
0000
,  // measure 43
0010
0000
0000
0000
,  // measure 44
1001
0000
0000
0000
,  // measure 45
0100
0000
0000
0000
,  // measure 46
1001
0000
0000
0000
;
