#VERSION:0.83;
#TITLE:LOVESICK BABY;
#SUBTITLE:;
#ARTIST:MINIKOMA☆;
#TITLETRANSLIT:;
#SUBTITLETRANSLIT:;
#ARTISTTRANSLIT:;
#GENRE:LOVESICK'N'BASS;
#ORIGIN:;
#CREDIT:Telperion;
#BANNER:[Round 1] - LOVESICK BABY.png;
#BACKGROUND:[Round 1] - LOVESICK BABY-bg;
#PREVIEWVID:;
#JACKET:[Round 1] - LOVESICK BABY-jacket.png;
#CDIMAGE:;
#DISCIMAGE:;
#LYRICSPATH:;
#CDTITLE:cdtitle.png;
#MUSIC:[Round 1] - LOVESICK BABY.ogg;
#OFFSET:0.009000;
#SAMPLESTART:85.660004;
#SAMPLELENGTH:21.340000;
#SELECTABLE:YES;
#DISPLAYBPM:180.000000;
#BPMS:0.000=180.000;
#STOPS:;
#DELAYS:;
#WARPS:;
#TIMESIGNATURES:0.000=4=4;
#TICKCOUNTS:0.000=4;
#COMBOS:0.000=1;
#SPEEDS:0.000=1.000=0.000=0;
#SCROLLS:0.000=1.000;
#FAKES:;
#LABELS:0.000=Song Start;
#BGCHANGES:;
#KEYSOUNDS:;
#ATTACKS:
;

//---------------dance-single - Telperion----------------
#NOTEDATA:;
#CHARTNAME:Telperion;
#STEPSTYPE:dance-single;
#DESCRIPTION:Telperion;
#CHARTSTYLE:;
#DIFFICULTY:Beginner;
#METER:1;
#RADARVALUES:0.085714,0.137857,0.000000,0.000000,0.000000,84.000000,84.000000,0.000000,0.000000,0.000000,0.000000,0.000000,0.000000,0.000000,0.085714,0.137857,0.000000,0.000000,0.000000,84.000000,84.000000,0.000000,0.000000,0.000000,0.000000,0.000000,0.000000,0.000000;
#CREDIT:Telperion;
#DISPLAYBPM:180.000000;
#NOTES:
0000
0000
0000
0000
,
0000
0000
0000
0000
,
0000
0000
0000
0000
,
0000
0000
0000
0000
,
0000
0000
0000
0000
,
0000
0000
0000
0000
,
0000
0000
0000
0000
,
0000
0000
0000
0000
,
0000
0000
0001
0000
,
0000
0000
1000
0000
,
0000
0000
0100
0000
,
0000
0000
0010
0000
,
0000
0000
1000
0000
,
0000
0000
0001
0000
,
0000
0000
0100
0000
,
0000
0000
0010
0000
,
0000
0000
1000
0000
,
0000
0000
0000
0000
,
0000
0000
0001
0000
,
0000
0000
0000
0000
,
0000
0000
1000
0000
,
0000
0000
0000
0000
,
0000
0000
0001
0000
,
0000
0000
0000
0000
,
0000
0000
0010
0000
,
0000
0000
0000
0000
,
0000
0000
0100
0000
,
0000
0000
0000
0000
,
0000
0000
0010
0000
,
0000
0000
0000
0000
,
0000
0000
0100
0000
,
0000
0000
0000
0000
,
0000
0000
0001
0000
,
0000
0000
0001
0000
,
0000
0000
1000
0000
,
0000
0000
1000
0000
,
0000
0000
0001
0000
,
0000
0000
0001
0000
,
0000
0000
1000
0000
,
0000
0000
0010
0000
,
0000
0000
0001
0000
,
0000
0000
0001
0000
,
0000
0000
0100
0000
,
0000
0000
0100
0000
,
0000
0000
0010
0000
,
0000
0000
0010
0000
,
0000
0000
1000
0000
,
0000
0000
1000
0000
,
0000
0000
0001
0000
,
0000
0000
0000
0000
,
0000
0000
0010
0000
,
0000
0000
0100
0000
,
0000
0000
1000
0000
,
0000
0000
0000
0000
,
0000
0000
0010
0000
,
0000
0000
0100
0000
,
0000
0000
0001
0000
,
0000
0000
0000
0000
,
0000
0000
0010
0000
,
0000
0000
0100
0000
,
0000
0000
1000
0000
,
0000
0000
0000
0000
,
0000
0000
0001
0000
,
0000
0000
0000
0000
,
0000
0000
0100
0000
,
0100
0000
0100
0000
,
0000
0000
0001
0000
,
0000
0000
1000
0000
,
0000
0000
0100
0000
,
0000
0000
0100
0000
,
0000
0000
1000
0000
,
0000
0000
0001
0000
,
0000
0000
0010
0000
,
0010
0000
0010
0000
,
0000
0000
0001
0000
,
0000
0000
1000
0000
,
0000
0000
0010
0000
,
0000
0000
0010
0000
,
0000
0000
1000
0000
,
0000
0000
0001
0000
,
0000
0000
0010
0000
,
0010
0000
0010
0000
,
0000
0000
0100
0000
,
0100
0000
0100
0000
,
0000
0000
1000
0000
,
1000
0000
1000
0000
,
0000
0000
0001
0000
,
0000
0000
1000
0000
,
0000
0000
0010
0000
,
0010
0000
0010
0000
,
0000
0000
0100
0000
,
0100
0000
0100
0000
,
0000
0000
0001
0000
,
0001
0000
0001
0000
,
0000
0000
1000
0000
,
0000
0000
0001
0000
,
0000
0000
0010
0000
;

//---------------dance-single - Telperion----------------
#NOTEDATA:;
#CHARTNAME:Telperion;
#STEPSTYPE:dance-single;
#DESCRIPTION:Telperion;
#CHARTSTYLE:;
#DIFFICULTY:Easy;
#METER:4;
#RADARVALUES:0.251020,0.310179,0.100000,0.221429,0.000000,246.000000,232.000000,14.000000,31.000000,0.000000,0.000000,0.000000,0.000000,0.000000,0.251020,0.310179,0.100000,0.221429,0.000000,246.000000,232.000000,14.000000,31.000000,0.000000,0.000000,0.000000,0.000000,0.000000;
#CREDIT:Telperion;
#DISPLAYBPM:180.000000;
#NOTES:
0000
0000
0000
0000
,
0000
0000
0000
0000
,
0000
0000
0000
0000
,
0000
0000
0000
0000
,
0000
0000
0000
0000
,
0000
0000
0000
0000
,
0000
0000
0000
0000
,
0000
0000
0000
0000
,
0000
0000
1000
0100
,
0000
1000
0001
0100
,
0000
0001
1000
0010
,
0000
1000
0001
0010
,
0100
1000
0001
0000
,
0100
0001
1000
0000
,
0010
1000
0001
0001
,
0010
0010
0100
0100
,
1000
0001
0200
0310
,
0000
0010
0000
1000
,
0000
1000
0000
0001
,
0000
0001
0000
0010
,
0000
0010
0200
0310
,
0000
0010
0000
0001
,
0000
0001
0000
1000
,
0000
1000
0000
0010
,
0100
0100
0001
1000
,
0000
1000
0000
0001
,
0000
0001
0000
0010
,
0000
0010
0000
0100
,
0000
0100
0020
0130
,
0000
0100
0000
1000
,
0000
1000
0000
0001
,
0000
0001
1000
1000
,
0010
0100
0001
0000
,
0010
0001
0100
0000
,
0010
1000
0001
0000
,
0010
0001
0100
0010
,
0100
0001
1000
0000
,
0010
1000
0100
0000
,
0010
0001
2000
0000
,
3020
0000
0230
0000
,
0302
0000
0003
0000
,
1000
0100
0010
0000
,
0001
1000
0010
0000
,
1000
0100
0010
0001
,
1000
0010
0100
0000
,
0001
0100
0010
0000
,
1000
0001
0010
0010
,
0100
0100
1000
0001
,
0100
0000
0220
0000
,
0330
0000
0001
0000
,
1000
0000
2002
0000
,
3003
0000
0100
0000
,
0010
0000
0220
0000
,
0330
0000
1000
0000
,
0001
0000
2002
0000
,
3003
0000
0100
0000
,
0010
0000
0220
0000
,
0330
0000
0001
0000
,
1000
0000
0020
0000
,
2030
0000
3002
0000
,
0023
0000
0230
0000
,
0300
0000
0010
0000
,
0001
0000
1001
0000
,
0000
0000
0000
0000
,
0000
0000
0001
0001
,
0010
0000
1000
1000
,
0010
0000
0001
0100
,
0001
1000
0001
0100
,
0010
0000
1000
0001
,
1000
0100
1000
0001
,
0010
0000
0001
0100
,
0001
1000
0001
0100
,
0010
0000
1000
0100
,
0100
0000
0001
0100
,
0100
0000
1000
0001
,
0100
0001
1000
0100
,
0010
0000
0001
1000
,
0100
1000
0001
0100
,
0010
0000
1000
0100
,
0010
0001
2000
0000
,
3000
0000
1020
0000
,
0130
0000
0001
1000
,
0100
0000
0021
0000
,
0130
0000
1000
0001
,
0100
0000
1020
0000
,
0130
0000
0001
1000
,
0100
0000
0210
0000
,
0300
1000
0001
0010
,
0020
0030
1200
0000
,
0310
0000
0001
1000
,
0010
0000
0201
0000
,
0310
0000
1000
0001
,
0010
0000
1200
0000
,
0310
0000
0001
1000
,
0010
0000
0100
0010
,
1000
0001
0010
0100
,
0100
0000
1001
0000
;

//---------------dance-single - Telperion----------------
#NOTEDATA:;
#CHARTNAME:Telperion;
#STEPSTYPE:dance-single;
#DESCRIPTION:Telperion;
#CHARTSTYLE:;
#DIFFICULTY:Medium;
#METER:7;
#RADARVALUES:0.447959,0.516964,0.278571,0.392857,0.003571,439.000000,400.000000,39.000000,55.000000,0.000000,0.000000,0.000000,0.000000,0.000000,0.447959,0.516964,0.278571,0.392857,0.003571,439.000000,400.000000,39.000000,55.000000,0.000000,0.000000,0.000000,0.000000,0.000000;
#CREDIT:Telperion;
#OFFSET:0.000000;
#BPMS:0.000000=180.000000
;
#STOPS:;
#DELAYS:;
#WARPS:;
#TIMESIGNATURES:0.000000=4=4
;
#TICKCOUNTS:0.000000=4
;
#COMBOS:0.000000=1
;
#SPEEDS:0.000000=1.000000=0.000000=0
;
#SCROLLS:0.000000=1.000000
,194.000000=0.500000
,250.000000=0.600000
,251.000000=0.700000
,252.000000=0.800000
,253.000000=0.900000
,254.000000=1.000000
,350.000000=0.900000
,350.500000=1.100000
,351.000000=0.800000
,351.500000=1.200000
,352.000000=0.700000
,352.500000=1.300000
,353.000000=1.000000
,382.000000=0.900000
,382.500000=1.100000
,383.000000=0.800000
,383.500000=1.200000
,384.000000=0.700000
,384.500000=1.300000
,385.000000=1.000000
;
#FAKES:;
#LABELS:0.000000=Song Start
;
#DISPLAYBPM:180.000000;
#NOTES:
// measure 0
0000
0000
0000
0000
,  // measure 1
0000
0000
0000
0000
,  // measure 2
0000
0000
0000
0000
,  // measure 3
0000
0000
0000
0000
,  // measure 4
0000
0000
0000
0000
,  // measure 5
0000
0000
0000
0000
,  // measure 6
0000
0000
0000
0000
,  // measure 7
0000
0000
0000
0000
,  // measure 8
0000
0000
1000
1010
,  // measure 9
0000
0100
0001
0000
0010
0000
0011
0000
,  // measure 10
0000
0100
1000
0000
0001
0000
0101
0000
,  // measure 11
0000
0100
0010
0000
1000
0000
1001
0000
,  // measure 12
0000
0001
0100
0000
0010
0000
1010
0000
,  // measure 13
0000
0100
0001
0000
0010
0000
0011
0000
,  // measure 14
0000
0100
1000
0000
0001
0000
0011
0000
,  // measure 15
1001
0000
0101
0000
0100
0010
0100
0010
,  // measure 16
2000
0000
0000
0000
3000
0000
0001
0010
,  // measure 17
0000
0010
0100
0000
1000
0001
0000
0001
,  // measure 18
0100
0000
0110
0000
0000
0000
1000
0010
,  // measure 19
0000
0010
0100
0000
0001
1000
0000
1000
,  // measure 20
0100
0000
0110
0000
0000
0000
0001
0010
,  // measure 21
0000
0001
1000
0000
0010
0100
0000
0100
,  // measure 22
0001
0000
0101
0000
0000
0000
1000
0001
,  // measure 23
0000
1000
0010
0000
0100
0010
0000
0100
,  // measure 24
0001
0000
1001
0000
1000
0100
0010
0001
,  // measure 25
0000
0001
1000
0000
1000
0010
0000
0010
,  // measure 26
0100
0000
0101
0000
0001
1000
0010
1000
,  // measure 27
0000
1000
0001
0000
0001
0010
0000
0010
,  // measure 28
0100
0000
1100
0000
1000
0001
1000
0100
,  // measure 29
0000
1000
0001
0000
1000
0010
0000
1000
,  // measure 30
0001
0000
0101
0000
0001
1000
0010
1000
,  // measure 31
0000
0010
0100
0000
0001
0000
1001
0000
,  // measure 32
0000
0000
1000
0100
1000
0000
0000
0000
0000
0000
0000
0000
0001
0000
1000
0000
,  // measure 33
0001
0010
0001
1000
0010
0000
0100
0000
,  // measure 34
0001
0000
0101
0000
0000
0000
1000
0100
,  // measure 35
1000
0001
1000
0010
0000
0000
0100
0000
,  // measure 36
0001
0000
0101
0000
0000
0000
1000
0100
,  // measure 37
0000
1000
0001
0000
0001
0100
0000
0001
,  // measure 38
1000
0000
1100
0000
0000
0000
0001
0010
,  // measure 39
0000
0001
1000
0000
1000
0010
0000
0100
,  // measure 40
0001
0000
0101
0000
0000
0000
1000
0001
,  // measure 41
0010
0000
0001
1000
0010
0000
0100
0000
,  // measure 42
0010
0000
1000
0001
0100
0000
0001
1000
,  // measure 43
0100
0000
0010
0001
0000
0001
0010
0100
,  // measure 44
1000
0000
0001
0000
0100
0000
0010
1000
,  // measure 45
0000
0010
0100
0000
0001
0100
0000
0001
,  // measure 46
1000
0001
0010
0000
0100
0000
1100
0000
,  // measure 47
1001
0000
1100
0000
0100
0010
0100
0010
,  // measure 48
0002
0000
1003
0000
,  // measure 49
0001
2000
3020
0000
,  // measure 50
0230
0000
0302
0000
,  // measure 51
2003
3002
2003
3200
,  // measure 52
0320
0000
0031
0000
,  // measure 53
1000
0002
0023
0000
,  // measure 54
0230
1000
2300
0000
,  // measure 55
3002
2003
3002
0203
,  // measure 56
0320
0000
1030
0000
,  // measure 57
0002
2003
3020
0000
,  // measure 58
0230
0001
0302
1000
,  // measure 59
2003
3200
0320
0032
,  // measure 60
0023
0000
0130
1000
0002
0000
0000
0000
,  // measure 61
0003
0000
0100
0001
2000
0000
0000
3100
,  // measure 62
0000
0000
1001
0000
,  // measure 63
0000
0000
0000
0000
,  // measure 64
0000
0000
0001
0100
0010
0000
1000
0000
,  // measure 65
1010
0000
0010
0100
0001
0000
1000
0000
,  // measure 66
1100
0000
0001
0000
0000
1000
0100
1000
,  // measure 67
0001
1000
0100
0000
0010
0001
0010
0001
,  // measure 68
2000
0000
3000
0000
0000
0001
0100
0001
,  // measure 69
1000
0001
0100
0000
0010
1000
0010
1000
,  // measure 70
0002
0000
0003
0000
0000
1000
0100
0010
,  // measure 71
0001
0010
0100
0000
1000
0001
1000
0001
,  // measure 72
0200
0000
0300
0000
0110
0000
1000
0010
,  // measure 73
0100
0000
0001
0000
1001
0000
1000
0100
,  // measure 74
0010
0000
0001
0000
0000
1000
0100
0010
,  // measure 75
0100
1000
0001
0000
0100
0001
0100
0001
,  // measure 76
2000
0000
3000
0000
0000
0001
0100
0010
,  // measure 77
0100
0001
1000
0000
0100
1000
0100
1000
,  // measure 78
0002
0003
0010
0011
,  // measure 79
1001
0000
0011
0000
1000
0010
1000
0010
,  // measure 80
0200
0000
0302
1000
,  // measure 81
0103
0001
1000
0000
0200
0000
0010
0000
,  // measure 82
1300
0100
0010
0000
0002
0000
1000
0000
,  // measure 83
0103
0001
1000
0000
0200
0000
0010
0000
,  // measure 84
1300
0100
0010
0001
2000
0000
0010
0000
,  // measure 85
3001
1000
0100
0000
0020
0000
0001
0000
,  // measure 86
0130
1000
0001
0000
0200
0000
0010
0000
,  // measure 87
0301
0100
0010
1000
0001
0000
0011
0000
,  // measure 88
0022
0033
2000
0001
,  // measure 89
3100
1000
0001
0000
0200
0000
0010
0000
,  // measure 90
0301
0100
0010
0000
2000
0000
0001
0000
,  // measure 91
3100
1000
0001
0000
0200
0000
0010
0000
,  // measure 92
0301
0100
0010
1000
0002
0000
0010
0000
,  // measure 93
1003
0001
0100
0000
0020
0000
1000
0000
,  // measure 94
0130
0001
1000
0000
0100
0000
0110
0000
,  // measure 95
0011
0000
0001
1000
0010
0000
1010
0000
,  // measure 96
2020
3030
0101
0000
;

//---------------dance-single - Telperion----------------
#NOTEDATA:;
#CHARTNAME:Telperion;
#STEPSTYPE:dance-single;
#DESCRIPTION:Telperion;
#CHARTSTYLE:;
#DIFFICULTY:Hard;
#METER:8;
#RADARVALUES:0.477551,0.516964,0.200000,0.200000,0.017857,468.000000,440.000000,28.000000,28.000000,0.000000,0.000000,2.000000,0.000000,0.000000,0.477551,0.516964,0.200000,0.200000,0.017857,468.000000,440.000000,28.000000,28.000000,0.000000,0.000000,2.000000,0.000000,0.000000;
#CREDIT:Telperion;
#OFFSET:0.000000;
#BPMS:0.000000=180.000000
;
#STOPS:;
#DELAYS:;
#WARPS:;
#TIMESIGNATURES:0.000000=4=4
;
#TICKCOUNTS:0.000000=4
;
#COMBOS:0.000000=1
;
#SPEEDS:0.000000=1.000000=0.000000=0
,186.000000=1.150000=4.000000=0
,190.000000=1.000000=4.000000=0
,250.000000=1.100000=0.000000=0
,250.125000=1.000000=0.875000=0
,251.000000=1.100000=0.000000=0
,251.125000=1.000000=0.875000=0
,252.000000=1.100000=0.000000=0
,252.125000=1.000000=0.875000=0
,253.000000=1.100000=0.000000=0
,253.125000=1.000000=0.875000=0
,254.000000=1.050000=0.000000=0
,254.125000=1.000000=0.375000=0
,254.500000=1.100000=0.000000=0
,254.625000=1.000000=0.375000=0
,255.000000=1.100000=0.000000=0
,255.125000=1.000000=0.375000=0
,255.500000=1.100000=0.000000=0
,255.625000=1.000000=0.375000=0
;
#SCROLLS:0.000000=1.000000
,82.000000=0.700000
,98.000000=1.000000
,114.000000=0.800000
,130.000000=1.000000
,146.000000=0.800000
,162.000000=1.000000
,178.000000=0.800000
,186.000000=0.770000
,187.000000=0.730000
,188.000000=0.700000
,189.000000=0.670000
,190.000000=0.630000
,191.000000=0.600000
,192.000000=0.570000
,193.000000=0.530000
,194.000000=0.500000
,250.000000=0.550000
,251.000000=0.600000
,252.000000=0.650000
,253.000000=0.700000
,254.000000=0.800000
,255.000000=0.900000
,256.000000=1.000000
,350.000000=0.900000
,350.500000=1.100000
,351.000000=0.700000
,351.500000=1.300000
,352.000000=0.500000
,352.500000=1.500000
,353.000000=1.000000
,382.000000=0.900000
,382.500000=1.100000
,383.000000=0.700000
,383.500000=1.300000
,384.000000=0.500000
,384.500000=1.500000
,385.000000=1.000000
;
#FAKES:;
#LABELS:0.000000=Song Start
;
#DISPLAYBPM:180.000000;
#NOTES:
// measure 0
0000
0000
0000
0000
,  // measure 1
0000
0000
0000
0000
,  // measure 2
0000
0000
0000
0000
,  // measure 3
0000
0000
0000
0000
,  // measure 4
0000
0000
0000
0000
,  // measure 5
0000
0000
0000
0000
,  // measure 6
0000
0000
0000
0000
,  // measure 7
0000
0000
0000
0000
,  // measure 8
0000
0000
0011
1000
,  // measure 9
0100
1000
0001
0000
0011
0000
1000
0010
,  // measure 10
0000
0010
0100
0000
0101
0000
1000
0000
,  // measure 11
0010
0100
0001
0000
0101
0000
1000
0001
,  // measure 12
0000
1000
0100
0000
1100
0000
0001
0000
,  // measure 13
1000
0100
0010
0000
0011
0000
1000
0001
,  // measure 14
0000
0001
0100
0000
1010
0000
0010
0000
,  // measure 15
0100
0000
0100
0000
0001
1000
0001
1000
,  // measure 16
0400
0000
0000
0000
0310
0000
0001
1000
,  // measure 17
0000
0001
0100
0001
0010
0000
0100
0000
,  // measure 18
1000
0000
0001
0100
0010
0000
0100
0001
,  // measure 19
0010
0000
0001
0100
0000
0010
0100
0001
,  // measure 20
1000
0100
0010
0001
0020
0000
0001
0000
,  // measure 21
0000
0000
0100
0000
0030
0000
0001
1000
,  // measure 22
0001
0100
0020
1000
,  // measure 23
0000
0100
0030
1000
,  // measure 24
1100
0000
0011
0000
0001
0000
1000
0010
,  // measure 25
0100
0100
0001
1000
0010
0000
0100
0000
,  // measure 26
0001
0000
1000
0100
0010
0000
0100
1000
,  // measure 27
0010
0100
0001
1000
0000
0100
0010
0100
,  // measure 28
1000
0001
0100
0010
2000
0000
0001
0000
,  // measure 29
0000
0100
3000
1020
,  // measure 30
0230
0000
0000
0000
0302
0000
0000
0000
0013
0000
0000
0200
0000
0000
0000
0000
,  // measure 31
0000
0010
0300
1000
,  // measure 32
0000
0000
0001
0100
0001
0000
1000
0000
0100
0000
0000
0000
0010
0000
0100
0000
,  // measure 33
1000
0100
1000
0100
0010
0000
0001
0000
,  // measure 34
1000
0000
0010
0100
0001
0000
1000
0001
,  // measure 35
0010
0100
0010
1000
0000
0010
0100
1000
,  // measure 36
0001
0100
0001
1000
0020
0000
0100
0000
,  // measure 37
0000
0000
1000
0000
0030
0000
0010
0100
,  // measure 38
0010
0000
1000
0000
0000
0000
0000
0000
0002
0000
0000
0000
0000
0000
1003
0100
,  // measure 39
2000
0000
0000
0000
0000
0000
3001
0100
0002
0000
0000
0000
0000
0000
1003
0010
,  // measure 40
2000
0000
0000
0000
3000
0000
0001
0100
,  // measure 41
0010
0000
0010
1000
0001
0000
0010
0000
,  // measure 42
0100
0000
1000
0001
0100
0000
0001
1000
,  // measure 43
0010
0100
0010
0001
0000
0010
0100
0001
,  // measure 44
0100
0010
1000
0001
0020
0000
0100
0000
,  // measure 45
0000
0001
0030
0011
,  // measure 46
1000
1010
0010
0010
,  // measure 47
0100
0000
0001
0000
1000
0001
1000
0001
,  // measure 48
0400
0000
0000
0000
0310
0000
0000
0010
,  // measure 49
0000
0000
0010
0000
0000
0010
0000
0000
,  // measure 50
1000
0000
0001
0000
0010
0000
0000
0010
,  // measure 51
0000
0000
0100
0000
0000
0100
0000
0000
,  // measure 52
1000
0000
0001
0000
0100
0000
0000
0100
,  // measure 53
0000
0000
0100
0000
0000
0100
0000
0000
,  // measure 54
0010
0000
1000
0000
0001
0000
0000
0001
,  // measure 55
0000
0000
0010
0000
0000
0010
0000
0000
,  // measure 56
0100
0000
1000
0000
0001
0000
0000
1000
,  // measure 57
0010
0000
0100
0000
0010
1000
0000
0000
,  // measure 58
0001
0000
0010
0000
0100
0000
0000
1000
,  // measure 59
0001
0000
0010
0000
0001
1000
0000
0000
,  // measure 60
0010
0000
0100
0000
0001
0000
0000
1000
,  // measure 61
0100
0000
1000
0000
0001
0100
0000
0000
,  // measure 62
0010
1000
0001
0001
,  // measure 63
1000
0000
1000
0000
0001
1000
0001
1000
,  // measure 64
0001
1000
0100
0010
0001
0000
1000
0000
,  // measure 65
0010
0100
0010
1000
0001
0000
0010
0000
,  // measure 66
0100
0010
0001
0000
1000
0010
0100
0000
,  // measure 67
0001
0100
0010
0000
1000
0001
0100
0010
,  // measure 68
2000
0000
3010
0000
0001
0010
0100
1000
,  // measure 69
0100
0010
0001
0000
1000
0010
1000
0010
,  // measure 70
0200
0000
0310
0000
0001
1000
0100
1000
,  // measure 71
0001
0010
0100
0000
1000
0010
1000
0010
,  // measure 72
0200
0000
0301
0100
1000
0000
0100
0010
,  // measure 73
0100
0001
1000
0100
0001
0000
0100
0000
,  // measure 74
1000
0100
1000
0000
0001
0010
0100
0000
,  // measure 75
1000
0100
0010
0000
0001
1000
0100
1000
,  // measure 76
0002
0000
0013
0000
1000
0010
0100
0001
,  // measure 77
0100
0010
1000
0000
0001
0010
0001
0010
,  // measure 78
0200
0310
1100
0001
,  // measure 79
0101
0000
1000
0000
0100
1000
0100
1000
,  // measure 80
0002
0000
0000
0000
0103
0000
0001
0100
,  // measure 81
0010
1000
0000
0100
0001
1000
0010
0100
,  // measure 82
0000
0001
0000
0102
0000
0000
1003
0100
,  // measure 83
0010
0001
0000
0100
1000
0100
0010
0001
,  // measure 84
0000
0011
0000
2100
0000
0000
3001
0100
,  // measure 85
0010
1000
0000
0100
0001
0100
0010
1000
,  // measure 86
0000
0001
0000
0012
0000
0000
1003
0100
,  // measure 87
0010
0100
1000
0001
0100
0000
0101
0000
,  // measure 88
0202
0000
0303
0000
1000
0000
0001
0010
,  // measure 89
0100
1000
0000
0010
0001
1000
0100
0010
,  // measure 90
0000
0001
0000
0012
0000
0000
1003
0010
,  // measure 91
0100
0001
0000
0010
1000
0010
0100
0001
,  // measure 92
0000
1001
0000
0210
0000
0000
0301
1000
,  // measure 93
0100
0010
0000
1000
0001
0100
0010
1000
,  // measure 94
0000
0001
0000
0100
0010
0000
1010
0000
,  // measure 95
0110
0000
0100
0001
1000
0000
1100
0000
,  // measure 96
2200
3300
0011
0000
;
