#VERSION:0.83;
#TITLE:極圏;
#SUBTITLE:;
#ARTIST:cosMo VS dj TAKA;
#TITLETRANSLIT:Kyokuken;
#SUBTITLETRANSLIT:;
#ARTISTTRANSLIT:;
#GENRE:ANTHEM;
#ORIGIN:;
#CREDIT:;
#BANNER:[Round 1] - Kyokuken.png;
#BACKGROUND:[Round 1] - Kyokuken-bg.png;
#PREVIEWVID:;
#JACKET:[Round 1] - Kyokuken-jacket.png;
#CDIMAGE:;
#DISCIMAGE:;
#LYRICSPATH:;
#CDTITLE:cdtitle.png;
#MUSIC:[Round 1] - Kyokuken.ogg;
#OFFSET:-0.880000;
#SAMPLESTART:49.569958;
#SAMPLELENGTH:9.231590;
#SELECTABLE:YES;
#BPMS:0.000=207.000;
#STOPS:;
#DELAYS:;
#WARPS:;
#TIMESIGNATURES:0.000=4=4;
#TICKCOUNTS:0.000=4;
#COMBOS:0.000=1;
#SPEEDS:0.000=1.000=0.000=0;
#SCROLLS:0.000=1.000;
#FAKES:;
#LABELS:0.000=Song Start;
#BGCHANGES:;
#KEYSOUNDS:;
#ATTACKS:
;

//---------------dance-single - ----------------
#NOTEDATA:;
#CHARTNAME:;
#STEPSTYPE:dance-single;
#DESCRIPTION:;
#CHARTSTYLE:;
#DIFFICULTY:Challenge;
#METER:13;
#RADARVALUES:1.086629,1.311636,0.444226,0.179249,1.336575,976.000000,919.000000,57.000000,23.000000,0.000000,0.000000,0.000000,0.000000,0.000000,1.086629,1.311636,0.444226,0.179249,1.336575,976.000000,919.000000,57.000000,23.000000,0.000000,0.000000,0.000000,0.000000,0.000000;
#CREDIT:;
#NOTES:
0000
0000
0000
0000
,
0000
0000
0000
0000
,
0000
0000
0000
0000
,
0000
0000
0000
0000
,
2002
0000
0000
0003
,
3001
0010
0001
0010
0100
1000
0100
1000
0010
0100
0010
0100
0001
0000
0000
0000
,
1000
0100
0010
0100
1000
0010
0100
0002
,
0000
0013
1000
0010
0001
0100
0001
1000
,
0200
0000
0000
0000
1300
0010
1000
0010
1000
0100
0010
0001
0010
0100
1000
0001
,
1000
0000
1100
0000
0001
0101
0000
1001
,
0000
1000
0010
0001
1000
0100
0001
1000
,
0100
0010
0100
0001
0100
0010
0001
1000
,
0001
0000
0100
0000
0001
0010
0001
0010
0001
0100
0010
1000
0010
0100
0001
1000
,
0001
0011
0000
1010
0000
1100
0000
0101
,
1001
1000
0100
0010
0001
0100
1000
0100
,
0001
0010
0100
0010
1000
0010
0100
0010
,
0001
0000
1000
0000
0010
0100
0010
0100
0001
0010
0100
1000
0100
0010
0001
1000
,
0001
0101
0000
1100
0000
1000
1001
0001
,
0011
0000
2000
0000
3010
0100
0010
2000
,
0000
3001
0010
1000
0001
0100
1000
0001
,
1000
0000
0100
0000
0010
0001
0010
0001
1000
0010
0100
0001
0100
0010
1000
0001
,
1000
1100
0000
0101
0000
0001
1001
1000
,
0001
0010
1000
0001
0100
1000
0001
0010
,
1000
0000
0001
0000
0100
0000
1000
0000
0001
0000
0100
0000
0010
1000
0010
1000
,
0100
0010
0100
0010
0001
0000
0100
0000
1000
0000
0001
0000
0010
0000
1000
0000
,
0100
0000
0000
0000
0000
0110
0000
0000
0000
0000
0010
0000
0000
0000
0000
0000
0001
0000
0000
0000
0000
1001
0000
0000
0000
0000
1000
0000
0000
0000
0000
0000
,
0001
0010
0001
1000
0100
1000
0001
0010
0100
1000
0100
0010
,
0001
0100
0001
1000
0010
1000
0001
0100
0010
1000
0010
0100
,
0001
0010
0100
0010
0001
1000
0010
0100
0010
1000
0100
0010
,
0001
0100
0010
0100
0001
1000
0100
0010
0100
1000
0010
0100
,
0001
0010
0001
0100
0010
0100
0010
1000
0010
1000
0100
1000
,
0001
0010
0001
1000
0010
1000
0001
0100
0001
1000
0100
1000
,
0001
0100
0001
0010
0100
0010
0100
1000
0100
1000
0010
1000
,
0001
0100
0001
1000
0100
1000
0001
0010
0001
1000
0010
1000
,
0002
0000
0023
0000
,
2030
0000
3200
0000
,
0302
0000
0023
0000
,
2030
0000
3200
0000
,
0302
0000
0000
0000
0000
0000
1003
0020
,
0000
0000
0000
0000
,
0230
0000
0000
0000
,
0301
0000
1000
0001
1000
0001
1000
0001
1000
0001
1000
0001
1000
0001
1000
0001
,
1000
0100
0010
1000
0010
0001
0100
0001
,
1000
0010
0100
0010
0001
0010
0100
0010
,
2000
0000
0000
0000
3001
0010
0001
0010
0100
1000
0100
1000
0001
0100
0010
1000
,
0100
0010
0001
1000
0010
0100
0010
1000
0001
0010
0100
0010
0001
1000
0100
0010
,
0001
0000
0000
0101
0000
0000
1100
0000
1000
0001
1000
0001
1000
0000
0010
0000
,
0110
0000
0000
1010
0000
0000
1001
0000
1000
0001
1000
0001
1000
0000
0001
0000
,
0011
0000
0000
0110
0000
0000
1000
0000
1010
0000
0000
0110
0000
0000
0001
0000
,
1000
0000
0001
0100
0001
0010
0001
0010
0100
1000
0010
0100
0001
0010
0100
1000
,
0001
0100
1000
0100
0010
1000
0100
0010
,
0001
0100
0010
0100
1000
0100
0010
0100
,
0001
0010
0001
0010
0001
0100
0010
1000
0001
0100
0001
0100
0001
0010
0100
1000
,
0010
0100
0010
0100
0010
1000
0100
0010
0001
1000
0001
1000
0010
0100
0001
1000
,
0100
0000
0000
0110
0000
0000
0011
0000
1000
0001
1000
0001
1000
0000
0010
0000
,
0100
0000
0000
0110
0000
0000
1010
0000
0001
1000
0001
1000
0001
0000
1000
0000
,
1100
0000
0000
0110
0000
0000
0001
0000
0101
0000
0000
0110
0000
0000
1000
0000
,
0001
0000
1000
0100
1000
0010
1000
0010
0100
0001
0010
0100
1000
0010
0100
0001
,
0010
0000
0001
0100
0001
0000
0100
0010
0100
0000
0010
1000
0010
1000
0100
0010
,
0001
0000
1000
0010
1000
0100
1000
0100
0010
0001
0010
0001
0100
0010
0100
0010
,
2000
0000
0000
0000
0000
0000
3001
0000
0010
0100
0010
0100
1000
0010
1000
0010
,
1000
0100
0010
0001
0010
0100
1000
0010
1000
0001
1000
0001
1000
0001
1000
0001
,
1000
0100
1000
0000
0001
0010
0001
0000
1000
0100
1000
0100
1000
0010
0100
0001
,
0020
0000
0030
0000
0001
0100
0001
0100
0010
1000
0010
1000
0100
0010
0001
1000
,
0001
0000
0000
1000
0010
0100
0010
0100
0001
0010
0001
0010
0100
1000
0100
1000
,
0001
0010
0001
1000
0010
0100
0001
0010
0100
1000
0010
0100
0001
0000
0000
0000
,
1000
0000
0100
0000
0010
0001
0000
0100
0000
0000
0001
0000
0010
0000
1000
0000
,
0010
0000
0001
1000
0001
0100
0001
0100
0010
0000
1000
0100
0000
1000
0001
0000
,
1000
0010
1000
0010
0100
0001
0100
0001
0010
0100
0010
0100
1000
0001
1000
0001
,
1000
0000
0010
0000
0100
0000
0010
0000
1000
0100
1000
0000
0001
0010
0100
0010
,
0001
0000
0000
1000
0001
1000
0010
0100
0001
0000
0000
0001
1000
0000
0000
1000
,
0100
0000
0000
0001
1000
0001
0100
0010
1000
0000
0000
1000
0001
0000
0000
0000
,
1100
1100
0000
0101
0000
0011
0000
1010
,
1001
0000
1001
0000
0000
0000
0101
0000
0000
0000
1100
0000
1000
0001
1000
0001
,
1000
1010
0000
0011
0000
0101
0000
0110
,
1000
0100
1000
0100
1000
0100
1000
0100
0010
0001
0010
0001
0010
0001
0010
0001
,
0100
0000
0000
0010
0000
0000
1000
0000
0001
0010
0100
1000
0001
0000
0000
0000
,
1000
0010
0001
1000
0100
0001
1000
0100
,
0020
0000
0000
0000
0031
0100
0001
0100
0010
1000
0010
1000
0100
0010
0001
1000
,
0100
0010
0100
1000
0001
0100
0010
1000
0001
0100
0010
0100
0001
1000
0100
1000
,
0010
0000
0000
0110
0000
0000
0101
0000
1000
0001
1000
0001
1000
0000
0100
0000
,
0010
0000
0000
0110
0000
0000
1100
0000
0001
1000
0001
1000
0001
0000
1000
0000
,
0001
0000
0010
0000
0100
0000
1000
0000
0001
0000
0100
0000
0010
1000
0010
1000
,
0001
0000
1000
0010
1000
0100
1000
0100
0010
0001
0100
0010
1000
0100
0010
0001
,
1000
0000
0010
0100
0000
0100
0001
0000
0010
0000
1000
0000
0010
0000
0001
0000
,
1000
0010
0100
0010
0001
0010
0100
0001
,
1000
0100
0010
0100
1000
0000
0000
0000
0010
0100
0001
0100
0010
0000
0000
0000
,
1000
0001
0010
0001
1000
0000
0000
0000
0100
1000
0001
1000
0100
0000
0010
0000
,
0001
0000
0000
0101
0000
0000
1100
0000
1000
0001
1000
0001
1000
0000
0010
0000
,
1000
0000
0000
1100
0000
0000
0101
0000
0001
1000
0001
1000
0001
0000
1000
0000
,
0001
0010
0100
1000
0001
0100
0010
1000
,
0001
0010
0100
1000
0010
0100
0001
0010
0100
1000
0010
0100
0001
0010
0100
1000
,
0001
0000
0001
0100
0000
0100
1000
0000
1000
0100
0000
0100
,
0010
0000
0010
1000
0000
1000
0100
0001
0100
1000
0010
0100
,
0001
0000
0001
0010
0000
0010
0100
0000
0100
1000
0000
1000
,
0010
0000
0010
0100
0000
0100
0001
0000
0001
1000
0000
1000
,
0001
0000
0000
0000
1000
0001
1000
0001
1000
0001
1000
0001
1000
0001
1000
0001
,
1000
0100
0010
0100
1000
0010
0100
0001
0010
0100
0010
0001
0100
0010
1000
0001
,
1000
2002
0000
0000
,
0000
0000
0000
0000
,
0000
0000
0000
0000
,
0000
0000
0000
0000
,
3003
0000
0000
0000
;

//---------------dance-single - ----------------
#NOTEDATA:;
#CHARTNAME:;
#STEPSTYPE:dance-single;
#DESCRIPTION:;
#CHARTSTYLE:;
#DIFFICULTY:Hard;
#METER:11;
#RADARVALUES:0.813858,1.152650,0.366292,0.202630,0.615682,731.000000,684.000000,47.000000,26.000000,0.000000,0.000000,0.000000,0.000000,0.000000,0.813858,1.152650,0.366292,0.202630,0.615682,731.000000,684.000000,47.000000,26.000000,0.000000,0.000000,0.000000,0.000000,0.000000;
#CREDIT:;
#NOTES:
0000
0000
0000
0000
,
0000
0000
0000
0000
,
0000
0000
0000
0000
,
0000
0000
0000
0000
,
2002
0000
0000
0000
,
3003
0000
0000
0000
,
1000
0010
0100
0001
0010
0100
0010
0002
,
0000
1003
0010
0001
1000
0100
0001
1000
,
0001
0000
0010
0000
0100
0000
1000
0000
0001
0100
0001
0100
0001
0100
0001
0100
,
0001
0000
1001
0000
1000
1100
0000
1001
,
0000
1000
0010
0100
1000
0100
0001
2000
,
0000
3100
0010
0001
0100
1000
0100
0001
,
1000
0000
0100
0000
0010
0000
0001
0000
1000
0010
1000
0010
1000
0010
1000
0010
,
1000
1001
0000
0011
0000
0101
0000
1100
,
1001
0000
0002
0000
1003
0010
0100
0002
,
0000
0013
1000
0010
0100
0010
0001
0100
,
0001
0000
0010
0000
0100
0000
1000
0000
0001
1000
0001
1000
0001
1000
0001
1000
,
0001
0101
0000
1100
0000
1000
0100
0010
,
0001
0000
2000
0000
3010
0100
1000
0200
,
0000
0301
0010
0100
0010
0001
0010
1000
,
0010
0000
0001
0000
1000
0000
0010
0000
1000
0100
1000
0100
1000
0100
1000
0100
,
1000
1001
0000
0101
0000
0001
0010
0100
,
1000
0010
0001
1000
0100
0001
1000
0010
,
0001
1000
0100
0001
1000
0001
0000
0000
,
0000
0000
1000
0100
0001
1000
0010
0001
,
1000
0000
0000
0000
0000
0100
0000
0000
0000
0000
1000
0000
0000
0000
0000
0000
0001
0000
0000
0000
0000
0100
0000
0000
0000
0000
0001
0000
0000
0000
0000
0000
,
1000
0000
0000
0010
0000
0000
1000
0001
1000
0001
0000
0000
,
0010
0000
0000
0100
0000
0000
1000
0010
1000
0010
0000
0000
,
0100
0000
0000
0001
0000
0000
0010
0100
0010
0100
0000
0000
,
1000
0000
0000
0010
0000
0000
1000
0100
1000
0100
0000
0000
,
0010
0000
0000
0001
0000
0000
0100
0010
0100
0010
0000
0000
,
1000
0000
0000
0001
0000
0000
0010
0100
0010
0100
0000
0000
,
1000
0000
0000
0010
0000
0000
1000
0100
1000
0100
0000
0000
,
0010
0000
0000
0001
0000
0000
1000
0100
0010
0001
0010
0100
,
2000
0000
3020
0000
,
0230
0000
0302
0000
,
0023
0000
0230
0000
,
2300
0000
3002
0000
,
0203
0000
0000
0000
0000
0000
0310
2000
,
0000
0000
0000
0000
,
3002
0000
0000
0000
,
0003
0000
0000
0000
,
1000
0010
0001
1000
0100
0001
1000
0100
,
1000
0010
0100
0010
0001
0010
0100
0010
,
1000
0100
0001
0100
1000
0010
0001
0010
,
1000
0100
0010
0001
1000
0100
0010
0001
,
1000
0000
0000
0010
0000
0000
0110
0000
0001
1000
0001
1000
0001
0000
1000
0000
,
0001
0000
0000
0010
0000
0000
0110
0000
1000
0001
1000
0001
1000
0000
0001
0000
,
1000
0000
0000
1100
0000
0000
0100
0000
0010
0000
0000
0011
0000
0000
0001
0000
,
1000
0000
0001
0100
0001
0100
0001
0100
0010
1000
0010
1000
0010
1000
0010
1000
,
0001
0010
0100
1000
0000
0010
0100
0001
,
1000
0100
0010
0100
0001
0100
0010
0100
,
1000
0010
1000
0010
1000
0000
0001
0000
0010
0100
0010
0100
0010
0000
0001
0000
,
0100
0001
0100
0001
0100
0000
0010
0000
1000
0100
1000
0100
1000
0000
0001
0000
,
1000
0000
0000
0010
0000
0000
0110
0000
0001
1000
0001
1000
0001
0000
1000
0000
,
0001
0000
0000
0010
0000
0000
0110
0000
1000
0001
1000
0001
1000
0000
0001
0000
,
1000
0000
0000
1100
0000
0000
0100
0000
0010
0000
0000
0011
0000
0000
0001
0000
,
1000
0000
0001
0100
0001
0100
0001
0100
0010
1000
0010
1000
0010
1000
0010
1000
,
0001
0000
0100
0010
0100
0000
0010
1000
0010
0000
1000
0100
0010
0001
0010
0001
,
1000
0100
1000
0010
1000
0100
0010
0001
,
0200
0000
0300
0001
0010
1000
0010
0001
,
1000
0000
0010
0000
0100
0000
0001
0000
1000
0001
1000
0001
1000
0001
1000
0001
,
1000
0100
1000
0000
0001
0100
0001
0000
1000
0000
0010
0000
0100
0000
0010
0000
,
0001
0010
0100
0010
1000
0100
0010
0001
,
1000
0000
0001
0100
0001
0000
0010
0000
1000
0000
0010
0000
0001
0000
0100
0000
,
0010
0000
1000
0000
0100
0000
0010
0000
0001
0000
1000
0001
1000
0000
0000
0000
,
0001
0000
0100
0000
0010
1000
0000
0100
0000
0000
1000
0000
0010
0000
0100
0000
,
0001
0000
0010
0000
0001
1000
0001
1000
0001
0000
0000
1000
0100
0000
0010
0000
,
0001
0100
1000
0100
0001
0010
1000
0010
,
0001
1000
1000
1000
0100
0010
0100
1000
,
0001
0000
0000
0001
1000
0010
1000
0010
1000
0000
0000
0000
1001
0000
0000
0000
,
1000
0000
0000
1000
0001
0100
0001
0100
0001
0000
0000
0000
1001
0000
0000
0000
,
1000
1100
0000
0110
0000
0011
0000
0001
,
0101
1001
0000
1010
0000
1001
0000
1000
,
1010
1001
0000
0011
0000
1100
0000
0001
,
1001
1100
0000
0110
0000
1001
0000
0000
,
1000
0000
0000
0100
0000
0000
0010
0000
0001
1000
0001
1000
0001
0000
0000
0000
,
1000
0010
0100
0010
1000
0010
0001
0010
,
2000
0000
3001
0010
0001
0100
1000
0100
,
0001
0010
0100
1000
0010
0100
0001
1000
,
0001
0000
0000
0010
0000
0000
0110
0000
1000
0001
1000
0001
1000
0000
0001
0000
,
1000
0000
0000
0010
0000
0000
0110
0000
0001
1000
0001
1000
0001
0000
1000
0000
,
0001
0000
0000
0101
0000
0000
0100
0000
0010
0000
0000
1010
0000
0000
1000
0000
,
0001
0000
1000
0100
1000
0100
1000
0100
0010
0001
0010
0001
0010
0001
0010
0001
,
1000
0000
0000
0010
0000
0000
0100
0000
0001
0000
0010
0000
1000
0000
0001
0000
,
0100
1000
0100
0001
0100
1000
0200
0000
,
0310
0001
0010
0001
0010
0000
0000
0000
0001
1000
0001
1000
0001
0000
0000
0000
,
1000
0010
1000
0010
1000
0000
0000
0000
0010
0100
0010
0100
0010
0000
0000
0000
,
1000
0000
0000
0100
0000
0000
0110
0000
0001
1000
0001
1000
0001
0000
1000
0000
,
0001
0000
0000
0100
0000
0000
0110
0000
1000
0001
1000
0001
1000
0000
0001
0000
,
1000
0000
0000
1010
0000
0000
0010
0000
0100
0000
0000
0101
0000
0000
0001
0000
,
1000
0000
0001
0010
0001
0010
0001
0010
0100
1000
0100
1000
0100
1000
0100
1000
,
0001
0000
0001
0100
0000
0100
1000
0000
1000
0100
0000
0100
,
0001
0000
0001
0010
0000
0010
1000
0000
1000
0010
0000
0010
,
0001
0000
0001
0100
0000
0100
0010
0000
0010
1000
0000
1000
,
0100
0000
0100
0010
0000
0010
0001
0000
0001
1000
0000
1000
,
0002
0000
0000
0000
,
2000
0000
0000
0000
,
3003
0220
0000
0000
,
0000
0000
0000
0000
,
0000
0000
0000
0000
,
0000
0000
0000
0000
,
0330
0000
0000
0000
;

//---------------dance-single - ----------------
#NOTEDATA:;
#CHARTNAME:;
#STEPSTYPE:dance-single;
#DESCRIPTION:;
#CHARTSTYLE:;
#DIFFICULTY:Medium;
#METER:8;
#RADARVALUES:0.495440,0.675691,0.233803,0.514367,0.116902,445.000000,415.000000,30.000000,66.000000,0.000000,0.000000,0.000000,0.000000,0.000000,0.495440,0.675691,0.233803,0.514367,0.116902,445.000000,415.000000,30.000000,66.000000,0.000000,0.000000,0.000000,0.000000,0.000000;
#CREDIT:;
#NOTES:
0000
0000
0000
0000
,
0000
0000
0000
0000
,
0000
0000
0000
0000
,
0000
0000
0000
0000
,
2002
0000
0000
0000
,
3003
0000
0000
0000
,
1000
0000
0010
0000
1000
0100
0010
0002
,
0000
1003
0010
1000
0001
1000
0100
0010
,
0100
1000
0001
0200
0000
0000
0300
0000
,
0011
0000
1010
0000
1000
0100
0000
1001
,
0000
0000
1000
0100
0010
0100
1000
0002
,
0000
0103
0010
0100
0001
0100
0010
1000
,
0100
0010
0000
0220
0000
0000
0330
0000
,
1000
0001
0000
0101
0000
1100
0000
0001
,
1000
0000
0100
0000
0010
0001
1000
0020
,
0000
1030
0100
0010
0100
1000
0010
0100
,
0001
0010
0100
2000
0000
0000
3000
0000
,
0001
1000
0000
1010
0000
1000
0100
0010
,
0001
0000
0200
0000
0310
1000
0100
0020
,
0000
0031
0100
0001
1000
0100
0010
0001
,
0100
0010
0100
0002
0000
0013
0100
1000
,
0001
1000
0000
1001
0000
1000
0100
0010
,
0001
0100
0001
1000
0100
1000
0001
0100
,
0001
1000
0100
1000
0001
1000
0000
0000
,
0000
0000
0001
0010
0001
1000
0010
1000
,
0001
0000
0000
0000
0000
1000
0000
0000
0000
0000
0001
0000
0000
0000
0000
0000
1000
0000
0000
0000
0000
0001
0000
0000
0000
0000
1000
0000
0000
0000
0000
0000
,
0002
0000
0023
0000
,
0230
0000
2300
0000
,
3002
0000
0203
0000
,
0320
0000
2030
0000
,
3200
0000
0320
0000
,
0032
0000
2003
0000
,
3020
0000
0230
0000
,
0302
0000
2003
0000
,
3002
0000
0023
0000
,
2030
0000
3020
0000
,
0032
0000
0203
0000
,
2300
0000
3200
0000
,
0302
0000
0000
0000
0000
0000
1003
0200
,
0000
0000
0000
0000
,
0320
0000
0000
0000
,
0030
0000
0000
0000
,
0001
0100
0001
1000
0000
0100
0010
0100
,
1000
0000
1010
0000
0010
0100
0001
0000
,
2000
0100
0010
0010
,
0001
0000
3001
0000
1000
0001
0100
0001
,
1000
0000
0000
0100
0000
0000
0020
0000
0000
0000
0000
0000
0030
0000
0001
0000
,
0100
0000
0000
0010
0000
0000
2000
0000
0000
0000
0000
0000
3000
0000
0001
0000
,
1000
0000
0000
0010
0000
0000
0001
0000
1000
0000
0000
0100
0000
0000
0001
0000
,
2000
0000
0000
0000
3020
0000
0000
0130
,
0001
0010
0100
1000
0000
0001
0100
0010
,
1000
0100
0001
0100
1000
0100
0001
0100
,
2000
0000
3020
0000
,
0130
0000
0000
0001
0000
0000
0010
0000
0200
0000
0000
0000
0000
0000
1300
0000
,
0001
0000
0000
0100
0000
0000
0020
0000
0000
0000
0000
0000
0030
0000
1000
0000
,
0100
0000
0000
0010
0000
0000
0002
0000
0000
0000
0000
0000
0003
0000
1000
0000
,
0001
0000
0000
0010
0000
0000
1000
0000
0001
0000
0000
0100
0000
0000
1000
0000
,
0002
0000
0000
0000
,
1003
0000
0000
1000
0001
0000
0000
0001
0100
0000
0000
0100
0010
0000
0000
0000
,
1000
0100
0010
0100
1000
0000
0001
0000
,
0100
0000
0010
0000
1000
0100
1000
0001
,
0100
0000
0001
0000
0010
0100
0010
0100
,
1000
1000
0001
0001
,
1000
0000
0010
0000
0100
0001
0100
0010
,
1000
0000
0001
0010
0100
0010
0001
1000
,
0001
0000
1000
0000
0001
1000
0001
0000
,
1000
0000
0100
0000
1000
0000
0000
0010
0000
0000
0100
0000
0001
0000
0100
0000
,
0001
0010
0100
1000
,
0001
0010
0001
0000
1000
0010
1000
0000
,
0100
0010
0100
0000
1000
0000
0001
0000
,
1000
0000
0000
1000
0001
0000
0000
0000
0100
0000
0000
0000
0110
0000
0000
0000
,
0001
0000
0000
0001
1000
0000
0000
0000
0010
0000
0000
0000
0110
0000
0000
0000
,
1000
0100
0000
0110
0000
0110
0000
0001
,
1000
0010
0000
0110
0000
0110
0000
1000
,
0100
0010
0000
0011
0000
0011
0000
0001
,
1000
0100
0000
1100
0000
2000
0000
0000
,
3001
0000
0000
0100
0000
0000
0010
0000
1000
0000
0001
0000
1001
0000
0000
0000
,
1000
0100
0001
0100
1000
0100
0001
0100
,
2000
0100
0010
0010
,
0001
0000
3001
0000
1000
0001
0100
0001
,
1000
0000
0000
0100
0000
0000
0020
0000
0000
0000
0000
0000
0030
0000
0001
0000
,
0100
0000
0000
0010
0000
0000
2000
0000
0000
0000
0000
0000
3000
0000
0001
0000
,
1000
0000
0000
0010
0000
0000
0001
0000
1000
0000
0000
0100
0000
0000
0001
0000
,
2000
0000
0000
0000
3020
0000
0000
0130
,
0001
0000
0000
0010
0000
0000
0001
0000
0000
0000
1000
0000
0100
0000
0010
0000
,
0001
0100
1000
0100
0001
1000
0001
0000
,
2000
0000
3020
0000
,
0130
0000
0000
0001
0000
0000
0010
0000
0200
0000
0000
0000
0000
0000
1300
0000
,
0001
0000
0000
0100
0000
0000
0020
0000
0000
0000
0000
0000
0030
0000
1000
0000
,
0100
0000
0000
0010
0000
0000
0002
0000
0000
0000
0000
0000
0003
0000
1000
0000
,
0001
0000
0000
0010
0000
0000
1000
0000
0001
0000
0000
0100
0000
0000
1000
0000
,
0002
0000
0000
0000
,
1003
1100
0001
0101
,
1000
1010
0001
0011
,
1000
1100
0100
0101
,
0001
0011
0010
1010
,
2002
0000
0000
0000
,
0003
0000
0000
0000
,
3000
0220
0000
0000
,
0000
0000
0000
0000
,
0000
0000
0000
0000
,
0000
0000
0000
0000
,
0330
0000
0000
0000
;

//---------------dance-single - ----------------
#NOTEDATA:;
#CHARTNAME:;
#STEPSTYPE:dance-single;
#DESCRIPTION:;
#CHARTSTYLE:;
#DIFFICULTY:Easy;
#METER:7;
#RADARVALUES:0.358498,0.556452,0.109108,0.303944,0.000000,322.000000,308.000000,14.000000,39.000000,0.000000,0.000000,0.000000,0.000000,0.000000,0.358498,0.556452,0.109108,0.303944,0.000000,322.000000,308.000000,14.000000,39.000000,0.000000,0.000000,0.000000,0.000000,0.000000;
#CREDIT:;
#NOTES:
// measure 0
0000
0000
0000
0000
,  // measure 1
0000
0000
0000
0000
,  // measure 2
0000
0000
0000
0000
,  // measure 3
0000
0000
0000
0000
,  // measure 4
2002
0000
0000
0000
,  // measure 5
3003
0000
0000
0000
,  // measure 6
1000
0000
0100
0000
0010
0000
0001
1000
,  // measure 7
0000
0001
0100
0010
,  // measure 8
1000
0000
0100
0020
0000
0000
0030
0000
,  // measure 9
0001
0000
0001
0000
1000
0001
0000
1001
,  // measure 10
0000
0000
1000
0000
0010
0100
0010
0100
,  // measure 11
0000
0001
0010
0100
,  // measure 12
1000
0000
0010
0200
0000
0000
0300
0000
,  // measure 13
0001
1000
0000
1001
0000
0001
0000
1000
,  // measure 14
0001
0000
0100
0000
0010
0000
1000
0001
,  // measure 15
0000
1000
0100
0010
,  // measure 16
0001
1000
0001
2000
0000
0000
3000
0000
,  // measure 17
0001
1000
0000
1001
0000
0001
1000
0001
,  // measure 18
1000
0000
0100
0000
0010
0000
0001
1000
,  // measure 19
0000
1000
0010
0000
0100
0000
0010
0000
,  // measure 20
1000
0000
0001
0010
0000
0100
1000
0100
,  // measure 21
1000
0001
0000
1001
0000
1000
0001
1000
,  // measure 22
0001
0000
0000
1000
0000
0000
0100
0000
,  // measure 23
0000
0010
0000
0000
0001
0000
0000
0000
,  // measure 24
0000
0000
0100
0000
0000
0010
0000
0000
,  // measure 25
0100
0000
0000
0000
,  // measure 26
0002
0000
0000
0000
,  // measure 27
0000
0000
0000
0000
,  // measure 28
2003
0000
0000
0000
,  // measure 29
0000
0000
0000
0000
,  // measure 30
3200
0000
0000
0000
,  // measure 31
0000
0000
0000
0000
,  // measure 32
0320
0000
0000
0000
,  // measure 33
0000
0000
0000
0000
,  // measure 34
0032
0000
0203
0000
,  // measure 35
0302
0000
0203
0000
,  // measure 36
0320
0000
2030
0000
,  // measure 37
3020
0000
2030
0000
,  // measure 38
3200
0000
0000
0000
0000
0000
0310
0002
,  // measure 39
0000
0000
0000
0000
,  // measure 40
2003
0000
0000
0000
,  // measure 41
3000
0000
0000
0000
,  // measure 42
0001
1000
0100
0010
,  // measure 43
0001
0101
0110
1010
,  // measure 44
2002
0000
0000
0000
,  // measure 45
0000
0000
3003
0000
1000
0001
1000
0000
,  // measure 46
0001
0000
0100
0000
0010
1000
0010
0000
,  // measure 47
1000
0000
0100
0000
0010
0001
0010
0000
,  // measure 48
0001
0100
0010
1000
,  // measure 49
0200
0000
0320
0000
,  // measure 50
0031
1000
0010
0100
,  // measure 51
0001
0010
0001
0000
1000
0010
1000
0000
,  // measure 52
0002
0000
0203
0000
,  // measure 53
0310
0000
1000
0001
1000
0000
0100
0000
,  // measure 54
1000
0000
0010
0000
0100
0001
0100
0000
,  // measure 55
0001
0000
0010
0000
0100
1000
0100
0000
,  // measure 56
1000
0010
0100
0001
,  // measure 57
0020
0000
0000
0000
,  // measure 58
0130
1000
0001
0000
,  // measure 59
1000
0010
1000
0001
,  // measure 60
0010
0100
0010
0000
,  // measure 61
0001
0100
0010
1000
,  // measure 62
0001
0010
0001
0000
,  // measure 63
1000
0010
1000
0100
,  // measure 64
0010
0000
0100
0000
1000
0000
0001
1000
,  // measure 65
0002
0000
0000
0003
,  // measure 66
1000
0010
1000
0001
,  // measure 67
0010
0001
0100
0001
,  // measure 68
1000
0100
0010
0100
,  // measure 69
1000
0010
1000
0001
,  // measure 70
1000
0000
0010
0100
0010
0000
1000
0000
,  // measure 71
0001
0000
0010
0100
0010
0000
0001
0000
,  // measure 72
1000
0010
0000
1000
0000
0010
0000
1000
,  // measure 73
0001
1000
0000
0001
0000
1000
0000
0001
,  // measure 74
0100
0001
0000
0100
0000
0001
0000
0100
,  // measure 75
0010
0100
0000
0010
0000
0100
0000
0000
,  // measure 76
0001
0000
1000
0000
0010
1000
0010
0000
,  // measure 77
1000
1100
0110
0011
,  // measure 78
2002
0000
0000
0000
,  // measure 79
0000
0000
3003
0000
0001
1000
0001
0000
,  // measure 80
1000
0000
0100
0000
0010
0001
0010
0000
,  // measure 81
0001
0000
0100
0000
0010
1000
0010
0000
,  // measure 82
1000
0100
0010
0001
,  // measure 83
0200
0000
0320
0000
,  // measure 84
1030
0001
0010
0100
,  // measure 85
1000
0010
1000
0000
0001
0010
0001
0000
,  // measure 86
2000
0000
3200
0000
,  // measure 87
0310
0000
0001
1000
0001
0000
0100
0000
,  // measure 88
0001
0000
0010
0000
0100
1000
0100
0000
,  // measure 89
1000
0000
0010
0000
0100
0001
0100
0000
,  // measure 90
0001
0010
0100
1000
,  // measure 91
0020
0000
0000
0000
,  // measure 92
1030
1000
0001
0001
,  // measure 93
0010
0010
0100
0100
,  // measure 94
1000
1000
0001
0001
,  // measure 95
0100
0100
0010
0010
,  // measure 96
2000
0000
0000
0000
,  // measure 97
0002
0000
0000
0000
,  // measure 98
3003
0220
0000
0000
,  // measure 99
0000
0000
0000
0000
,  // measure 100
0000
0000
0000
0000
,  // measure 101
0000
0000
0000
0000
,  // measure 102
0330
0000
0000
0000
;

//---------------dance-single - ----------------
#NOTEDATA:;
#CHARTNAME:;
#STEPSTYPE:dance-single;
#DESCRIPTION:;
#CHARTSTYLE:;
#DIFFICULTY:Beginner;
#METER:3;
#RADARVALUES:0.169229,0.278226,0.038967,0.077934,0.000000,152.000000,147.000000,5.000000,10.000000,0.000000,0.000000,0.000000,0.000000,0.000000,0.169229,0.278226,0.038967,0.077934,0.000000,152.000000,147.000000,5.000000,10.000000,0.000000,0.000000,0.000000,0.000000,0.000000;
#CREDIT:;
#NOTES:
0000
0000
0000
0000
,
0000
0000
0000
0000
,
0000
0000
0000
0000
,
0000
0000
0000
0000
,
0000
0000
0000
0000
,
0000
0000
0000
0000
,
1000
1000
1000
0000
,
0001
0001
0001
0000
,
0100
0100
0100
0000
,
0010
0000
0000
0000
,
0000
1000
1000
0000
,
0001
0001
0001
0000
,
0010
0010
0010
0000
,
0100
0000
0000
0000
,
0000
1000
1000
0000
,
0010
0010
0010
0000
,
0100
0100
0100
0000
,
0001
0000
0000
0000
,
0000
1000
1000
0000
,
0100
0100
0100
0000
,
0010
0010
0010
0000
,
0001
0000
0000
0000
,
1000
0000
0000
0001
0000
0000
1000
0000
,
0000
0001
0000
0000
1000
0000
0000
0000
,
0000
0000
0001
0000
0000
1000
0000
0000
,
0001
0000
0000
0000
,
2000
0000
0000
0000
,
0000
0000
0000
0000
,
3200
0000
0000
0000
,
0000
0000
0000
0000
,
0320
0000
0000
0000
,
0000
0000
0000
0000
,
0032
0000
0000
0000
,
0000
0000
0000
0000
,
1003
0000
1000
0000
,
0001
0000
0001
0000
,
0010
0000
0010
0000
,
0100
0000
0100
0000
,
1000
0000
0000
0000
,
0001
0000
0000
0000
,
1000
0000
0000
0000
,
0001
0000
0000
0000
,
1000
0000
1000
0000
,
0010
0000
0010
0000
,
0100
0000
0100
0000
,
0001
0000
0001
0000
,
1000
0000
1000
0000
,
0100
0000
0100
0000
,
0010
0000
0010
0000
,
0001
0000
0001
0000
,
1000
0000
0001
0000
,
1000
0000
0000
0000
,
0010
0000
0100
0000
,
0010
0000
0100
0000
,
0001
0000
0001
0000
,
1000
0000
1000
0000
,
0100
0000
0100
0000
,
0010
0000
0000
0000
,
0001
0000
0000
0000
,
1000
0000
0000
0000
,
0010
0000
0000
0000
,
0100
0000
0000
0000
,
0001
0000
0000
0000
,
1000
0000
0000
0000
,
0100
0000
0000
0000
,
0010
0000
0000
0000
,
0001
0000
0000
0000
,
0100
0000
0000
0000
,
0010
0000
0000
0000
,
1000
0000
0000
0000
,
0001
0001
0000
0000
,
1000
1000
0000
0000
,
1001
0000
0000
0000
,
0110
0000
0000
0000
,
1001
0000
0000
0000
,
0110
0000
0000
0000
,
1000
0000
0000
0000
,
0010
0000
0010
0000
,
0100
0000
0100
0000
,
0001
0000
0001
0000
,
1000
0000
1000
0000
,
0100
0000
0100
0000
,
0010
0000
0010
0000
,
0001
0000
0001
0000
,
1000
0000
0001
0000
,
1000
0000
0000
0000
,
0010
0000
0100
0000
,
0010
0000
0100
0000
,
0001
0000
0001
0000
,
1000
0000
1000
0000
,
0100
0000
0100
0000
,
0010
0000
0000
0000
,
0002
0000
0000
0000
,
2003
0000
0000
0000
,
3020
0000
0000
0000
,
0230
0000
0000
0000
,
0301
0000
0000
0000
,
1000
0000
0000
0000
,
0000
2002
0000
0000
,
0000
0000
0000
0000
,
0000
0000
0000
0000
,
0000
0000
0000
0000
,
3003
0000
0000
0000
;
