#TITLE:GJ!;
#SUBTITLE:;
#ARTIST:BABYMETAL;
#TITLETRANSLIT:;
#SUBTITLETRANSLIT:;
#ARTISTTRANSLIT:;
#GENRE:;
#CREDIT:mf32892;
#BANNER:;
#BACKGROUND:;
#LYRICSPATH:;
#CDTITLE:;
#MUSIC:GJ!.ogg;
#OFFSET:-0.520502;
#SAMPLESTART:86.903069;
#SAMPLELENGTH:10.500000;
#SELECTABLE:YES;
#BPMS:0.000000=109.987640
,31.000000=54.983322
,31.500000=109.967644
,46.500000=110.107643
,59.500000=109.967644
,63.500000=110.027641
,75.500000=110.067642
,79.000000=107.996704
,79.500000=109.887642
,93.500000=54.983322
,94.000000=105.000793
,95.000000=109.966644
,109.000000=54.983322
,110.000000=109.966644
,121.500000=115.001488
,122.000000=109.667648
,126.000000=110.447624
,142.000000=109.667648
,156.000000=219.935287
,173.000000=109.968643
,173.500000=219.936279
,174.000000=439.872559
,176.000000=219.936279
,176.500000=109.968643
,177.500000=219.936279
,178.000000=439.870575
,180.000000=219.936279
,180.500000=109.968643
,181.000000=219.935287
,205.000000=109.968643
,205.500000=219.336304
,206.000000=438.670593
,208.000000=219.336304
,208.500000=109.968643
,209.500000=219.336304
,210.000000=439.870575
,212.000000=219.336304
,212.500000=109.968643
,213.000000=219.935287
,236.000000=224.996140
,237.000000=220.355270
;
#STOPS:156.000000=0.821025
;
#BGCHANGES:;
#KEYSOUNDS:;
#ATTACKS:;

//---------------dance-single - ----------------
#NOTES:
     dance-single:
     :
     Hard:
     9:
     0.615702,0.779036,0.141719,0.350128,0.612725,517.000000,500.000000,17.000000,42.000000,0.000000,0.000000,0.615702,0.779036,0.141719,0.350128,0.612725,517.000000,500.000000,17.000000,42.000000,0.000000,0.000000:
// measure 0
0000
0000
0000
0000
,  // measure 1
0000
0000
0000
0000
,  // measure 2
0000
0000
0000
0000
,  // measure 3
0000
0000
0000
0000
,  // measure 4
1000
0100
0000
1000
0010
0000
0100
0000
0001
0100
0000
0001
0010
0000
0100
0000
,  // measure 5
1000
0001
0000
1000
0100
0000
1000
0000
0010
0100
0000
0010
1000
0001
1000
0001
,  // measure 6
0010
0100
0000
0010
0001
0000
1000
0000
0001
0100
0000
0010
1000
0000
0001
0000
,  // measure 7
1000
0100
0000
0010
0100
0000
1000
0000
0001
0100
0000
0010
2000
0000
3001
0010
,  // measure 8
0000
0100
1000
0000
0010
0000
1000
0100
0000
0100
0010
0000
0001
0000
1000
0010
,  // measure 9
0000
0100
0010
0000
1000
0000
0001
0010
0000
0100
0010
0001
0010
0001
1000
0010
,  // measure 10
0000
0100
0010
0000
1000
0000
0001
0010
0000
0100
1000
0000
0001
0000
1000
0100
,  // measure 11
0000
0010
0100
0000
1000
0000
0001
0100
0000
0010
0100
0100
0100
0100
0001
1000
,  // measure 12
0001
0010
0100
0000
1000
0010
0100
0000
0010
1000
0100
0000
1000
0001
0010
0001
,  // measure 13
0100
0010
1000
0100
0010
0000
0001
0000
1000
0000
1001
0000
0000
0000
0001
0100
,  // measure 14
0000
0000
0010
1000
0010
0000
1000
0100
0010
0001
0100
0000
0010
1000
0001
0000
,  // measure 15
0000
0001
0000
0000
0010
0000
0000
0010
0000
0000
0110
0000
0110
0000
1000
0001
,  // measure 16
1000
0100
0010
0001
0100
0010
0100
0001
0100
0001
0020
0000
0031
0000
1200
0000
,  // measure 17
0310
0000
0120
0000
0031
0000
1000
0000
0001
0100
0000
0000
0010
0000
1000
0010
,  // measure 18
0000
0100
0001
0100
0001
1000
0001
0000
0010
0100
1000
0010
0100
0001
1000
0000
,  // measure 19
0000
1000
0000
0000
0100
0000
0000
0100
0000
0000
0110
0000
0110
0000
0001
0000
,  // measure 20
0010
0001
0000
0010
0001
1000
0010
0000
0010
1000
0000
0010
1000
0100
0010
0000
,  // measure 21
0010
0100
0000
0010
0100
1000
0002
0000
0103
0000
0220
0000
0330
0000
1000
0000
,  // measure 22
0010
0100
0000
0010
0100
0001
0010
0000
0010
0100
0000
0010
0100
1000
0010
0000
,  // measure 23
0010
0100
0100
0002
1003
0000
0002
0000
,  // measure 24
0013
0000
0100
1000
0100
0000
1000
0010
0000
0010
0200
0000
0001
0000
0000
0000
,  // measure 25
0301
0000
0000
0000
0000
0000
1000
0000
0100
0000
1000
0000
0100
0000
0000
0000
0000
0000
0010
0000
0000
0001
0000
0000
0000
0000
0000
0001
0000
0000
2000
0000
0000
0000
0000
0000
0010
0000
0000
0000
0000
0000
0000
0000
0000
0000
0000
0000
,  // measure 26
3010
0000
0000
0000
0000
0000
0100
0000
0001
0000
1000
0000
0001
0000
0000
0000
0000
0000
0001
0000
0000
0010
0000
0000
0000
0000
0000
0010
0000
0000
0200
0000
0000
0000
0000
0000
1000
0000
0000
0000
0000
0000
0000
0000
0000
0000
0000
0000
,  // measure 27
1300
0000
0000
0000
0001
0000
0001
0000
0100
0000
0000
0010
0000
0000
0100
0000
0002
0000
0000
0000
0000
0000
0000
0000
1000
0000
0000
0000
0010
0000
0013
0000
,  // measure 28
0100
0000
0000
0000
0000
0000
1000
0000
0000
0001
0000
0000
0000
0000
0000
0001
0000
0000
0200
0000
0000
0000
0000
0000
0010
0000
0000
0000
0000
0000
0000
0000
0000
0000
0000
0000
0301
0000
0000
0000
0000
0000
1000
0000
0001
0000
1000
0000
,  // measure 29
0002
0000
0000
0000
0000
0000
0023
0000
0000
0100
0000
0000
0000
0000
0000
0130
0000
0000
2000
0000
0000
0000
0000
0000
0001
0000
0000
0000
0000
0000
0000
0000
0000
0000
0000
0000
3010
0000
0000
0000
0000
0000
0100
0000
0001
0000
0100
0000
,  // measure 30
0001
0000
0020
0100
0000
0130
2000
0000
3020
0000
0230
0000
0320
0000
2030
0000
,  // measure 31
3200
0000
0320
0000
0032
0000
2003
0000
3100
0000
0100
1000
0000
0100
1000
0001
,  // measure 32
0100
0000
0100
0001
0000
0100
0001
0010
0100
0000
0100
0010
0000
0100
0010
0001
,  // measure 33
2000
0000
3010
0000
0220
0000
0330
0000
0001
0000
0100
0010
0000
0100
0010
1000
,  // measure 34
0100
0000
0100
0010
0000
0100
0010
0001
0100
0000
0100
0010
0000
0100
0010
1000
,  // measure 35
0100
0000
0010
0000
0220
0000
0330
0000
0001
0000
0010
0001
0000
0001
0010
0100
,  // measure 36
1000
0000
0010
1000
0000
1000
0010
0100
0001
0000
0010
0001
0000
0001
0010
0100
,  // measure 37
1000
0010
0100
0010
1000
0100
0010
0001
1000
0000
0010
1000
0000
1000
0100
0010
,  // measure 38
0001
0000
0010
0001
0000
0001
0100
0010
1000
0000
0100
0000
0010
0000
0001
0000
,  // measure 39
1000
0000
0001
0100
0010
0100
0001
0010
,  // measure 40
0100
1000
0001
0100
0001
0100
1000
0100
,  // measure 41
1000
0100
0010
1000
0100
0001
0100
1000
,  // measure 42
0010
0100
0001
0010
0100
0010
1000
0010
,  // measure 43
0001
1000
0020
0000
0000
0000
0130
0000
,  // measure 44
0000
0002
0000
1003
,  // measure 45
0000
0000
0001
0100
0010
1000
0100
1000
,  // measure 46
0001
0010
0000
0010
0100
0010
0001
1000
,  // measure 47
0010
0000
1000
0010
0100
0010
1000
0100
,  // measure 48
0010
0001
1000
0010
1000
0010
0001
0010
,  // measure 49
0001
0010
0100
0001
0010
1000
0010
0001
,  // measure 50
0100
0010
1000
0100
0010
0100
0001
0100
,  // measure 51
1000
0001
0200
0000
0000
0000
0310
0000
,  // measure 52
0000
2000
0000
3001
,  // measure 53
0000
0000
1000
0010
0100
0001
0010
0001
,  // measure 54
1000
0100
0000
0100
0010
0100
1000
0001
,  // measure 55
0100
0020
0000
2030
,  // measure 56
0000
3200
0000
0320
,  // measure 57
0030
2002
0000
0000
,  // measure 58
0000
0000
0000
0000
0000
0000
0000
0000
3003
0000
1000
0001
1000
0000
0001
0000
,  // measure 59
0000
1000
0100
1100
,  // measure 60
0000
0001
0010
0011
,  // measure 61
0000
1000
0010
0100
,  // measure 62
0001
0010
0100
1100
,  // measure 63
0000
0001
0010
0011
,  // measure 64
0000
1000
0010
1010
,  // measure 65
0000
0001
0010
0100
,  // measure 66
1000
0010
0100
1001
;

//---------------dance-double - ----------------
#NOTES:
     dance-double:
     :
     Hard:
     13:
     0.566875,0.779036,0.100037,0.341792,0.575211,476.000000,464.000000,12.000000,41.000000,0.000000,0.000000,0.566875,0.779036,0.100037,0.341792,0.575211,476.000000,464.000000,12.000000,41.000000,0.000000,0.000000:
00000000
00000000
00000000
00000000
,
00000000
00000000
00000000
00000000
,
00000000
00000000
00000000
00000000
,
00000000
00000000
00000000
00000000
,
00010000
00001000
00000000
00010000
00001000
00000000
00000100
00000000
00000001
00001000
00000000
00000001
00001000
00000000
00000100
00000000
,
00000010
00000100
00000000
00000010
00000100
00000000
00010000
00000000
00001000
00010000
00000000
00001000
00010000
01000000
00100000
00010000
,
10000000
00100000
00000000
10000000
00100000
00000000
01000000
00000000
00001000
00010000
00000000
00001000
00010000
00000000
00000100
00000000
,
00000010
00000100
00000000
00000010
00000100
00000000
00010000
00000000
00001000
00010000
00000000
00001000
02000000
00000000
03001000
00010000
,
00000000
00001000
00010000
00000000
01000000
00000000
10000000
00010000
00000000
10000000
00010000
00000000
01000000
00000000
00100000
01000000
,
00000000
00100000
01000000
00000000
00001000
00000000
00010000
00001000
00000000
00010000
00001000
00000100
00000010
00001000
00000001
00000010
,
00000000
00000001
00000010
00000000
00000100
00000000
00010000
00001000
00000000
00010000
00001000
00000000
01000000
00000000
00100000
01000000
,
00000000
00100000
01000000
00000000
00010000
00000000
10000000
01000000
00000000
10000000
01000000
00100000
01000000
00100000
00001000
00010000
,
00000100
00000010
00000001
00000000
00000100
00001000
00010000
00000000
00001000
00010000
00000010
00000000
00000100
00000010
00010000
00001000
,
00100000
01000000
10000000
00010000
01000000
00000000
00100000
00000000
00010000
00000000
00011000
00000000
00000000
00000000
00100000
00010000
,
00000000
00000000
00000010
00001000
00000010
00000000
00010000
00100000
00010000
00100000
00001000
00000000
00010000
00100000
10000000
00000000
,
00000000
10000000
00000000
00000000
01000000
00000000
00000000
01000000
00000000
00000000
00010000
00000000
00011000
00000000
00010000
00001000
,
00100000
01000000
10000000
00100000
01000000
00010000
10000000
01000000
10000000
01000000
00020000
00000000
00031000
00000000
00021000
00000000
,
00030100
00000000
00001200
00000000
00000310
00000000
00000011
00000000
00001000
00000100
00000000
00000000
00001000
00000000
00000010
00001000
,
00000000
00100000
00010000
00001000
00010000
00001000
00100000
00000000
00010000
01000000
00100000
10000000
01000000
00010000
00001000
00000000
,
00000000
00001000
00000000
00000000
00000010
00000000
00000000
00000010
00000000
00000000
00001000
00000000
00011000
00000000
00001000
00000000
,
00010000
00001000
00000000
00010000
00001000
00000100
00000001
00000000
00001000
00000001
00000000
00001000
00000001
00000010
00000100
00000000
,
00000010
00000100
00000000
00000010
00000100
00010000
00001000
00000000
00010000
00000000
00022000
00000000
00033000
00000000
00010000
00000000
,
00001000
00010000
00000000
00001000
00010000
01000000
10000000
00000000
00010000
10000000
00000000
00010000
10000000
00100000
01000000
00000000
,
00100000
00010000
00001000
00000200
00000301
00000000
00002000
00000000
,
00000000
00000000
00003100
00010000
00001000
00000000
01000000
00010000
00000000
10000000
02000000
00000000
00000000
00000000
00000000
00000000
,
03000000
00000000
10000000
00010000
00100000
00000000
01000000
00100000
00000000
00001000
00020000
00000000
00030200
00000000
00000000
00000000
,
00000000
00000000
00000310
00000100
00001000
00000000
00000001
00000100
00000000
00000010
00000200
00000000
00000000
00000000
00000000
00000000
,
00000000
00000000
00000000
00000000
00001300
00000000
00010000
00000000
01000000
00000000
00000000
00100000
00000000
00000000
01100000
00000000
00020000
00000000
00000000
00000000
00000000
00000000
00000000
00000000
00000000
00000000
00000000
00000000
00130000
00000000
00001000
00000000
,
00010000
00000000
00000010
00001000
00000000
00000001
00000020
00000000
00000000
00000000
00000000
00000000
00000030
00000000
00000001
00001000
,
00000100
00000000
00000010
00000100
00000000
00010000
00002000
00000000
00203000
00000000
00000000
00000000
00000000
00000000
01300000
00100000
,
00010000
00000000
10000000
00100000
00000000
01000000
00200000
00000000
00320000
00000000
00032000
00000000
00023000
00000000
02030000
00000000
,
03020000
00000000
00032000
00000000
00003020
00000000
00000230
00000000
00010300
00000000
00001000
00010000
00000000
00001000
00010000
00100000
,
10000000
00000000
00010000
10000000
00000000
00010000
10000000
01000000
00100000
00000000
01000000
00100000
00000000
01000000
00100000
00001000
,
00010000
00000000
00001000
00000000
00022000
00000000
00033000
00000000
00001000
00000000
00010000
00001000
00000000
00010000
00001000
00000010
,
00000001
00000000
00001000
00000001
00000000
00001000
00000001
00000010
00000100
00000000
00000010
00000100
00000000
00000010
00000100
00010000
,
00001000
00000000
00010000
00000000
00022000
00000000
00033000
00000000
00001000
00000000
00010000
00000100
00000000
00010000
01000000
00100000
,
00010000
00000000
10000000
00100000
00000000
01000000
00100000
00010000
00001000
00000000
00010000
00000100
00000000
00010000
00001000
00000010
,
00000100
00000000
00000010
00000000
00000220
00000000
00000330
00000000
00010000
00000000
00001000
01000000
00000000
00001000
00000100
00000010
,
00001000
00000000
00000001
00000010
00000000
00000100
00000010
00000001
00000100
00000000
00001000
00000000
00010000
00000000
00100000
00000000
,
01000000
00000000
00010000
00000000
00010000
00100000
01000000
00100000
,
01000000
00100000
00010000
00000000
00010000
00100000
00001000
00010000
,
00001000
00010000
00000100
00000000
00000100
00000010
00000100
00001000
,
00000100
00001000
00000001
00000000
00000001
00000100
00001000
00010000
,
00001000
00010000
00000200
00000000
00000000
00000000
00000310
00000000
,
00000000
00002000
00000000
00013000
,
00000000
01000000
10000000
00100000
,
01000000
00100000
00000000
00100000
00010000
00000000
00001000
00000100
,
00000001
00000000
00001000
00000000
00001000
00000010
00000100
00000010
,
00000100
00000010
00001000
00000000
00001000
00000100
00010000
00001000
,
00010000
00001000
01000000
00000000
01000000
00100000
01000000
00010000
,
01000000
00010000
10000000
00000000
10000000
01000000
00010000
00001000
,
00010000
00001000
02000000
00000000
00000000
00000000
03100000
00000000
,
00000000
00020000
00000000
00031000
,
00000000
00000010
00000001
00000100
,
00000010
00000100
00000000
00000100
00001000
00000000
00010000
00100000
,
10000000
02000000
00000000
03020000
,
00000000
00032000
00000000
00003200
,
00000300
00002002
00000000
00000000
,
00000000
00000000
00003000
00000000
00000000
00010003
00001000
00010000
,
00000000
00001000
00000100
00000001
,
00000000
00000010
00001000
00010000
,
00000000
00100000
00010000
00001000
,
00010000
01000000
00010000
00000100
,
00000000
00010000
01000000
10000000
,
00000000
00100000
00010000
00001000
,
00000000
00000010
00001000
00010000
,
00001000
00000100
00001000
01000000
;

//---------------dance-single - ----------------
#NOTES:
     dance-single:
     :
     Medium:
     7:
     0.385856,0.556454,0.033346,0.200073,0.187569,324.000000,320.000000,4.000000,24.000000,0.000000,0.000000,0.385856,0.556454,0.033346,0.200073,0.187569,324.000000,320.000000,4.000000,24.000000,0.000000,0.000000:
// measure 0
0000
0000
0000
0000
,  // measure 1
0000
0000
0000
0000
,  // measure 2
0000
0000
0000
0000
,  // measure 3
0000
0000
0000
0000
,  // measure 4
0010
0000
0000
1000
0100
0000
1000
0000
0001
0000
0000
0010
0100
0000
0010
0000
,  // measure 5
0001
0000
0000
0100
0010
0000
0100
0000
0001
0000
0000
0010
0100
0000
1000
0000
,  // measure 6
0010
0000
0000
0100
0010
0000
1000
0000
0100
0000
0000
1000
0001
0000
0010
0000
,  // measure 7
0100
0000
0000
0010
0001
0000
1000
0000
0001
0000
0100
0000
0020
0000
0130
0000
,  // measure 8
0000
0001
0010
0000
0001
0000
1000
0000
0000
0100
0010
0000
0100
0000
1000
0000
,  // measure 9
0000
0010
0100
0000
0010
0000
1000
0000
0000
0100
0010
0000
0001
0000
0100
0000
,  // measure 10
0000
0010
0100
0000
0001
0000
0010
0000
0000
0001
1000
0000
0100
0000
0010
0000
,  // measure 11
0000
0100
1000
0000
0001
0000
0100
0000
0000
0000
0100
0010
0100
0010
1000
0000
,  // measure 12
0100
1000
0001
0010
0100
0010
0001
0100
,  // measure 13
0010
1000
0100
1000
0001
0101
0000
1000
,  // measure 14
0000
0100
0000
0010
0001
1000
0001
0100
,  // measure 15
0000
0100
0000
0000
0010
0000
0000
0010
0000
0000
1000
0000
1000
0000
0001
0000
,  // measure 16
0010
0100
0010
0001
0100
0010
1000
0100
,  // measure 17
0100
0000
0010
0000
0010
0000
0100
0000
1000
0001
0000
0000
0000
0000
1000
0000
,  // measure 18
0000
0100
1000
0001
0010
0100
0010
0001
,  // measure 19
0000
0001
0000
0000
1000
0000
0000
1000
0000
0000
0010
0000
0010
0000
1000
0000
,  // measure 20
0000
1000
0000
0000
0100
0000
0010
0000
0000
0010
0000
0000
0001
0000
1000
0000
,  // measure 21
0000
1000
0000
0000
0010
0000
0100
0000
0001
0000
0200
0000
0000
0000
0301
0000
,  // measure 22
0000
0001
0000
0000
0010
0000
0100
0000
0000
0100
0000
0000
1000
0000
0010
0000
,  // measure 23
0100
0001
0010
0200
0300
0000
2000
0000
,  // measure 24
0010
0000
0000
0000
3001
0000
0000
0010
0000
0000
0002
0000
0000
0000
0000
0000
,  // measure 25
0100
0000
0000
0000
1003
0000
0000
0100
0000
0000
2000
0000
0000
0000
0000
0000
,  // measure 26
0010
0000
0000
0000
3001
0000
0000
0010
0000
0000
0002
0000
0000
0000
0000
0000
,  // measure 27
0100
0000
0000
0000
0000
0000
0000
0000
1003
0000
0000
0100
0000
0000
1000
0000
0020
0000
0000
0000
0000
0000
0000
0000
0001
0000
0000
0000
0000
0000
0000
0000
,  // measure 28
0130
0000
0000
0001
0000
0000
0200
0000
0000
0000
0000
0000
0010
0000
0000
0000
,  // measure 29
0310
0000
0000
1000
0000
0000
0200
0000
0000
0000
0000
0000
1000
0000
0000
0000
,  // measure 30
0310
0000
0000
0001
0000
0000
0200
0000
0310
0000
1000
0000
0010
0000
1000
0000
,  // measure 31
0100
0000
1000
0000
0001
0000
0010
0000
0100
0000
0000
0100
0000
0000
0010
0000
,  // measure 32
0001
0000
0000
0001
0000
0000
1000
0000
0010
0000
0000
0010
0000
0000
0100
0000
,  // measure 33
0001
0000
0100
0000
0020
0000
0000
0000
0130
0000
0000
0100
0000
0000
0010
0000
,  // measure 34
1000
0000
0000
1000
0000
0000
0100
0000
0010
0000
0000
0010
0000
0000
0100
0000
,  // measure 35
1000
0000
0010
0000
0200
0000
0000
0000
0310
0000
0000
0010
0000
0000
1000
0000
,  // measure 36
0100
0000
0000
0100
0000
0000
0010
0000
0001
0000
0000
0001
0000
0000
1000
0000
,  // measure 37
0010
0000
0100
0000
0002
0000
0000
0000
0013
0000
0000
0010
0000
0000
0100
0000
,  // measure 38
1000
0000
0000
1000
0000
0000
0010
0000
0100
0000
0001
0000
0010
0000
0100
0000
,  // measure 39
1000
0001
0001
0100
,  // measure 40
0010
1000
1000
0100
,  // measure 41
1000
0000
0001
0000
0010
0001
0000
0100
,  // measure 42
0000
0010
1000
0000
0100
0000
1000
0000
,  // measure 43
0001
0020
0000
0130
,  // measure 44
0000
2000
0000
3001
,  // measure 45
0000
0100
0010
1000
,  // measure 46
0100
0010
0000
0010
0100
0000
1000
0000
,  // measure 47
0001
1000
1000
0100
,  // measure 48
0010
0001
0001
0100
,  // measure 49
0001
0000
1000
0000
0010
1000
0000
0100
,  // measure 50
0000
0010
0001
0000
0100
0000
0001
0000
,  // measure 51
1000
0020
0000
0130
,  // measure 52
0000
0002
0000
1003
,  // measure 53
0000
0100
0010
0001
,  // measure 54
0100
0010
0000
0010
0100
0000
0001
0000
,  // measure 55
0010
0200
0000
2300
,  // measure 56
0000
3020
0000
0230
,  // measure 57
0300
2002
0000
0000
,  // measure 58
0000
0000
0000
0000
3003
0000
1000
0001
,  // measure 59
0000
1000
1000
1000
,  // measure 60
0000
0001
0001
0001
,  // measure 61
0000
1000
0100
1000
,  // measure 62
0001
0010
0100
0110
,  // measure 63
0000
0001
0001
0001
,  // measure 64
0000
1000
1000
1000
,  // measure 65
0000
0001
0100
0001
,  // measure 66
1000
0010
0100
0110
;

//---------------dance-single - ----------------
#NOTES:
     dance-single:
     :
     Easy:
     4:
     0.281055,0.417341,0.175064,0.350128,0.045850,236.000000,215.000000,21.000000,42.000000,0.000000,0.000000,0.281055,0.417341,0.175064,0.350128,0.045850,236.000000,215.000000,21.000000,42.000000,0.000000,0.000000:
// measure 0
0000
0000
0000
0000
,  // measure 1
0000
0000
0000
0000
,  // measure 2
0000
0000
0000
0000
,  // measure 3
0000
0000
0000
0000
,  // measure 4
1000
1100
0001
0011
,  // measure 5
1000
0000
1010
0000
0001
0000
0101
0100
,  // measure 6
0010
1010
0100
0101
,  // measure 7
1000
0000
1100
0000
0001
0000
0020
0130
,  // measure 8
0000
1100
0000
0010
0000
0011
0000
1000
,  // measure 9
0000
1010
0000
0001
0000
0201
0000
0310
,  // measure 10
0000
1010
0000
0001
0000
0101
0000
0110
,  // measure 11
0000
1001
0000
0110
0000
2000
0000
3001
,  // measure 12
0000
0100
0000
0001
0010
0001
0000
1000
,  // measure 13
0000
0100
0000
0010
0010
0010
0000
0001
,  // measure 14
0000
0100
0000
0010
0000
1000
0000
0001
,  // measure 15
0000
0000
1000
0000
0000
1001
0000
1000
,  // measure 16
0000
0100
0000
1000
0010
1000
0000
0001
,  // measure 17
0000
0100
0000
0010
0010
0010
0000
1000
,  // measure 18
0000
0001
0000
0010
0000
0100
0000
1000
,  // measure 19
0000
0000
0001
0000
0000
1001
0000
0101
,  // measure 20
0000
0001
0000
0000
0000
0000
1000
0000
0000
1000
0000
0000
0000
0000
0100
0000
,  // measure 21
0000
0100
0000
0000
0000
0000
0020
0000
0000
0000
0032
0000
0000
0000
2003
0000
,  // measure 22
0000
3000
0010
0020
0000
0030
0100
0100
,  // measure 23
0000
0001
0000
1000
0000
0000
0002
0000
,  // measure 24
0010
0010
0013
2000
,  // measure 25
0010
0010
3010
0020
,  // measure 26
0100
0100
0100
2030
,  // measure 27
0001
3001
0020
0100
,  // measure 28
0100
0100
0032
1000
,  // measure 29
1000
1000
0203
0010
,  // measure 30
0010
0010
0320
2030
,  // measure 31
3002
0000
0000
0000
0203
0000
0000
0000
0310
0000
0000
0010
0000
0000
0000
0000
,  // measure 32
1000
0000
0000
1000
0000
0000
0000
0000
0001
0000
0000
0001
0000
0000
0000
0000
,  // measure 33
0020
0000
0000
0000
0230
0000
0000
0000
1300
0000
0000
1000
0000
0000
0000
0000
,  // measure 34
0001
0000
0000
0001
0000
0000
0000
0000
0100
0000
0000
0100
0000
0000
0000
0000
,  // measure 35
0020
0000
0230
0000
0302
0000
0003
0010
,  // measure 36
0200
0000
0300
1000
0002
0000
0003
0100
,  // measure 37
0020
0000
0000
0000
2030
0000
0000
0000
3001
0000
0000
0100
0000
0000
0001
0000
,  // measure 38
1000
0000
0000
0001
0000
0000
1000
0000
0002
0000
0000
0000
0013
0000
0000
0000
,  // measure 39
0110
2000
0000
3100
,  // measure 40
0010
0002
0000
1003
,  // measure 41
0001
0100
0000
0010
,  // measure 42
0000
1000
0001
1000
,  // measure 43
0000
0020
0000
0030
,  // measure 44
0000
0200
0000
0300
,  // measure 45
0000
0001
1000
0001
,  // measure 46
0000
0010
0010
0010
,  // measure 47
0000
0002
0000
0013
,  // measure 48
0100
2000
0000
3001
,  // measure 49
1000
0010
0000
0100
,  // measure 50
0000
0001
1000
0001
,  // measure 51
0000
0200
0000
0300
,  // measure 52
0000
0020
0000
0030
,  // measure 53
0000
1000
0001
1000
,  // measure 54
0000
0100
0100
0100
,  // measure 55
0000
0020
0000
0230
,  // measure 56
0000
2300
0000
3020
,  // measure 57
0030
2002
0000
0000
,  // measure 58
0000
0000
0000
3003
,  // measure 59
0000
0001
0100
0001
,  // measure 60
0000
0100
0001
0100
,  // measure 61
0000
0001
0100
0001
,  // measure 62
0100
0001
0100
0001
,  // measure 63
0000
1000
0100
1000
,  // measure 64
0000
0100
1000
0100
,  // measure 65
0000
1000
0100
1000
,  // measure 66
0100
1000
0100
1000
;
