#TITLE:DADDY;
#SUBTITLE:;
#ARTIST:PSY feat CL of 2NE1;
#TITLETRANSLIT:;
#SUBTITLETRANSLIT:;
#ARTISTTRANSLIT:;
#CREDIT:;
#BANNER:DADDY.png;
#BACKGROUND:DADDY - bg.png;
#LYRICSPATH:;
#CDTITLE:cdtitle.png;
#MUSIC:DADDY.ogg;
#OFFSET:-0.970;
#SAMPLESTART:73.554;
#SAMPLELENGTH:14.480;
#SELECTABLE:YES;
#BPMS:0.000=131.800,94.000=65.900,110.000=131.800;
#STOPS:141.000=1.360
,238.000=1.830
;
#BGCHANGES:;

//---------------dance-single - ----------------
#NOTES:
     dance-single:
     :
     Hard:
     9:
     0.589,0.659,0.121,0.291,0.383: // measure 1
0000
0000
0000
0000
,  // measure 2
0000
0000
0000
0000
,  // measure 3
0000
0000
0000
0000
,  // measure 4
0000
0000
0000
0000
1001
0000
0000
0000
0002
0000
0000
0103
0000
0000
0001
0000
,  // measure 5
0010
0000
0100
0000
0010
0000
0001
0000
2000
0000
0000
3010
0000
0000
0100
0000
,  // measure 6
0002
0000
0000
0003
1001
0000
0000
0000
2000
0000
0000
3100
0000
0000
1000
0000
,  // measure 7
0020
0000
0000
0130
0001
1000
0001
0100
,  // measure 8
0020
0000
0000
0030
1010
0000
0000
0000
1000
0000
0100
0000
1000
0000
0001
0000
,  // measure 9
0200
0000
0000
1300
0000
0000
0100
0000
0010
0000
0010
0000
1000
0000
0010
0000
,  // measure 10
0200
0000
0000
0301
0000
1000
0100
0000
1000
0000
0001
0000
0010
0000
1000
0000
,  // measure 11
0020
0000
0000
0130
0000
0000
1000
0000
0010
0000
0010
0000
0100
0000
0001
0000
,  // measure 12
2000
0000
0000
3010
0000
1000
0100
0000
1000
0000
0010
0000
1000
0000
0001
0000
,  // measure 13
0020
0000
0000
1030
0000
0000
0010
0000
0100
0000
0100
0000
1000
0000
0100
0000
,  // measure 14
0020
0000
0000
0031
0000
1000
0010
0000
1000
0000
0001
0000
0100
0000
1000
0000
,  // measure 15
0200
0000
0000
0310
0000
0000
1000
0000
0001
1000
0000
0001
0100
0001
0000
1000
,  // measure 16
0010
1000
0000
0001
0100
0000
0000
0000
0001
0000
1000
0000
0001
0000
0010
0000
,  // measure 17
0100
0000
1000
0010
1000
0100
0010
0100
,  // measure 18
1000
0000
0010
0010
0200
0000
0301
1000
,  // measure 19
0100
0000
1000
0000
0020
0000
0000
0000
0130
0000
0010
1000
0010
0000
0100
0000
,  // measure 20
0001
1000
1001
0000
1000
0100
1000
0010
,  // measure 21
0100
0000
0001
0010
0100
0010
0001
1000
,  // measure 22
0100
0000
1000
1000
0020
0000
0130
0100
,  // measure 23
0010
0000
1000
0000
0200
0000
0000
0000
1300
0100
0000
0010
0001
0010
0000
0001
,  // measure 24
1000
0000
0001
0000
0000
0000
0010
0000
0100
0000
0000
0000
0000
0000
0000
0000
200M
0000
0000
0010
0000
0000
0010
0000
3000
0000
0000
0000
1000
0000
0100
0000
,  // measure 25
0020
0000
0000
0100
0000
0000
0100
0000
0030
0000
0000
0000
0010
0000
0100
0000
2000
0000
0000
0001
0000
0000
0001
0000
3000
0000
0000
0000
1000
0000
0010
0000
,  // measure 26
0200
0000
0000
0010
0000
0000
0010
0000
0300
0000
0001
0000
0010
0000
0001
0000
0200
0000
0000
0001
0000
0000
0002
0000
0303
0000
0000
0000
0001
0000
0010
0000
,  // measure 27
0200
0000
0000
0010
0000
0000
0020
0000
0330
0000
0000
0000
0010
0000
0001
0000
2000
0000
0000
0010
0000
0000
0020
0000
3030
0000
1000
0001
1000
0000
0100
0000
,  // measure 28
0020
0000
0000
0001
0000
0000
0002
0000
0003
0000
0000
0000
0000
0000
0030
0000
M210
0000
0000
0000
0000
0000
0310
0000
0000
0000
0000
0000
0001
0000
0000
0000
,  // measure 29
0100
0000
1000
0000
0100
0000
0001
0000
0020
0000
0000
0130
0000
0000
0010
0000
,  // measure 30
0002
0000
0000
0003
0101
0000
0000
0000
0002
0000
0000
1003
0000
0000
0001
0000
,  // measure 31
0020
0000
0000
0130
1000
0010
0100
0001
,  // measure 32
2000
0000
0000
3000
1100
0000
0000
0000
1000
0000
0100
0000
0010
0000
0001
0000
,  // measure 33
0100
0000
0010
0000
1000
0000
0100
0010
0100
0000
1000
0000
0010
0000
0100
0000
,  // measure 34
0001
0000
0010
0000
0110
0000
0100
1000
0100
0000
0010
0000
0001
0000
0010
0100
,  // measure 35
0010
0000
0001
0000
0100
0000
0010
1000
0010
1000
0010
1000
0010
1000
0010
1000
,  // measure 36
0010
1000
0010
1000
001M
0000
0000
0000
0110
0000
0000
0000
0100
0000
0001
0000
,  // measure 37
0100
0010
0100
0010
0100
0000
0001
0000
0100
0000
1000
0000
0100
0000
0001
0000
,  // measure 38
0100
0010
0100
0010
0100
0000
0001
0000
1001
0000
0000
0000
1000
0000
0100
0000
,  // measure 39
0010
0001
0010
0001
0010
0000
0100
0000
1000
0000
0010
0000
0100
0000
0001
0000
,  // measure 40
1000
0100
1000
0100
1000
0000
0010
0000
0110
0000
0000
0000
0010
0000
1000
0000
,  // measure 41
0010
0100
0010
0100
0010
0000
1000
0000
0010
0000
0001
0000
0010
0000
1000
0000
,  // measure 42
0010
0100
0010
0100
0010
0000
1000
0000
1001
0000
0000
0000
0001
0000
0100
0000
,  // measure 43
0001
0000
1000
0000
0001
0000
0010
0000
0001
0000
1000
0000
0001
0100
0000
0100
,  // measure 44
0001
1000
0000
1000
0100
0010
0000
0010
0100
0000
0000
0000
1000
0000
0010
0000
,  // measure 45
0100
0001
0010
0001
0100
0010
1000
0010
,  // measure 46
0001
0010
1000
0100
0001
0100
1000
0100
,  // measure 47
0010
0001
0100
0001
0010
0100
1000
0001
,  // measure 48
0000
1000
0010
0010
1000
0100
0010
0001
,  // measure 49
0010
1000
0010
0001
0010
0100
0010
0001
,  // measure 50
0100
0001
1000
0001
0100
0010
0100
0001
,  // measure 51
0100
0000
1000
0000
0100
0000
0001
0000
0100
0000
0010
0000
1000
0100
0000
0100
,  // measure 52
1000
0001
0000
0001
0100
0010
0000
0010
1000
0000
0000
0000
2001
0000
0000
3010
,  // measure 53
0000
0000
1000
0000
0100
0000
0001
0000
0100
0000
1000
0000
0020
0000
0000
0130
,  // measure 54
0000
0000
0010
0000
2000
0000
0000
3000
1100
0000
0000
0000
2000
0000
0000
3001
,  // measure 55
0000
1000
0020
0000
0000
0130
0001
0010
,  // measure 56
0100
0000
1000
0000
0002
0000
0000
0003
0101
0000
0000
0000
0001
0000
0100
0000
,  // measure 57
0010
0000
1000
0000
0100
0000
0010
0000
0001
0000
0100
0010
0100
0000
0001
0000
,  // measure 58
0010
0000
0100
0000
1000
0000
0010
0000
0110
0000
0100
0001
0100
0000
0010
0000
,  // measure 59
1000
0000
0010
0100
0010
0000
1000
0000
0100
0000
0010
0001
0010
0001
0010
0001
,  // measure 60
0010
0001
0010
0001
0010
0001
0010
0001
M010
0000
0000
0000
1000
0000
0010
0000
,  // measure 61
0100
0001
0010
0001
0100
0010
1000
0010
,  // measure 62
0001
0010
1000
0100
0001
0100
1000
0100
,  // measure 63
0010
0001
0100
0001
0010
0100
1000
0001
,  // measure 64
0000
1000
0010
0010
1000
0100
0010
0001
,  // measure 65
0010
1000
0010
0001
0010
0100
0010
0001
,  // measure 66
0100
0001
1000
0001
0100
0010
0100
0001
,  // measure 67
0100
1000
0100
0001
0100
0010
1000
0001
,  // measure 68
0000
0000
0000
0000
0000
0000
0000
0000
0000
0000
0000
0000
1000
0100
0000
0010
,  // measure 69
0001
0100
0000
0010
0100
0001
0000
0010
0100
0000
1000
0000
1001
0000
0000
0000
;
