#TITLE:Crazy Noisy Bizarre Town;
#SUBTITLE:;
#ARTIST:The Du;
#TITLETRANSLIT:;
#SUBTITLETRANSLIT:;
#ARTISTTRANSLIT:;
#GENRE:;
#CREDIT:;
#BANNER:[Round 1] - Crazy Noisy Bizarre Town.png;
#BACKGROUND:[Round 1] - Crazy Noisy Bizarre Town-bg.png;
#LYRICSPATH:;
#CDTITLE:;
#MUSIC:[Round 1] - Crazy Noisy Bizarre Town.ogg;
#OFFSET:-0.020000;
#SAMPLESTART:48.520000;
#SAMPLELENGTH:14.125000;
#LASTBEATHINT:267.421326;
#SELECTABLE:YES;
#BPMS:0.000000=136.000000
;
#STOPS:
;
#BGCHANGES:;
#KEYSOUNDS:;
#ATTACKS:;

//---------------dance-single - ----------------
#NOTES:
     dance-single:
     :
     Beginner:
     2:
     0.159512,0.194308,0.041664,0.016665,0.000000,134.000000,129.000000,5.000000,2.000000,0.000000,0.000000,0.159512,0.194308,0.041664,0.016665,0.000000,134.000000,129.000000,5.000000,2.000000,0.000000,0.000000:
0000
0000
0000
0000
,
0000
0000
0000
0000
,
0000
0000
1000
0000
,
0100
0000
0010
0000
,
0001
0000
0001
0000
,
0010
0000
0100
0000
,
1000
0000
0001
0000
,
0100
0000
0010
0000
,
1000
0000
1000
0000
,
0010
0000
0100
0000
,
0001
0000
1000
0000
,
0100
0000
1000
0000
,
0100
0000
0010
0000
,
0001
0000
0010
0000
,
0001
0000
0001
0000
,
0010
0000
1000
0000
,
0010
0000
0001
0000
,
0100
0000
0010
0000
,
1000
0000
0001
0000
,
1000
0000
0100
0000
,
0100
0000
1000
0000
,
0001
0000
0010
0000
,
0010
0000
0100
0000
,
0010
0000
0001
0000
,
1000
0000
0010
0000
,
0100
0000
2002
0000
,
0003
0000
3010
0010
,
0010
0000
1000
0000
,
0010
0000
0100
0000
,
0100
0000
0001
0000
,
0010
0000
0100
0000
,
0100
0000
1000
0000
,
0100
0000
0001
0000
,
0100
0000
0010
0000
,
0001
0000
1000
0000
,
0100
0000
1000
0000
,
1000
0000
0001
0000
,
0001
0000
0100
0000
,
0100
0000
0010
0000
,
0010
0000
0100
0000
,
0100
0000
0001
0000
,
0001
0000
1000
0000
,
1000
0000
0010
0000
,
0010
0000
0110
0000
,
0100
1001
0000
0000
,
0000
0000
0000
1000
,
0000
1000
0000
0100
,
0000
0010
0000
0001
,
0000
0001
0000
0100
,
0000
0010
0000
1000
,
0000
0010
0000
0100
,
0001
0000
0010
0000
,
0100
0000
1000
0000
,
0001
0000
0000
0010
,
0000
0100
0000
1001
,
0001
0000
0010
0000
,
0100
0000
1000
0000
,
1000
0000
0010
0000
,
0100
0000
0001
0000
,
0010
0000
1000
0000
,
0010
0000
0001
0000
,
0100
0000
0010
0000
,
1000
0000
0001
0000
,
0010
0000
0100
0000
,
1000
0000
0000
0000
0010
0000
0000
0010
,
0000
0000
0010
0000
0000
0010
0000
0000
,
0000
0000
0100
0000
0000
1001
0000
0000
;

//---------------dance-single - ----------------
#NOTES:
     dance-single:
     :
     Easy:
     4:
     0.304739,0.360858,0.366639,0.383305,0.000000,256.000000,212.000000,44.000000,46.000000,0.000000,0.000000,0.304739,0.360858,0.366639,0.383305,0.000000,256.000000,212.000000,44.000000,46.000000,0.000000,0.000000:
0000
0000
0000
0000
,
0000
0000
0000
0000
,
0000
0000
1000
0100
,
0010
0001
0100
0001
,
0010
0120
0031
0010
,
0100
1000
0010
1000
,
0001
1002
1003
0100
,
0001
0100
1000
0010
,
0100
0000
0000
0101
0000
0000
0000
1100
,
0000
0000
0000
1010
0000
0000
0000
0011
,
0000
0000
0001
0100
,
0000
0001
1000
0100
,
0000
1000
0001
0010
,
0000
0100
1000
1000
,
0002
0000
1003
1000
,
0100
0010
0001
0001
,
0100
0010
2000
0000
,
3002
0000
0103
0001
,
1000
0010
1000
0001
,
0100
0020
1000
1000
,
1030
1001
0001
1000
,
0010
0200
0001
0001
,
0301
1001
1000
0100
,
0010
0002
1000
2003
,
3001
0000
0010
0000
0100
0000
0000
1100
,
0000
1001
0000
0101
0000
0000
0001
0000
,
1000
0000
0000
0100
0000
0000
0010
0000
,
0010
0000
0001
0100
,
1000
0100
0001
0001
,
2000
3000
1000
0100
,
0001
0100
1000
1000
,
0002
0000
1003
0010
,
0001
0010
2000
3002
,
0023
0030
0011
1100
,
0101
1010
2002
3003
,
0220
0330
0001
0010
,
0100
1000
0001
0100
,
2002
3003
0220
0330
1000
0000
0100
0000
,
0010
0001
1000
0010
,
0220
0330
2002
0003
3010
0000
0100
0000
,
1000
0001
0010
0100
,
0202
0303
2020
3000
0130
0000
0010
0000
,
1000
0001
0010
0100
,
2000
0002
3003
0000
,
0010
1001
0000
0000
,
0000
0000
0000
1000
,
0100
0010
0100
1000
,
0001
0000
0000
0001
,
0010
0100
0010
0001
,
1000
0000
0000
0001
,
1000
0010
0001
0010
,
1000
0000
0011
1100
,
0101
1010
0220
0330
,
2002
3003
1000
0100
,
0010
0001
0000
1001
,
0001
0100
0001
0001
,
2000
3000
1000
0001
,
0010
0100
1000
1000
,
0002
0003
1000
0010
,
0001
0010
0100
0001
,
0010
0000
0011
0101
,
1100
1010
2002
3003
,
0220
0000
0330
2000
0000
0000
0000
3002
,
0000
0000
0000
0203
0000
0000
0000
0320
,
0000
0000
0000
0030
1010
0000
0101
0000
,
0011
0000
1100
0000
0000
1001
0000
0000
,
0000
0000
0110
0000
0000
1001
0000
0000
;

//---------------dance-single - ----------------
#NOTES:
     dance-single:
     :
     Hard:
     9:
     0.599955,0.693958,0.366639,0.658284,0.387471,504.000000,460.000000,44.000000,79.000000,0.000000,0.000000,0.599955,0.693958,0.366639,0.658284,0.387471,504.000000,460.000000,44.000000,79.000000,0.000000,0.000000:
// measure 0
0000
0000
0000
0000
,  // measure 1
0000
0000
0000
0000
,  // measure 2
0000
0000
0000
0000
1000
0010
0001
0010
,  // measure 3
1000
0100
0001
0100
1000
0020
0100
0000
,  // measure 4
0001
0000
0000
0000
0130
0001
0100
0002
0000
0000
0013
0000
0011
0000
0000
0100
,  // measure 5
1000
0000
0000
0001
0010
0000
0001
0100
0010
0000
0000
0000
1010
0000
0000
0000
,  // measure 6
1100
0000
0101
0000
0001
0100
1000
0100
,  // measure 7
0001
0010
1000
0010
0001
0200
0010
0000
,  // measure 8
1000
0000
0301
0202
0003
0310
1000
2200
,  // measure 9
3000
0310
0001
0022
0030
0103
0010
1010
,  // measure 10
0000
0010
0010
0010
1000
0100
0010
0100
,  // measure 11
0000
0010
0001
0100
0001
0100
0010
0100
,  // measure 12
0000
0000
0001
0010
0001
0010
0001
0000
1000
0000
0010
0000
0100
0000
0010
0000
,  // measure 13
0000
0100
0001
0010
0001
0010
0100
1001
,  // measure 14
0000
0000
1000
0010
1000
0010
1000
0000
0100
0000
0010
0000
0001
0000
2000
0000
,  // measure 15
0000
3010
0100
0002
0000
1003
0010
0100
,  // measure 16
0001
0100
1000
0100
0002
0000
0023
0000
,  // measure 17
0230
0000
0000
0000
2300
0000
3001
0000
1000
0000
0100
0000
0010
0001
0000
0001
,  // measure 18
0100
0010
0100
0010
1000
0000
0100
0000
1000
0000
1000
0000
0001
0000
0100
0000
,  // measure 19
0001
0001
0010
0002
0000
0013
1000
0010
,  // measure 20
0001
1000
0001
0100
0010
0010
1000
0001
,  // measure 21
0100
0100
0001
2000
0000
3200
0000
0320
,  // measure 22
0000
0032
0000
1003
0010
0100
1000
0100
,  // measure 23
0010
1000
0001
0020
0000
0130
0001
0100
,  // measure 24
0010
0001
1000
0001
0012
2003
3100
0110
,  // measure 25
0000
1001
0000
0200
0000
0000
1000
0000
,  // measure 26
0001
0000
0310
1001
0000
0011
0101
1100
,  // measure 27
1010
0000
0000
0010
0100
0010
0100
0000
0001
0000
0010
0000
1000
0000
0010
0100
,  // measure 28
1000
0001
0100
0010
1010
1020
0000
0230
,  // measure 29
0000
0000
0301
0000
0101
0000
0100
0010
1000
0000
0010
0000
0001
0000
0010
0100
,  // measure 30
0001
1000
0001
0010
2100
0100
3002
0010
,  // measure 31
0013
0000
0001
0000
1000
0001
1000
0001
1000
0000
0001
0000
0100
0000
0001
0010
,  // measure 32
0200
0000
0320
0000
0032
0000
2003
3020
,  // measure 33
0000
0000
0130
0000
0110
0000
0000
0000
0010
0000
0000
0010
1000
0000
0000
1000
,  // measure 34
0001
0000
0000
0001
0010
0000
0000
0010
0200
0000
0000
0000
2300
0000
0000
0000
,  // measure 35
3001
1000
0001
1000
0010
0100
0010
1000
0000
0000
1000
0100
1000
0010
0000
0000
,  // measure 36
0100
0001
0100
0010
0000
0000
1000
0001
0000
0000
0001
1000
0100
0010
0000
0000
,  // measure 37
0022
0000
0000
0033
2200
0000
3300
1001
0000
0000
0001
0100
0001
0010
0000
0000
,  // measure 38
0100
1000
0100
0010
0000
0000
0001
1000
0000
0000
1000
0001
0100
0010
0000
0000
,  // measure 39
0010
0000
1000
0010
1000
0001
0100
0001
0000
0000
1000
0100
0010
0001
0000
0000
,  // measure 40
0100
0001
1000
0010
0000
0000
0010
0100
0000
0000
0001
0100
0010
1000
0000
0000
,  // measure 41
0001
1000
0001
1000
0010
0100
0001
1000
0000
0000
1000
0010
0100
0001
0000
0000
,  // measure 42
1000
0001
0100
0010
0000
0000
0010
0100
0000
0000
0001
0010
0100
1000
0000
0000
,  // measure 43
2020
0000
0000
3030
0202
0000
0303
1001
0000
0000
0000
0000
0000
0000
0000
0000
,  // measure 44
1010
0000
0011
0000
0002
2000
0000
0000
0000
0000
0000
0000
0000
0000
0000
0000
,  // measure 45
0000
3003
0000
0000
0000
1000
0100
0010
,  // measure 46
0002
0000
2003
0000
3001
0020
0000
0230
,  // measure 47
0000
0000
1300
0000
0000
0010
0100
0001
,  // measure 48
2000
0000
3002
0000
1003
0200
0000
0320
,  // measure 49
0000
0000
0031
0000
0000
1000
0100
1000
,  // measure 50
0200
0000
0320
0000
0032
0000
0023
0200
,  // measure 51
0000
0000
0000
0000
0330
0000
0000
0000
0010
0000
0000
0010
0001
0000
0000
0001
,  // measure 52
1000
0000
0000
1000
0100
0000
0000
0100
2000
0000
0000
0000
0000
0000
0000
0000
,  // measure 53
3002
0000
0000
1003
0000
1100
1100
0010
,  // measure 54
0010
0000
0101
0000
0101
0000
0010
0000
0000
0000
0000
0000
2001
0000
3100
0010
,  // measure 55
0001
1000
0010
0100
0101
0201
0000
0320
,  // measure 56
0000
0000
1030
0000
1010
0000
0010
0100
0001
0000
1000
0000
0001
0000
0100
0010
,  // measure 57
1000
0001
1000
0100
0012
0010
2003
0100
,  // measure 58
3100
0000
1000
0000
0001
1000
0001
1000
0001
0000
1000
0000
0010
0000
1000
0000
,  // measure 59
0200
0000
0320
0000
0032
0000
2003
3020
,  // measure 60
0000
0000
0130
0000
0110
0000
0000
0000
0010
0000
0000
0010
1000
0000
0000
1000
,  // measure 61
0001
0000
0000
0001
0010
0000
0000
0010
0100
0000
1000
0000
0001
0000
0010
0000
,  // measure 62
0100
0010
0100
0010
0100
0000
2200
0000
3000
0000
0310
0000
0001
0000
0202
0000
,  // measure 63
0003
0310
1000
2020
0030
3100
0010
0022
,  // measure 64
0000
0000
0000
0000
0033
0000
0000
0000
0010
0100
0010
0100
0000
0000
1000
0001
,  // measure 65
1000
0001
0000
0000
0100
0010
0100
0010
0000
0000
1000
0001
1000
0001
0000
0000
,  // measure 66
0000
0000
0100
0001
0010
0100
1000
0002
0000
0000
1003
0000
0000
0000
0000
0000
;

//---------------dance-single - ----------------
#NOTES:
     dance-single:
     :
     Medium:
     6:
     0.390447,0.499650,0.316643,0.466632,0.000000,328.000000,290.000000,38.000000,56.000000,0.000000,0.000000,0.390447,0.499650,0.316643,0.466632,0.000000,328.000000,290.000000,38.000000,56.000000,0.000000,0.000000:
0000
0000
0000
0000
,
0000
0000
0000
0000
,
0000
0000
0210
0001
,
0010
0302
1000
0100
,
1000
0000
0103
0010
1000
0001
0011
0000
,
1010
0011
1100
0101
,
0100
0010
2001
0000
3200
0000
1000
0000
,
0010
2300
0001
0100
,
0001
0000
3100
1100
0000
0100
0010
0110
,
0000
0010
0001
0011
0000
0001
1000
2002
,
0000
0000
3003
0000
1000
0100
1000
0000
,
0001
0100
0001
0000
1000
0010
1000
0000
,
0001
0010
0001
0000
0100
0010
1000
0000
,
0100
0010
0001
0010
0100
0010
0000
2002
,
0000
3000
0013
0000
0002
0000
0103
2000
,
0000
3100
0010
2000
0000
3100
0010
0002
,
0000
0103
0010
1000
0001
0000
0100
0000
,
1000
0100
0001
0020
0000
0000
0032
0000
,
2003
0000
3100
0000
1000
0100
1000
0100
,
1000
0010
0010
0100
0000
0100
0001
1000
,
0100
0000
0010
0000
0001
0100
0001
0100
,
0001
0010
0010
0002
0000
0023
0000
0230
,
0000
1300
0000
0001
1000
0100
0001
0100
,
1000
0010
0010
0100
0000
0001
0000
0100
,
0010
1000
0100
0000
1000
0100
0010
0011
,
0000
0100
0000
2002
0000
0000
0000
0000
,
0000
3003
0000
0110
0000
0010
0010
0010
,
0010
0000
0000
0000
1000
0000
0100
1000
,
0010
0000
0100
0000
0001
0100
0000
0020
,
0000
0130
0001
0000
0001
0000
0100
0001
,
0010
0000
0100
0000
1000
0010
0000
0200
,
0000
0310
1000
0000
0001
0000
1000
0001
,
0100
0000
0020
0000
2030
0000
3002
0023
,
0000
0030
0110
1100
,
0101
1001
0002
0000
,
2003
0000
0000
3100
0000
1000
0010
0000
,
0100
0001
0000
1001
0000
0001
0010
0000
,
0200
0000
2300
0000
3000
0001
0100
0000
,
0010
1000
0000
1001
0000
1000
0100
0000
,
0020
0000
0032
0000
0003
0100
0010
0000
,
1000
0001
0000
1001
0000
0001
1000
0000
,
0020
0000
0230
0000
0300
0001
1000
0000
,
0010
0100
0000
0110
0000
0100
0001
0000
,
0020
0230
0300
0000
,
1000
0001
2002
0000
0000
0000
0000
0000
,
0000
3003
0000
0000
0000
0000
1000
0100
,
1000
0000
0001
0000
0100
0001
0000
0020
,
0000
0000
0030
0000
0000
0000
0001
0100
,
0001
0000
1000
0000
0010
1000
0000
0200
,
0000
0000
0300
0000
0000
0000
1000
0001
,
0100
0000
0010
0000
1000
0000
0001
0020
,
0000
0030
0110
1100
,
0101
1001
2000
0000
,
3002
0000
0000
1003
0000
0100
0020
0000
,
0000
0031
2000
0000
3000
0000
1001
0001
,
0100
0000
0010
0000
1000
0010
0000
0200
,
0000
0310
1000
0000
1000
0000
0010
1000
,
0100
0000
0010
0000
0001
0100
0000
0020
,
0000
0130
0001
0000
1000
0000
0001
1000
,
0100
0000
0020
0000
0032
0000
2003
3020
,
0000
0030
0110
0101
,
0011
1010
1200
0000
,
0320
0000
0000
0031
0000
0001
0100
0101
,
0000
0100
0010
0110
0000
0010
1000
2020
,
0000
0000
3030
0000
0010
1000
0000
0001
,
0100
0000
0001
0010
0000
0100
1000
0000
,
0000
0001
1000
0000
0000
0110
0000
0000
;
