#VERSION:0.83;
#TITLE:39みゅーじっく!;
#SUBTITLE:;
#ARTIST:みきとP;
#TITLETRANSLIT:39 Music!;
#SUBTITLETRANSLIT:;
#ARTISTTRANSLIT:Mikito-P;
#GENRE:;
#ORIGIN:;
#CREDIT:Lisek;
#BANNER:[Round 1] - 39! Music.png;
#BACKGROUND:[Round 1] - 39! Music-bg.png;
#PREVIEWVID:;
#JACKET:[Round 1] - 39! Music-jacket.png;
#CDIMAGE:;
#DISCIMAGE:;
#LYRICSPATH:;
#CDTITLE:cdtitle.png;
#MUSIC:[Round 1] - 39! Music.ogg;
#OFFSET:-3.025330;
#SAMPLESTART:78.72;
#SAMPLELENGTH:15.20;
#SELECTABLE:YES;
#BPMS:0.000=130.000;
#STOPS:;
#DELAYS:;
#WARPS:;
#TIMESIGNATURES:0.000=4=4;
#TICKCOUNTS:0.000=4;
#COMBOS:0.000=1;
#SPEEDS:0.000=1.000=0.000=0;
#SCROLLS:0.000=1.000,
160.000=0.000,
163.000=1.000;
#FAKES:;
#LABELS:0.000=Song Start;
#BGCHANGES:0.000=[Round 1] - 39! Music.avi=1.000=1=0=0=StretchNoLoop==CrossFade==,
217.500=[Round 1] - 39! Music-bg.png=1.000=1=0=1===CrossFade==,
99999=-nosongbg-=1.000=0=0=0 // don't automatically add -songbackground-
;
#KEYSOUNDS:;
#ATTACKS:
;

//---------------dance-single - ----------------
#NOTEDATA:;
#CHARTNAME:;
#STEPSTYPE:dance-single;
#DESCRIPTION:;
#CHARTSTYLE:;
#DIFFICULTY:Hard;
#METER:8;
#RADARVALUES:0.487340,0.638494,0.383096,0.428703,0.191548,374.000000,332.000000,42.000000,47.000000,0.000000,0.000000,0.000000,0.000000,0.000000,0.487340,0.638494,0.383096,0.428703,0.191548,374.000000,332.000000,42.000000,47.000000,0.000000,0.000000,0.000000,0.000000,0.000000;
#CREDIT:Lisek;
#NOTES:
// measure 0
0000
0000
0000
0000
,  // measure 1
2002
0000
0000
3003
0000
0000
0000
0000
0011
0000
0000
1100
0000
0000
2002
0000
,  // measure 2
0000
3003
0000
0000
0000
0000
0000
0000
0001
0000
1000
0000
0010
0000
0100
0000
,  // measure 3
0220
0000
0000
0330
0000
0000
0000
0000
0101
0000
0000
1010
0000
0000
2002
0000
,  // measure 4
0000
3003
0000
0000
1000
0100
0010
0001
,  // measure 5
1001
1000
0010
0100
,  // measure 6
0001
0000
0010
0000
0100
1000
0001
0100
,  // measure 7
0102
1000
0100
1003
,  // measure 8
2010
0001
0010
3001
,  // measure 9
1000
0001
0100
0010
1000
0100
0010
0001
,  // measure 10
1000
0010
0100
0001
0010
0100
1000
0001
0200
0000
0000
0000
0301
0000
0000
0000
,  // measure 11
1001
0001
0100
0000
0100
0010
1000
0100
,  // measure 12
0010
0100
1000
0000
1000
0001
0010
0100
,  // measure 13
0010
0001
0100
0000
0010
1000
0100
0010
,  // measure 14
0100
0000
1000
0000
0010
0000
0000
0000
0010
0000
0100
0000
0001
0000
0100
0001
,  // measure 15
0100
0001
1000
0000
1000
0100
0010
0100
,  // measure 16
1000
0001
0100
0000
0100
0010
1000
0001
,  // measure 17
0100
0001
0010
0000
0010
0001
0010
0100
,  // measure 18
0010
0001
1000
0000
1000
0001
2000
0000
,  // measure 19
3001
0000
0100
0010
0100
0000
0001
0000
1000
0000
0010
0000
0100
0000
0010
1000
,  // measure 20
0010
0010
0100
0100
0001
1000
0001
1000
,  // measure 21
0010
0000
0100
0000
0001
0000
0010
0100
0000
0000
1000
0000
0010
0000
0100
0000
,  // measure 22
0001
0000
0000
0100
0000
0000
1000
0000
0100
0000
0000
0000
0101
0000
0000
0000
,  // measure 23
0001
0100
0001
0000
1000
0000
0000
0010
0100
0000
0001
0000
1000
0000
0100
0000
,  // measure 24
1000
0010
1000
0000
0010
0000
0100
0000
0001
0000
0100
0000
0010
0000
1000
0000
,  // measure 25
0001
1000
0001
0000
0100
0000
0001
0000
1000
0000
0010
0000
0100
0000
0001
0000
,  // measure 26
1000
0000
0000
0100
0000
0000
0001
0000
0100
0000
0000
0000
1000
0000
0000
0000
,  // measure 27
2002
0000
0000
0000
3003
0000
0000
0000
0101
0000
0000
0110
0000
0000
2020
0000
,  // measure 28
0000
0000
3030
0000
1000
0010
0100
0010
,  // measure 29
0220
0000
0000
0000
0330
0000
0000
0000
1100
0000
0000
0110
0000
0000
0022
0000
,  // measure 30
0000
0000
0000
0000
0033
0000
0001
1000
0001
0000
0100
0000
0001
0000
1000
0000
,  // measure 31
2002
0000
0000
0000
3003
0000
0000
0000
0011
0000
0000
0110
0000
0000
2200
0000
,  // measure 32
0000
0000
3300
0100
1000
0100
0010
0100
,  // measure 33
0220
0000
0330
0000
0010
0001
1000
0010
,  // measure 34
0220
0000
0330
0000
0100
0001
1000
0100
,  // measure 35
0220
0000
0330
0000
0010
0001
1000
0010
,  // measure 36
0220
0000
0330
0000
0100
0001
1000
0100
,  // measure 37
0220
0330
0010
0001
,  // measure 38
1000
0100
0010
0001
0010
0100
1000
0001
,  // measure 39
1000
0010
0100
0001
0010
0100
1000
0100
0010
0001
1000
0010
0100
0001
1000
0000
,  // measure 40
2002
0000
0000
3003
,  // measure 41
0001
0000
0001
0000
0001
0000
0001
1000
0000
1000
0001
0000
1001
0000
0000
0000
,  // measure 42
1000
0000
0100
0010
0100
0000
0000
0000
0020
0000
0000
0000
0032
0000
0000
0000
,  // measure 43
1003
0000
1000
0000
1000
0000
1000
0001
0000
0001
1000
0000
0010
0000
0000
0000
,  // measure 44
1001
0000
0001
0100
2000
0000
3200
0000
,  // measure 45
0301
0000
0001
0000
0001
0000
0001
1000
0000
1000
0001
0000
1001
0000
0000
0000
,  // measure 46
1000
0000
0100
0010
0100
0000
0000
0000
0020
0000
0000
0000
0032
0000
0000
0000
,  // measure 47
1003
0100
0010
0100
1000
0000
0010
0100
0000
0001
1000
0000
0010
0000
0000
0000
,  // measure 48
1001
0000
0001
1000
1001
0000
0110
0000
,  // measure 49
1002
1000
0100
0000
1000
0100
1003
1000
,  // measure 50
2001
0001
0100
0000
0001
0100
3001
0001
,  // measure 51
1002
1000
0100
0000
1000
0100
1003
1000
,  // measure 52
0001
0100
0010
1000
0100
0010
0001
0000
1001
0000
0000
0000
0010
0000
0000
0000
,  // measure 53
2002
0000
0000
0000
,  // measure 54
0000
0000
0000
0000
,  // measure 55
0000
0000
0000
0000
,  // measure 56
3003
0000
0000
0000
;

//---------------dance-single - ----------------
#NOTEDATA:;
#CHARTNAME:;
#STEPSTYPE:dance-single;
#DESCRIPTION:;
#CHARTSTYLE:;
#DIFFICULTY:Medium;
#METER:5;
#RADARVALUES:0.285368,0.332017,0.228034,0.209791,0.027364,219.000000,194.000000,25.000000,23.000000,0.000000,0.000000,0.000000,0.000000,0.000000,0.285368,0.332017,0.228034,0.209791,0.027364,219.000000,194.000000,25.000000,23.000000,0.000000,0.000000,0.000000,0.000000,0.000000;
#CREDIT:Lisek;
#NOTES:
0000
0000
0000
0000
,
1001
0000
0000
0000
0000
0000
0000
0000
1000
0000
0000
0010
0000
0000
0100
0000
,
0000
0000
0001
1000
,
1001
0000
0000
0000
0000
0000
0000
0000
0001
0000
0000
0100
0000
0000
0010
0000
,
0000
0000
1000
0001
,
1001
0000
0000
0000
0000
0000
0000
0000
1000
0000
0000
0100
0000
0000
0010
0000
,
0000
0000
0001
1000
,
1002
0000
0000
0000
,
2003
0000
0000
0000
,
3001
0010
0100
1000
,
0010
0100
0002
0003
,
1000
0010
0100
0000
0001
0000
1000
0000
,
0001
0100
0010
0000
1000
0000
0001
0000
,
1000
0100
0010
0000
0001
0000
1000
0000
,
0001
0010
0100
0000
1000
0000
0001
0000
,
1000
0010
0100
0000
0001
0000
1000
0000
,
0001
0100
0010
0000
1000
0000
0001
0000
,
1000
0100
0010
0000
0001
0000
1000
0000
,
0001
0010
0100
0000
2000
0000
3002
0000
,
1003
0000
0010
0000
0100
0010
1000
0000
,
0001
0000
0100
0000
0001
0100
0010
0000
,
1000
0100
0010
0001
,
2002
0000
3003
1001
,
0001
0000
0100
0000
0001
1000
0010
0000
,
0100
0000
0001
0000
1000
0001
0100
0000
,
0001
0100
0010
1000
,
2002
0000
3003
0000
,
1001
0000
0000
0000
0000
0000
0000
0000
0001
0000
0000
0010
0000
0000
0100
0000
,
0000
0000
1000
0001
,
1001
0000
0000
0000
0000
0000
0000
0000
1000
0000
0000
0100
0000
0000
0010
0000
,
0000
0000
0001
1000
,
1001
0000
0000
0000
0000
0000
0000
0000
0001
0000
0000
0100
0000
0000
0010
0000
,
0000
0000
1000
0001
,
2002
3003
1000
0010
,
2020
3030
0010
0100
,
0220
0330
0100
0001
,
0202
0303
0001
1000
,
2002
3003
0001
0000
,
1000
0000
0010
0000
,
1000
0010
0100
0001
,
2002
0000
0000
3003
,
1000
0000
0001
0000
0100
0010
0100
0000
,
0001
0010
0011
1100
,
0001
0000
1000
0000
0010
0100
0010
0000
,
1001
0100
0010
1001
,
1000
0000
0001
0000
0100
0010
0100
0000
,
0001
0100
0101
1010
,
0001
0000
1000
0000
0010
0100
0010
0000
,
1001
0010
0100
0010
,
1001
0000
0001
0000
1000
0010
0100
0000
,
0001
0000
0100
0000
0010
1000
0001
0000
,
1000
0000
0010
0000
0100
0001
1000
0000
,
0001
0000
0100
0000
0010
1000
0001
0000
,
2002
0000
0000
0000
,
0000
0000
0000
0000
,
0000
0000
0000
0000
,
3003
0000
0000
0000
;

//---------------dance-single - ----------------
#NOTEDATA:;
#CHARTNAME:;
#STEPSTYPE:dance-single;
#DESCRIPTION:;
#CHARTSTYLE:;
#DIFFICULTY:Easy;
#METER:2;
#RADARVALUES:0.117274,0.204318,0.036485,0.145941,0.000000,90.000000,86.000000,4.000000,16.000000,0.000000,0.000000,0.000000,0.000000,0.000000,0.117274,0.204318,0.036485,0.145941,0.000000,90.000000,86.000000,4.000000,16.000000,0.000000,0.000000,0.000000,0.000000,0.000000;
#CREDIT:Lisek;
#NOTES:
0000
0000
0000
0000
,
1000
0000
0001
0000
,
0000
0000
0000
0000
,
1000
0000
0010
0000
,
0000
0000
0000
0000
,
0100
0000
0001
0000
,
1000
0000
0010
0000
,
1000
0000
0001
0000
,
1000
0000
0001
0000
,
1000
0001
1000
0001
,
2002
0000
0000
3003
,
1000
0000
0001
0000
,
0100
0000
0010
0000
,
0100
0000
0001
0000
,
1000
0000
0000
0000
,
0001
0000
1000
0000
,
0010
0000
0100
0000
,
0010
0000
1000
0000
,
0001
0000
0000
0000
,
1000
0000
0000
0000
,
0010
0000
0000
0000
,
0100
0000
0000
0000
,
0001
0000
1000
0000
,
0001
0000
0000
0000
,
0010
0000
0000
0000
,
0100
0000
0000
0000
,
1000
0000
0001
0000
,
2000
0000
0000
0000
,
0000
0000
0000
0000
,
3002
0000
0000
0000
,
0000
0000
0000
0000
,
0203
0000
0000
0000
,
0000
0000
0000
0000
,
0320
0000
0100
0000
,
0230
0000
0010
0000
,
0320
0000
0100
0000
,
0230
0000
0000
0000
,
0301
0000
1000
0000
,
0001
0000
1000
0000
,
0001
1000
0001
1000
,
2002
0000
0000
3003
,
0001
0000
1000
0000
,
0010
0000
0200
0300
,
0001
0000
0010
0000
,
0100
0000
2000
3000
,
0001
0000
0100
0000
,
0010
0000
2000
3000
,
0001
0000
0010
0000
,
0100
0000
1000
0001
,
1001
0000
0001
0000
,
0100
0000
0010
0000
,
1000
0000
0100
0000
,
0010
0000
0001
0000
,
2002
0000
0000
0000
,
0000
0000
0000
0000
,
0000
0000
0000
0000
,
3003
0000
0000
0000
;

//---------------dance-single - ----------------
#NOTEDATA:;
#CHARTNAME:;
#STEPSTYPE:dance-single;
#DESCRIPTION:;
#CHARTSTYLE:;
#DIFFICULTY:Beginner;
#METER:1;
#RADARVALUES:0.052122,0.102159,0.018243,0.045607,0.000000,40.000000,38.000000,2.000000,5.000000,0.000000,0.000000,0.000000,0.000000,0.000000,0.052122,0.102159,0.018243,0.045607,0.000000,40.000000,38.000000,2.000000,5.000000,0.000000,0.000000,0.000000,0.000000,0.000000;
#CREDIT:Lisek;
#NOTES:
0000
0000
0000
0000
,
1000
0000
0000
0000
,
0000
0000
0000
0000
,
0001
0000
0000
0000
,
0000
0000
0000
0000
,
0100
0000
0000
0000
,
0000
0000
0000
0000
,
0010
0000
0000
0000
,
0000
0000
0000
0000
,
2002
0000
0000
0000
,
0000
0000
3003
0000
,
1000
0000
0000
0000
,
0001
0000
0000
0000
,
1000
0000
0000
0000
,
0001
0000
0000
0000
,
0100
0000
0000
0000
,
0010
0000
0000
0000
,
0100
0000
0000
0000
,
0010
0000
0000
0000
,
1000
0000
0000
0000
,
0010
0000
0000
0000
,
1000
0000
0000
0000
,
0010
0000
0000
0000
,
0100
0000
0000
0000
,
0001
0000
0000
0000
,
0100
0000
0000
0000
,
0001
0000
0000
0000
,
1000
0000
0000
0000
,
0000
0000
0000
0000
,
0100
0000
0000
0000
,
0000
0000
0000
0000
,
0010
0000
0000
0000
,
0000
0000
0000
0000
,
0001
0000
0000
0000
,
1000
0000
0000
0000
,
0001
0000
0000
0000
,
1000
0000
0000
0000
,
0020
0000
0000
0000
,
0000
0000
0000
0000
,
0000
0000
0000
0000
,
0000
0000
0000
0030
,
1000
0000
0000
0000
,
0000
0000
0000
0000
,
0001
0000
0000
0000
,
0000
0000
0000
0000
,
0100
0000
0000
0000
,
0000
0000
0000
0000
,
0010
0000
0000
0000
,
0000
0000
0000
0000
,
1000
0000
0000
0000
,
0010
0000
0000
0000
,
1000
0000
0000
0000
,
0001
0000
0000
0000
,
2002
0000
0000
0000
,
0000
0000
0000
0000
,
0000
0000
0000
0000
,
3003
0000
0000
0000
;
