#VERSION:0.83;
#TITLE:(This Is Not) The Angels;
#SUBTITLE:;
#ARTIST:Hommarju;
#TITLETRANSLIT:;
#SUBTITLETRANSLIT:;
#ARTISTTRANSLIT:;
#GENRE:;
#ORIGIN:;
#CREDIT:;
#BANNER:[Round 1] - (This Is Not) The Angels.png;
#BACKGROUND:[Round 1] - (This Is Not) The Angels-bg.png;
#PREVIEWVID:;
#JACKET:[Round 1] - (This Is Not) The Angels-jkt.png;
#CDIMAGE:;
#DISCIMAGE:;
#LYRICSPATH:;
#CDTITLE:;
#MUSIC:[Round 1] - (This Is Not) The Angels.mp3;
#OFFSET:-1.023000;
#SAMPLESTART:78.561996;
#SAMPLELENGTH:12.000000;
#SELECTABLE:YES;
#BPMS:0.000=130.000;
#STOPS:13.750=0.462;
#DELAYS:;
#WARPS:;
#TIMESIGNATURES:0.000=4=4;
#TICKCOUNTS:0.000=4;
#COMBOS:0.000=1;
#SPEEDS:0.000=1.000=0.000=0;
#SCROLLS:0.000=1.000;
#FAKES:;
#LABELS:0.000=Song Start;
#BGCHANGES:;
#KEYSOUNDS:;
#ATTACKS:
;

//---------------dance-single - ----------------
#NOTEDATA:;
#CHARTNAME:;
#STEPSTYPE:dance-single;
#DESCRIPTION:;
#CHARTSTYLE:Pad;
#DIFFICULTY:Challenge;
#METER:11;
#RADARVALUES:0.835242,0.845993,0.231552,0.066158,1.091604,707.000000,679.000000,28.000000,8.000000,0.000000,0.000000,0.000000,0.000000,0.000000,0.835242,0.845993,0.231552,0.066158,1.091604,707.000000,679.000000,28.000000,8.000000,0.000000,0.000000,0.000000,0.000000,0.000000;
#CREDIT:Darkstorm091;
#NOTES:
// measure 0
0000
0000
0000
0000
,  // measure 1
0000
0000
0000
0000
,  // measure 2
0000
0000
0000
0000
,  // measure 3
0000
0000
0000
0000
0000
0000
0000
0000
2002
0000
3003
0000
1000
0000
0010
0100
,  // measure 4
0001
0010
0000
0100
1000
0000
0010
1000
0000
0001
0100
0000
0010
0000
0100
0001
,  // measure 5
0010
0100
0000
1000
0010
0000
1000
0001
0000
0100
0010
0000
0100
0000
0001
0010
,  // measure 6
0100
0010
0000
0001
0100
0000
0010
1000
0000
0100
0010
0000
0001
0010
0000
0100
,  // measure 7
0000
0010
0001
0010
0000
0001
0100
0000
0010
0000
0000
0000
0110
0000
0001
0010
,  // measure 8
0100
0010
0000
0001
0100
0000
0010
1000
0000
0100
0010
0000
0100
0000
0010
0001
,  // measure 9
0100
0010
0000
0100
0001
0000
1000
0100
0000
1000
0010
0000
0100
0000
0010
0100
,  // measure 10
0001
1000
0000
0100
0010
0000
0100
1000
0000
0100
1000
0000
0001
0000
0100
0010
,  // measure 11
0000
1000
0100
0010
0000
0001
0010
0000
0001
0010
0100
1000
0010
0000
0100
0000
,  // measure 12
0010
0000
0100
0001
0000
0010
0100
0000
1000
0000
0001
0000
1000
0100
0010
0100
,  // measure 13
0010
0001
0010
0100
0010
0001
0010
0100
1000
0010
0100
0000
0001
0010
0001
0100
,  // measure 14
0010
1000
0100
0000
0010
0100
1000
0000
0001
0000
0100
0000
0010
0000
0100
0000
,  // measure 15
0001
1000
0100
0010
0100
0010
0001
0000
1000
0000
0100
0000
0010
0100
1000
0001
,  // measure 16
0100
0010
0100
0001
0000
0100
0000
0010
0100
0000
0010
0100
0001
0000
1000
0100
,  // measure 17
1000
0010
1000
0100
0010
0001
0010
0001
0010
0000
0001
0000
1000
0000
0010
0000
,  // measure 18
0100
0000
0001
0010
0100
0010
0001
0100
0010
0000
0100
0000
0010
0100
0001
1000
,  // measure 19
0100
0010
0001
0010
0000
0000
0001
0100
0010
0000
0100
0000
0010
0100
0001
0010
,  // measure 20
0100
0010
0001
0000
1000
0001
0100
0000
0010
0000
0100
0001
0010
0000
0100
0000
,  // measure 21
1000
0001
0010
0001
0000
0010
0001
0100
0010
0000
0100
0000
0010
0000
0010
0000
,  // measure 22
0100
0000
0001
1000
0000
0100
1000
0010
0100
0001
0010
0100
1000
0000
1000
0000
,  // measure 23
0001
0000
0100
0010
0000
1000
0100
0010
0001
0010
0100
0010
0001
0000
0001
0000
,  // measure 24
0100
0000
0010
1000
0000
0100
0010
0001
0100
0010
0100
0001
0010
0000
0010
0000
,  // measure 25
0001
0000
0100
0010
0000
0100
0001
1000
0100
0010
0100
0010
0001
0000
0010
0000
,  // measure 26
0100
0000
0010
0000
0000
0100
1000
0000
0010
0000
0000
0000
0100
0000
0010
0000
,  // measure 27
1000
0000
0001
0000
0000
0010
0001
0000
0100
0000
0000
0000
0001
0000
0100
0000
,  // measure 28
0010
0000
0100
0000
0000
0010
1000
0000
0001
0000
0000
0000
0010
0000
0001
0000
,  // measure 29
0100
0000
0001
0000
0000
0010
0001
0000
1000
0000
0000
0000
1000
0100
0010
0001
,  // measure 30
1000
0100
0010
0001
1000
0100
0010
0001
1000
0100
0010
0001
1000
0010
0100
0001
,  // measure 31
1000
0010
0100
0001
1000
0010
0100
0001
1000
0010
0100
0001
1000
0100
1000
0001
,  // measure 32
0010
0100
0010
0001
0100
0010
1000
0100
0010
0100
0010
0001
0100
0010
0100
0001
,  // measure 33
1000
0010
1000
0001
0100
0001
0010
0100
1000
0010
0100
0000
1100
0000
0001
0000
,  // measure 34
1100
0001
1100
0001
1100
0001
0011
1000
,  // measure 35
0011
1000
0011
1000
0011
1000
1001
0100
,  // measure 36
1001
0010
1001
0100
1001
0010
0110
1000
,  // measure 37
0110
0000
0001
0000
0110
0000
1000
0000
0110
0000
0001
0000
1000
0010
0100
0001
,  // measure 38
0010
0100
0010
0001
0100
0010
1000
0100
0010
0100
0010
0001
0100
0010
1000
0100
,  // measure 39
1000
0010
0100
0001
0010
0100
0010
0001
0100
0010
1000
0100
0010
0001
0010
0100
,  // measure 40
0010
0001
0100
0010
0100
0001
1000
0100
0010
0100
1000
0001
0010
0000
0000
0000
,  // measure 41
0100
0000
1000
0100
0000
1000
0010
0000
0220
0000
0330
0000
0100
0001
0010
0100
,  // measure 42
0010
0001
0100
0000
0010
0100
0001
0000
0010
0000
0100
0000
0010
0000
0100
0000
,  // measure 43
1000
0010
1000
0001
0010
0100
0010
0000
0001
0000
1000
0000
0001
0100
0010
1000
,  // measure 44
0100
0000
0010
0001
0000
0100
0000
0010
0100
0000
0001
0010
0001
0000
0100
0000
,  // measure 45
0010
1000
0100
0010
0001
0010
0100
0010
0100
0000
0010
0000
0100
0000
1000
0000
,  // measure 46
0001
0000
0100
0010
1000
0010
0100
0001
0010
0000
0001
0000
0100
0010
1000
0100
,  // measure 47
0010
0100
1000
0010
0000
0000
0100
0010
1000
0000
0001
0000
0010
0001
0100
0010
,  // measure 48
1000
0100
0010
0000
0100
0010
0001
0000
1000
0000
0100
0010
0100
0000
1000
0000
,  // measure 49
0010
0100
0010
1000
0000
0001
0010
0001
0100
0000
0010
0000
1000
0010
0100
0000
,  // measure 50
0010
0000
0100
0010
0100
0001
0010
0100
1000
0100
0010
0001
0010
0100
0010
0001
,  // measure 51
0100
0010
0100
0001
1000
0100
1000
0010
1000
0000
0001
0000
1000
0010
0100
0001
,  // measure 52
0010
0100
0010
0001
0100
0000
0010
0100
0001
1000
0100
0010
0001
0000
0100
0001
,  // measure 53
0010
0100
1000
0010
0100
0001
0100
0001
0100
0000
0001
0000
1000
0000
0010
0000
,  // measure 54
0100
0000
0001
0010
0000
0001
1000
0000
0010
0000
0100
0010
1000
0010
1000
0000
,  // measure 55
0001
0100
0001
1000
0100
0010
0200
0000
2000
0000
3300
0000
0001
0000
0100
0010
,  // measure 56
1000
0100
0010
0100
0000
0010
0100
1000
0100
1000
0000
0010
0100
0001
0010
0100
,  // measure 57
1000
0010
0100
0010
1000
0000
0001
0000
0100
0010
0000
0000
0101
0000
0101
0000
,  // measure 58
0100
0000
0010
1000
0000
0001
1000
0100
0010
0100
1000
0010
0110
0000
0110
0000
,  // measure 59
0100
0000
0001
1000
0000
0001
1000
0100
0010
0001
1000
0100
1100
0000
1100
0000
,  // measure 60
1000
0000
0100
0010
0000
0100
1000
0001
0010
0100
1000
0001
1001
0000
1001
0000
,  // measure 61
1000
0000
0100
0010
0000
0001
1000
0100
0010
0001
0010
0100
0220
0000
0000
0000
,  // measure 62
0330
0000
0000
0000
;

//---------------dance-single - ----------------
#NOTEDATA:;
#CHARTNAME:;
#STEPSTYPE:dance-single;
#DESCRIPTION:;
#CHARTSTYLE:;
#DIFFICULTY:Hard;
#METER:9;
#RADARVALUES:0.650946,0.666540,0.231552,0.066158,0.574746,551.000000,523.000000,28.000000,8.000000,0.000000,0.000000,0.000000,0.000000,0.000000,0.650946,0.666540,0.231552,0.066158,0.574746,551.000000,523.000000,28.000000,8.000000,0.000000,0.000000,0.000000,0.000000,0.000000;
#CREDIT:Darkstorm091;
#NOTES:
// measure 0
0000
0000
0000
0000
,  // measure 1
0000
0000
0000
0000
,  // measure 2
0000
0000
0000
0000
,  // measure 3
0000
0000
0000
0000
2002
3003
1000
0010
,  // measure 4
0100
0001
0000
0010
0000
0000
0100
0000
0000
0010
0001
0000
0100
0000
0010
0000
,  // measure 5
1000
0100
0000
1000
0000
0000
0010
0000
0000
0100
0001
0000
0100
0000
0001
0000
,  // measure 6
0010
0100
0000
0010
0000
0000
0001
0000
0000
0100
0010
0000
0100
0001
0000
1000
,  // measure 7
0000
0100
1000
0100
0000
0010
0001
0000
1000
0000
0000
0000
1010
0000
0010
0000
,  // measure 8
1000
0001
0000
0100
0000
0000
0010
0000
0000
0100
0001
0000
0010
0000
0100
0000
,  // measure 9
0010
0001
0000
0100
0000
0000
0010
0000
0000
0100
0001
0000
1000
0000
0100
0000
,  // measure 10
1000
0010
0000
0100
0000
0000
0001
0000
0000
0010
0100
0000
0010
0000
0001
0100
,  // measure 11
0000
0010
0100
0010
0000
0100
0001
0000
1000
0001
1000
0001
1000
0000
0010
0000
,  // measure 12
0100
0000
0001
0100
0000
0001
0100
0000
0010
0000
0000
0000
1000
0100
0000
1000
,  // measure 13
0010
0000
1000
0001
0000
1000
0010
0000
0100
0010
0100
0010
0100
0000
0001
0000
,  // measure 14
1000
0100
1000
0000
0010
0000
1000
0000
0001
0000
0100
0000
0010
0000
1000
0000
,  // measure 15
0100
0010
0100
0000
1000
0000
0010
0000
0100
0000
0010
0000
0100
0000
0001
0010
,  // measure 16
0001
0000
1000
0100
0000
1000
0000
0001
1000
0000
0001
0010
0001
0000
0100
0000
,  // measure 17
0010
1000
0010
0000
1000
0001
1000
0001
1000
0000
0001
0000
1000
0000
0010
0000
,  // measure 18
0100
0000
0001
0100
0001
0000
0100
0000
0010
0000
1000
0000
0100
1000
0100
0000
,  // measure 19
1000
0000
0010
0100
0000
0000
0001
0100
0001
0000
0010
0000
0001
0000
1000
0100
,  // measure 20
1000
0000
0010
0000
0100
0010
0100
0000
0001
0000
1000
0100
1000
0000
0100
0000
,  // measure 21
0010
0001
0010
0001
0000
1000
0100
0000
1000
0000
0100
0000
0010
0000
0010
0000
,  // measure 22
0100
0000
0010
0001
0000
0001
0100
0000
0010
0100
0010
0000
0100
0000
0100
0000
,  // measure 23
0001
0000
1000
0100
0000
0100
1000
0000
0010
1000
0010
0000
1000
0000
1000
0000
,  // measure 24
0001
0000
0100
0001
0000
0001
0010
0000
0100
0010
0100
0000
0010
0000
0010
0000
,  // measure 25
0001
0000
0100
0010
0000
0010
1000
0000
0100
1000
0100
0000
1000
0000
0010
0000
,  // measure 26
0100
0000
0000
0000
0000
0001
0100
0000
0010
0000
0000
0000
0100
0000
0001
0000
,  // measure 27
0010
0000
0000
0000
0000
0100
0010
0000
0001
0000
0000
0000
0100
0000
0010
0000
,  // measure 28
1000
0000
0000
0000
0000
0100
1000
0000
0010
0000
0000
0000
1000
0000
0001
0000
,  // measure 29
0100
0000
0000
0000
0000
0010
0100
0000
0001
0000
0000
0000
1000
0000
0010
0000
,  // measure 30
0100
0001
1000
0010
0100
0001
1000
0100
,  // measure 31
0010
0001
1000
0100
0010
0001
1000
0010
,  // measure 32
0100
0000
0001
0000
0010
0000
0100
0000
0010
0000
0001
0000
0100
0001
0000
0100
,  // measure 33
1000
0000
0100
0001
0000
0100
1000
0000
0100
0010
0100
0000
0101
0000
0000
0000
,  // measure 34
1010
0101
1010
1100
,  // measure 35
0011
1100
0011
0110
,  // measure 36
1001
0110
1001
0101
,  // measure 37
1100
0000
1010
0000
0011
0000
0001
0100
,  // measure 38
0010
1000
0100
0010
0100
1000
0010
0100
,  // measure 39
0001
0000
0010
0000
0001
0000
1000
0000
0010
0000
1000
0000
0001
1000
0001
1000
,  // measure 40
0001
1000
0001
1000
0001
1000
0001
1000
0001
1000
0001
1000
0001
0000
0000
0000
,  // measure 41
0100
0000
0010
1000
0000
1000
0010
0000
0220
0000
0330
0000
0100
0000
0001
0010
,  // measure 42
0001
0000
0010
0000
0100
1000
0010
0000
1000
0000
0001
0000
0100
0000
0010
0100
,  // measure 43
0001
0000
0010
0000
0100
0010
0100
0000
0010
0000
0001
0000
0100
0001
1000
0000
,  // measure 44
0010
0000
1000
0100
0000
1000
0000
0100
0010
0000
0001
0010
0001
0000
0100
0000
,  // measure 45
0010
0100
0001
0000
1000
0100
1000
0100
1000
0000
0100
0000
1000
0000
0010
0000
,  // measure 46
0100
0000
0001
0010
0100
0000
0010
0000
0001
0000
0100
0000
0010
0100
0010
0000
,  // measure 47
0100
0000
0001
1000
0000
0000
0100
1000
0100
0000
0010
0000
0001
0000
0100
0001
,  // measure 48
0010
0000
0100
0000
0010
0001
0010
0000
0100
0000
1000
0010
1000
0000
0010
0000
,  // measure 49
0100
0001
0100
0001
0000
0100
0010
0000
1000
0000
0100
0000
1000
0000
0010
0000
,  // measure 50
0100
0000
0001
0010
0001
0000
1000
0000
0010
0000
0100
0000
0001
0000
0010
0000
,  // measure 51
0100
0000
0010
0000
0001
0000
1000
0100
0010
0000
0100
0000
1000
0000
0001
0010
,  // measure 52
0100
0000
0010
0000
0001
0000
0100
0010
0100
0000
0001
0000
1000
0000
0100
1000
,  // measure 53
0010
0000
1000
0000
0001
0010
0001
0010
0001
0000
0010
0000
0001
0000
0100
0000
,  // measure 54
0010
0000
1000
0100
0000
1000
0010
0000
1000
0000
0001
0010
0001
0000
0100
0000
,  // measure 55
0001
0100
0001
0000
0100
0000
0020
0000
0200
0000
0330
0000
0010
0000
1000
0100
,  // measure 56
1000
0000
0001
0010
0000
0100
0010
0000
0001
0000
0000
1000
0100
0000
1000
0000
,  // measure 57
0001
0010
0001
0010
0100
0000
0010
0000
0001
0000
0000
0000
1001
0000
1001
0000
,  // measure 58
1000
0000
0010
1000
0000
0100
0010
0000
0001
0100
0010
0000
0110
0000
0110
0000
,  // measure 59
0100
0000
0001
0010
0000
0100
1000
0000
0010
1000
0001
0000
1001
0000
1001
0000
,  // measure 60
1000
0000
0010
0100
0000
0001
0010
0000
0100
1000
0010
0000
0110
0000
0110
0000
,  // measure 61
0100
0000
0001
1000
0000
0001
0010
0000
0100
0010
0001
0000
2002
0000
0000
0000
,  // measure 62
3003
0000
0000
0000
;

//---------------dance-single - ----------------
#NOTEDATA:;
#CHARTNAME:;
#STEPSTYPE:dance-single;
#DESCRIPTION:;
#CHARTSTYLE:;
#DIFFICULTY:Medium;
#METER:6;
#RADARVALUES:0.370956,0.461451,0.140585,0.057888,0.000000,314.000000,297.000000,17.000000,7.000000,0.000000,0.000000,0.000000,0.000000,0.000000,0.370956,0.461451,0.140585,0.057888,0.000000,314.000000,297.000000,17.000000,7.000000,0.000000,0.000000,0.000000,0.000000,0.000000;
#CREDIT:Darkstorm091;
#NOTES:
// measure 0
0000
0000
0000
0000
,  // measure 1
0000
0000
0000
0000
,  // measure 2
0000
0000
0000
0000
,  // measure 3
0000
0000
0000
0000
2002
3003
1000
0000
,  // measure 4
0010
0000
0000
0100
0001
0000
0100
0000
,  // measure 5
0001
0000
0000
0010
0100
0000
0010
0000
,  // measure 6
0001
0000
0000
1000
0010
0000
0100
0000
,  // measure 7
0001
0000
1000
0100
1000
0000
0001
0000
,  // measure 8
0100
0000
0000
0010
0100
0000
0001
0000
,  // measure 9
1000
0000
0000
0100
1000
0000
0010
0000
,  // measure 10
0100
0000
0000
0001
0010
0000
0100
0000
,  // measure 11
0010
0000
0001
0100
0001
0000
1000
0010
,  // measure 12
1000
0001
1000
0001
,  // measure 13
0100
0000
0001
0010
0001
0010
0100
0000
,  // measure 14
0010
0000
0100
1000
0100
0000
1000
0000
,  // measure 15
0001
0000
0100
0001
0100
0000
0001
0000
,  // measure 16
0100
0000
0010
1000
0010
0000
1000
0000
,  // measure 17
0100
0000
0010
0010
0010
0000
0100
0000
,  // measure 18
0010
0000
0001
1000
0001
0000
1000
0000
,  // measure 19
0010
0000
0100
0001
0100
0000
0001
0000
,  // measure 20
0010
0000
0100
1000
0100
0000
1000
0010
,  // measure 21
0000
0100
0010
0000
0100
0000
0010
0010
,  // measure 22
0010
0000
0100
0000
0001
0000
1000
1000
,  // measure 23
1000
0000
0001
0000
0100
0000
0010
0010
,  // measure 24
0010
0000
0100
0000
0001
0000
0100
0100
,  // measure 25
0100
0010
1000
0001
,  // measure 26
1000
0000
0000
0001
0100
0000
0010
0000
,  // measure 27
0100
0000
0000
0001
0010
0000
0100
0000
,  // measure 28
0010
0000
0000
0001
1000
0000
0010
0000
,  // measure 29
1000
0000
0000
0001
0100
0000
0001
0010
,  // measure 30
0001
0000
0010
0001
0010
0000
0100
1000
,  // measure 31
0100
0000
1000
0100
1000
0000
0001
1000
,  // measure 32
0001
0000
1000
0001
1000
0000
0010
0100
,  // measure 33
0010
0100
0010
0100
0010
0000
0110
0000
,  // measure 34
0110
0110
0110
1001
,  // measure 35
1001
1001
1001
1010
,  // measure 36
1010
1010
1010
0101
,  // measure 37
0101
0000
0101
0000
0101
0000
0001
0010
,  // measure 38
0001
0000
1000
0100
1000
0000
0001
1000
,  // measure 39
0001
0000
0100
0010
0100
0000
1000
0010
,  // measure 40
1000
0010
0100
0001
0100
0001
1000
0000
,  // measure 41
0001
0100
0000
0010
0200
0300
0010
0100
,  // measure 42
0001
0000
1000
0000
0001
0000
0100
0001
,  // measure 43
0010
0000
0100
0000
0010
0000
0001
0100
,  // measure 44
0010
0000
1000
0000
0001
0000
1000
0010
,  // measure 45
0100
0000
0001
0001
0001
0000
1000
0010
,  // measure 46
0100
0000
0010
0000
0100
0000
0001
0010
,  // measure 47
0100
0000
0010
0000
0001
0000
1000
0010
,  // measure 48
0100
0000
0010
0000
0100
0000
0001
1000
,  // measure 49
0000
0010
0100
0000
0001
0010
0001
0000
,  // measure 50
0100
0000
0010
0100
0001
1000
0100
0000
,  // measure 51
1000
0000
0010
0100
0001
0000
0100
0000
,  // measure 52
0001
0010
0100
0000
0010
0000
0001
0000
,  // measure 53
0100
0000
0010
0010
0010
0000
0100
0000
,  // measure 54
0001
0000
1000
0100
1000
0000
0010
0000
,  // measure 55
0100
0000
0001
0020
0200
0330
0010
0000
,  // measure 56
0001
1000
0010
0000
0100
0000
0001
0010
,  // measure 57
0100
0000
0010
0001
0100
0000
0010
0010
,  // measure 58
0010
0000
0100
0000
0001
1000
0100
0100
,  // measure 59
0100
0000
1000
0000
0010
0100
0001
0001
,  // measure 60
0001
0000
0010
0000
0100
1000
0010
0010
,  // measure 61
0010
0000
1000
0000
0001
0200
0020
0000
,  // measure 62
0330
0000
0000
0000
;

//---------------dance-single - ----------------
#NOTEDATA:;
#CHARTNAME:;
#STEPSTYPE:dance-single;
#DESCRIPTION:;
#CHARTSTYLE:;
#DIFFICULTY:Beginner;
#METER:2;
#RADARVALUES:0.100418,0.153197,0.049618,0.000000,0.000000,85.000000,79.000000,6.000000,0.000000,0.000000,0.000000,0.000000,0.000000,0.000000,0.100418,0.153197,0.049618,0.000000,0.000000,85.000000,79.000000,6.000000,0.000000,0.000000,0.000000,0.000000,0.000000,0.000000;
#CREDIT:Darkstorm091;
#NOTES:
// measure 0
0000
0000
0000
0000
,  // measure 1
0000
0000
0000
0000
,  // measure 2
0000
0000
0000
0000
,  // measure 3
0000
0000
0000
1000
,  // measure 4
0000
0000
0000
0001
,  // measure 5
0000
0000
0000
1000
,  // measure 6
0000
0000
0000
0001
,  // measure 7
0000
0000
1000
0010
,  // measure 8
0000
0000
0000
0100
,  // measure 9
0000
0000
0000
0010
,  // measure 10
0000
0000
0000
0100
,  // measure 11
0000
0000
0010
1000
,  // measure 12
0000
1000
0000
0001
,  // measure 13
0000
0001
0000
0100
,  // measure 14
0000
0000
0000
0010
,  // measure 15
0000
0000
0000
1000
,  // measure 16
0000
0000
0000
0001
,  // measure 17
0000
1000
0000
0010
,  // measure 18
0000
0000
0000
0100
,  // measure 19
0000
0000
0000
0001
,  // measure 20
0000
0000
0000
1000
,  // measure 21
0000
0000
0000
0010
,  // measure 22
0010
0000
0000
0100
,  // measure 23
0100
0000
0000
0001
,  // measure 24
0001
0000
0000
1000
,  // measure 25
1000
0000
0000
0010
,  // measure 26
0000
0000
0000
0000
,  // measure 27
0000
0000
0000
0000
,  // measure 28
0000
0000
0000
0000
,  // measure 29
0000
0000
0000
1000
,  // measure 30
0000
1000
0000
0100
,  // measure 31
0000
0100
0000
0010
,  // measure 32
0000
0010
0000
0001
,  // measure 33
0000
0001
0000
1001
,  // measure 34
0000
0000
0000
1001
,  // measure 35
0000
0000
0000
1001
,  // measure 36
0000
0000
0000
1001
,  // measure 37
0000
0000
0000
1000
,  // measure 38
0000
1000
0000
0100
,  // measure 39
0000
0100
0000
0010
,  // measure 40
0000
0010
0000
0001
,  // measure 41
0000
0000
1001
1000
,  // measure 42
0000
0000
0000
0010
,  // measure 43
0000
0000
0000
0100
,  // measure 44
0000
0000
0000
0001
,  // measure 45
0000
1000
0000
0010
,  // measure 46
0000
0000
0000
0100
,  // measure 47
0000
0000
0000
0001
,  // measure 48
0000
0000
0000
0010
,  // measure 49
0000
0000
0000
0100
,  // measure 50
0000
0000
0000
0010
,  // measure 51
0000
0000
0000
0001
,  // measure 52
0000
0000
0000
1000
,  // measure 53
0000
0010
0000
0100
,  // measure 54
0000
0000
0000
0010
,  // measure 55
0000
0000
0000
0100
,  // measure 56
0000
0000
0000
0001
,  // measure 57
0000
0000
0000
1000
,  // measure 58
1000
0000
0000
0010
,  // measure 59
0010
0000
0000
0100
,  // measure 60
0100
0000
0000
0001
,  // measure 61
0001
0000
0000
1001
;

//---------------dance-single - ----------------
#NOTEDATA:;
#CHARTNAME:;
#STEPSTYPE:dance-single;
#DESCRIPTION:;
#CHARTSTYLE:;
#DIFFICULTY:Easy;
#METER:4;
#RADARVALUES:0.244548,0.461451,0.190204,0.057888,0.000000,207.000000,184.000000,23.000000,7.000000,0.000000,0.000000,0.000000,0.000000,0.000000,0.244548,0.461451,0.190204,0.057888,0.000000,207.000000,184.000000,23.000000,7.000000,0.000000,0.000000,0.000000,0.000000,0.000000;
#CREDIT:Darkstorm091;
#NOTES:
// measure 0
0000
0000
0000
0000
,  // measure 1
0000
0000
0000
0000
,  // measure 2
0000
0000
0000
0000
,  // measure 3
0000
0000
0000
0000
1002
0003
1000
0000
,  // measure 4
1000
0000
0010
0100
,  // measure 5
0100
0000
0001
0010
,  // measure 6
0010
0000
0100
0010
,  // measure 7
0000
0001
1000
0010
,  // measure 8
0010
0000
0100
0001
,  // measure 9
0001
0000
1000
0100
,  // measure 10
0100
0000
1000
0010
,  // measure 11
0000
0100
0001
1000
,  // measure 12
0000
0001
0000
1000
,  // measure 13
0100
0010
0001
1000
,  // measure 14
0010
0000
0100
0001
,  // measure 15
0010
0000
0100
0010
,  // measure 16
0001
0000
1000
0001
,  // measure 17
0000
0200
0300
0010
,  // measure 18
0100
0000
0001
1000
,  // measure 19
0100
0000
1000
0010
,  // measure 20
0100
0000
0001
0010
,  // measure 21
0100
0000
0010
0001
,  // measure 22
0000
1000
0000
0010
,  // measure 23
0000
0100
0000
0001
,  // measure 24
0000
1000
0000
0100
,  // measure 25
0000
1000
0000
0010
,  // measure 26
0000
0000
0100
0001
,  // measure 27
0000
0000
1000
0100
,  // measure 28
0000
0000
1000
0010
,  // measure 29
0000
0000
0100
0001
,  // measure 30
0001
0001
0001
1000
,  // measure 31
1000
1000
1000
0001
,  // measure 32
0001
1000
1000
0001
,  // measure 33
0010
0100
1000
1001
,  // measure 34
1001
1001
1001
0110
,  // measure 35
0110
0110
0110
1001
,  // measure 36
1001
1001
1001
0110
,  // measure 37
0110
0110
0110
0010
,  // measure 38
0010
0100
0100
0010
,  // measure 39
0010
0100
0100
0010
,  // measure 40
0100
0001
1000
0100
,  // measure 41
0000
0000
0000
0000
1002
0003
0001
0000
,  // measure 42
1000
0000
0010
0100
,  // measure 43
0001
0000
0010
0100
,  // measure 44
0010
0000
0001
1000
,  // measure 45
0010
0000
1000
0001
,  // measure 46
0100
0000
0010
0100
,  // measure 47
0001
0000
1000
0100
,  // measure 48
1000
0000
0001
0100
,  // measure 49
0010
0000
0100
0001
,  // measure 50
0100
0001
0100
0010
,  // measure 51
1000
0010
1000
0100
,  // measure 52
1000
0100
1000
0001
,  // measure 53
0010
0002
0003
1000
,  // measure 54
0100
1000
0100
1000
,  // measure 55
0010
1000
0020
0130
,  // measure 56
0001
0100
0001
0100
,  // measure 57
0010
0100
0010
0110
,  // measure 58
0000
0100
0001
1001
,  // measure 59
0000
1000
0100
0110
,  // measure 60
0000
0010
0001
0101
,  // measure 61
0000
0100
0001
2002
,  // measure 62
3003
0000
0000
0000
;
