#TITLE:Horizon;
#SUBTITLE:;
#ARTIST:Sanxion7;
#TITLETRANSLIT:;
#SUBTITLETRANSLIT:;
#ARTISTTRANSLIT:;
#GENRE:;
#CREDIT:;
#BANNER:;
#BACKGROUND:;
#LYRICSPATH:;
#CDTITLE:;
#MUSIC:Horizon.ogg;
#OFFSET:-1.417;
#SAMPLESTART:17.131;
#SAMPLELENGTH:12.000;
#SELECTABLE:YES;
#DISPLAYBPM:126.000;
#BPMS:0.000=126.000;
#STOPS:;
#TIMESIGNATURES:0.000=4=4
;
#BGCHANGES:;
#KEYSOUNDS:;

//---------------dance-single - ----------------
#NOTES:
     dance-single:
     :
     Challenge:
     10:
     0.667,0.658,0.597,0.135,0.581,495.000,75.000,17.000,9.000,0.000,0.000,0.667,0.658,0.597,0.135,0.581,495.000,75.000,17.000,9.000,0.000,0.000: // measure 1
0000
0000
0000
0000
,  // measure 2
0000
0000
0000
0000
0000
0000
0000
0000
0000
0000
0000
0000
M000
0M00
00M0
0M00
,  // measure 3
M000
000M
0M00
0000
0000
0000
0000
0000
,  // measure 4
0000
0000
0000
0000
,  // measure 5
1001
0000
0101
0000
0100
0010
1000
0010
0100
0000
0001
0000
1000
0000
0000
0100
,  // measure 6
0000
0000
1000
0000
0010
0000
0010
0000
0000
0000
0100
0000
0001
0010
0001
0010
,  // measure 7
0001
0000
1000
0000
0010
0100
0010
1000
0100
0000
0010
0000
0100
0000
1000
0000
,  // measure 8
0001
0000
0000
0100
0000
0000
0002
0000
0000
0000
1003
0000
1010
0000
1001
0000
1100
0000
0011
0000
1001
0000
0101
0000
,  // measure 9
0110
0000
1010
0000
1000
0001
0010
0100
1000
0000
0001
0000
0100
0000
0010
0000
,  // measure 10
1010
0000
1000
0000
0001
0000
0100
0010
1000
0000
0100
0010
0001
0000
1000
0000
,  // measure 11
1010
0000
0010
0000
0100
0010
1000
0100
0010
0000
0001
0000
1000
0000
0100
0000
,  // measure 12
1100
0000
1000
0000
0001
0000
0010
0100
1000
0000
0010
0100
0002
0000
0000
0000
,  // measure 13
1000
0000
1003
0000
0001
1000
0010
1000
0100
0000
0010
0000
0001
0000
1000
0010
,  // measure 14
0100
0000
0010
0000
1000
0000
0010
1000
0001
0010
0100
0010
0001
0000
1000
0000
,  // measure 15
1010
0000
0010
0000
0100
0001
0010
0001
1000
0000
0100
0000
0010
0000
0100
1000
,  // measure 16
0001
0000
0100
0000
0010
0000
1000
0001
0010
0000
0010
0000
0100
0000
0100
0000
,  // measure 17
1100
0000
1001
0000
0001
1000
0100
0010
0001
0000
1000
0000
0010
0000
0100
0000
,  // measure 18
0101
0000
0001
0000
1000
0000
0010
0100
0001
0000
0010
0100
1000
0000
0001
0000
,  // measure 19
0101
0000
0100
0000
0010
0100
0001
0010
0100
0000
1000
0000
0001
0000
0010
0000
,  // measure 20
0011
0000
0001
0000
1000
0000
0100
0010
0001
0000
0100
0010
2000
0000
0000
0000
,  // measure 21
0001
0000
3001
0000
1000
0001
0100
0001
0010
0000
0100
0000
1000
0000
0001
0100
,  // measure 22
0010
0000
0100
0000
0001
0000
0100
0001
1000
0100
0010
0100
1000
0000
0001
0000
,  // measure 23
0101
0000
0100
0000
0010
1000
0100
1000
0001
0000
0010
0000
0100
0000
0010
0001
,  // measure 24
1000
0000
0010
0000
0100
0000
0001
1000
0100
0000
0100
0000
0010
0000
0010
0000
,  // measure 25
0011
0000
1001
0000
1000
0010
0100
0001
1000
0000
0100
0000
1100
0000
0000
1001
,  // measure 26
0000
0000
0011
0000
1001
0000
0101
0000
0000
0110
0000
0000
1010
0000
0000
1001
,  // measure 27
0000
0000
1100
0000
0110
0000
0000
0000
0011
0000
0000
1001
0000
0000
0101
0000
,  // measure 28
0000
0110
0000
0000
0101
0000
1001
0000
0000
1100
0000
0000
0110
0000
0000
1100
,  // measure 29
0000
0000
1001
0000
0001
0100
0010
1000
0001
0000
0010
0000
0011
0000
0000
1001
,  // measure 30
0000
0000
1100
0000
1001
0000
1010
0000
0000
0110
0000
0000
0101
0000
0000
1001
,  // measure 31
0000
0000
0011
0000
0010
0100
1000
0100
0010
0000
0001
0000
1000
0000
1010
0000
,  // measure 32
0000
0120
0000
0000
0100
0000
0100
0000
0000
0100
0000
0000
0100
0000
0000
0130
,  // measure 33
0000
0000
0110
0000
0100
0010
1000
0001
1000
0000
0100
0000
0010
0000
0010
0000
,  // measure 34
0001
0000
0001
0000
0100
0000
0010
0100
0001
0000
0010
0100
1000
0000
0001
0000
,  // measure 35
0100
0000
M010
0000
M100
0001
1000
0100
0010
0000
0001
0000
0100
0000
0100
0000
,  // measure 36
0010
0000
0000
0010
0000
0000
1000
0000
0000
0000
0100
0000
1100
0000
1001
0000
1010
0000
0101
0000
1001
0000
0011
0000
,  // measure 37
0110
0000
1100
0000
1000
0001
0010
0001
0100
0000
0010
0000
1000
0000
0001
0010
,  // measure 38
0100
0000
0010
0000
0001
0000
0010
0001
1000
0010
0100
0010
1000
0000
0001
0000
,  // measure 39
0011
0000
0010
0000
0100
1000
0010
1000
0001
0000
0100
0000
0010
0000
0100
0001
,  // measure 40
1000
0000
0100
0000
0010
0000
0001
1000
0010
0000
0010
0000
0100
0000
0100
0000
,  // measure 41
0101
0000
1001
0000
1000
0001
0100
0010
1000
0000
0001
0000
0010
0000
0100
0000
,  // measure 42
1100
0000
1000
0000
0001
0000
0010
0100
1000
0000
0010
0100
0001
0000
1000
0000
,  // measure 43
1100
0000
0100
0000
0010
0100
1000
0010
0100
0000
0001
0000
1000
0000
0010
0000
,  // measure 44
1010
0000
1000
0000
0001
0000
0100
0010
1000
0000
0100
0010
0002
0000
0000
0000
,  // measure 45
1000
0000
1003
0000
0001
1000
0100
1000
0010
0000
0100
0000
0001
0000
1000
0100
,  // measure 46
0010
0000
0100
0000
1000
0000
0100
1000
0001
0100
0010
0100
0001
0000
1000
0000
,  // measure 47
1100
0000
0100
0000
0010
0001
0100
0001
1000
0000
0010
0000
0100
0000
0010
1000
,  // measure 48
0001
0000
0010
0000
0100
0000
1000
0001
0100
0000
0100
0000
0010
0000
0010
0000
,  // measure 49
1010
0000
1001
0000
1000
0100
0000
1000
0000
0100
2000
0000
0000
0000
3001
0000
,  // measure 50
0100
0001
0000
1000
0001
1000
0000
0100
0000
0010
0200
0000
0000
0000
1300
0000
,  // measure 51
0001
0100
0000
0010
0100
0001
0000
1000
0000
0100
0020
0000
0000
0000
0130
0000
,  // measure 52
1000
0001
0000
0010
0001
1000
0000
0001
0000
0100
0020
0000
0000
0000
0130
0000
,  // measure 53
0001
0100
0000
0001
1000
0100
0000
0010
0000
0001
2000
0000
0000
0000
3010
0000
,  // measure 54
1000
0001
0000
0100
0001
1000
0000
0100
0000
0010
0002
0000
0000
0000
1003
0000
,  // measure 55
0001
0100
0000
0010
0100
0001
0000
1000
0000
0100
0020
0000
0000
0000
0130
0000
,  // measure 56
1000
0001
0000
0010
0001
1000
0000
0010
0000
0100
0020
0000
0000
0000
0130
0000
,  // measure 57
0010
1010
0220
0000
0000
0000
0000
0000
,  // measure 58
0000
0000
0000
0000
,  // measure 59
0000
0000
0000
0000
,  // measure 60
0000
0000
0000
0000
,  // measure 61
0330
1010
2200
0000
0000
0000
0000
0000
,  // measure 62
0000
3300
0000
0000
;
