#TITLE:Welcome to the Show (Music in Me);
#SUBTITLE:;
#ARTIST:♪♪♪♪♪;
#TITLETRANSLIT:;
#SUBTITLETRANSLIT:;
#ARTISTTRANSLIT:;
#GENRE:My Little Pony;
#CREDIT:;
#BANNER:;
#BACKGROUND:;
#LYRICSPATH:;
#CDTITLE:;
#MUSIC:Welcome to the Show (Music in Me).mp3;
#OFFSET:-0.080998;
#SAMPLESTART:68.349998;
#SAMPLELENGTH:15.000000;
#SELECTABLE:YES;
#BPMS:0.000000=94.000000
,122.000000=40.341000
,123.000000=95.000000
,124.000000=100.000000
,203.000000=95.000000
;
#STOPS:
;
#BGCHANGES:;
#KEYSOUNDS:;
#ATTACKS:;

//---------------dance-single - ----------------
#NOTES:
     dance-single:
     :
     Easy:
     3:
     0.173897,0.197633,0.090946,0.209875,0.000000,174.000000,161.000000,13.000000,30.000000,0.000000,0.000000,0.173897,0.197633,0.090946,0.209875,0.000000,174.000000,161.000000,13.000000,30.000000,0.000000,0.000000:
0000
0000
0000
0000
,
0000
0000
0000
0000
,
0000
0000
0000
0000
,
0000
0000
0000
2010
,
0000
3002
0000
0203
,
0000
0000
0300
0010
0000
2010
0000
0000
,
0000
3200
0000
0000
0000
0320
0000
0000
,
0000
0030
0000
0000
0001
0000
0001
0000
,
2000
0000
0010
3001
,
0000
0000
0000
1000
0000
1000
0000
0002
,
0000
0000
0000
0010
0000
1003
0000
0000
,
0000
0001
0001
2000
,
0000
0100
3001
0000
,
0000
1000
0000
1000
0000
0002
0000
0000
,
0000
0100
0000
1003
0000
0000
0000
0000
,
0001
1000
0001
1000
,
0100
0000
0010
0000
0100
0000
0000
1000
,
0000
0001
0000
1000
0000
0001
0000
0100
,
0000
0010
0000
0100
0000
0000
0102
0000
,
0000
1003
0000
0000
0001
0000
2001
0000
,
0000
3010
0000
0000
1000
0000
1200
0000
,
0000
0310
0000
0000
0100
0000
0220
0000
,
0000
0000
0330
0010
,
0001
0010
0001
1000
,
0010
1000
0010
0100
,
0001
0100
0001
1000
,
0100
1000
0100
0010
,
0010
0001
1000
0010
,
0010
1000
0001
0100
,
0001
0010
0100
2000
,
0000
3001
0000
1000
,
1000
1000
0000
0001
,
0001
0001
0000
0010
,
0010
0010
0000
0100
,
0100
0100
0000
1000
,
0100
0001
0000
0100
,
1000
0001
0000
0001
,
0100
1000
0000
0100
,
0001
1000
0000
1000
,
0010
0001
0000
0010
,
1000
0001
0000
0001
,
0010
1000
0000
0010
,
0001
1000
0000
0010
,
0110
0100
0100
0002
,
0000
1003
0001
0010
,
0110
0010
0010
0002
,
0000
1003
0001
0200
,
0000
0302
0000
0000
1003
0000
0002
0000
,
0000
0023
0000
0000
0130
0000
0200
0000
,
0000
2300
0000
0000
3010
0000
1000
0000
,
1000
0001
0001
0010
,
0010
0100
1000
1002
,
0000
0103
0000
0000
0001
0000
2001
0000
,
0000
3100
0000
0000
1000
0000
1020
0000
,
0000
0130
0000
0000
0010
0000
0210
0000
,
0000
0001
0301
0202
,
0000
0000
0303
0000
;

//---------------dance-single - ----------------
#NOTES:
     dance-single:
     :
     Hard:
     9:
     0.612636,0.652188,0.650614,0.195884,0.552672,613.000000,520.000000,93.000000,28.000000,0.000000,0.000000,0.612636,0.652188,0.650614,0.195884,0.552672,613.000000,520.000000,93.000000,28.000000,0.000000,0.000000:
0000
0000
0000
0000
,
0000
0000
0000
0000
,
0000
0000
0000
0000
,
0000
0000
0000
0000
0000
0000
1010
0100
,
0001
0000
0101
0000
0001
0000
1000
0100
1000
0000
0010
0000
0100
0000
0001
0100
,
0010
1000
0001
0000
0010
0000
0100
0000
1000
0000
1001
0000
0001
0000
0100
0000
,
0110
0000
0010
0000
1000
0010
1000
0000
0001
0000
1000
0000
0001
0010
0100
1000
,
0001
0000
0000
0000
0100
0000
0010
0000
1000
0000
0001
0000
0010
0000
0100
1000
0010
0000
0000
0000
0100
0000
0001
0000
0100
0000
0001
0000
1000
0000
0000
0000
,
0010
0000
0100
0001
1000
0000
0100
0000
0010
0000
0011
0000
0010
0000
0100
1000
,
0010
0000
0100
0000
0001
0000
1000
0000
0001
0000
0010
0001
0010
0000
0000
0000
0100
0000
0000
0000
1100
0000
0000
0000
1001
0000
0000
0000
0101
0000
0000
0000
,
0001
0100
0010
1000
0002
0000
0000
0000
0010
0000
1000
0000
0103
0001
0010
0001
,
0100
0000
0000
0000
0010
0000
0100
0010
0100
0000
0000
0000
0001
0000
0000
0000
0100
0000
0001
0000
1000
0000
0000
0000
0100
0000
1000
0000
0010
0000
0100
0000
,
0001
1000
0100
0000
0001
0000
0100
1000
0010
0001
0010
0000
0100
0100
0001
0100
,
0010
0000
1000
0001
1000
0000
0000
0000
0100
0000
0000
0000
0110
0000
0000
0000
0011
0000
0000
0000
1001
0000
0000
0000
1000
0000
0010
0000
0100
0000
0001
0000
,
1000
0000
0100
0000
0010
0100
1000
0010
0200
0000
0301
0100
0110
0100
0001
0000
,
1001
0000
1100
0000
1001
0000
1001
0000
0011
0000
1000
0100
0110
0000
0011
0000
,
0110
0000
0110
0000
1010
0000
0110
0000
1100
0000
1000
0001
0000
0001
1001
0000
,
1010
0000
1001
0000
1001
0000
0101
0000
0001
0100
0110
0000
1010
0000
0010
0100
,
0010
0000
0011
0000
0010
0100
0001
1000
1001
1000
0100
0000
0110
0000
0010
0000
,
0001
0000
0011
0000
0001
0000
1000
0010
1000
0000
0010
0000
0110
0000
0100
0000
,
0001
0000
1001
0000
1000
0000
0100
0010
0100
0000
1000
0000
1001
0000
0001
0000
,
0100
0000
0101
0000
0100
0000
0010
1000
0010
0000
1000
0000
0001
0010
0001
0010
,
0100
1000
0100
1000
0002
0000
0103
0000
0200
0000
0310
0000
0120
0000
0030
0000
,
2010
0000
0000
0000
3001
1000
0100
0010
0001
0000
0000
0000
1001
0000
0001
0100
,
0101
0000
0110
0000
0010
1000
0001
0010
0100
0000
0010
0000
0120
0000
0130
0100
,
0010
0001
0001
0000
1000
0001
0010
0100
1000
0000
0000
0000
1001
0000
0001
0000
,
0101
0000
0100
0000
0001
0100
0010
1000
0001
0000
0010
0000
0210
0000
0300
0000
,
2100
0000
3100
0100
1000
0100
0010
0001
1000
0000
0001
0000
2001
0000
3000
0000
,
1020
0000
0030
0000
0100
0010
1000
0001
0010
0000
0100
0000
1100
0000
0100
0000
,
0110
0000
0010
0000
0010
0001
1000
0010
0110
0000
0000
0000
1020
0000
0000
0130
,
0010
0000
0100
0000
0001
0100
0010
1000
0001
0000
0000
0000
1001
0000
1001
0000
,
1000
0000
1200
0000
0000
0000
0010
0000
1300
0100
1000
0100
0010
0000
0100
0000
,
0100
0000
1000
0000
0001
1000
0010
0100
0000
0010
0100
0001
1001
0000
1001
0000
,
0001
0000
0201
0000
0000
0000
0010
0000
0301
0100
0001
0100
0010
0000
1000
0001
,
0010
0001
2000
0000
0000
3000
0100
1000
0010
0100
0001
0000
1000
0000
0100
1000
,
0100
0000
0010
0100
0000
0100
0000
1000
0010
0000
0100
0000
0001
0100
0001
0100
,
0000
0010
1000
0001
0010
0100
0010
0100
1000
0001
0000
0001
0100
0000
0001
0100
,
0001
0000
0010
0100
0000
0100
0000
1000
0000
0001
0000
0000
0001
0100
0001
1000
,
0010
1000
0000
0001
0010
0001
0010
0100
1000
1000
0100
1000
0010
0000
0100
0000
,
0010
0100
0000
0101
0000
1010
0000
0101
0000
0000
0001
1000
0100
0000
0010
0000
,
0100
0010
0000
0011
0000
1100
0000
0011
0000
0000
0001
1000
0000
1010
0000
0000
,
0010
0000
0100
0001
0000
1001
0000
0000
0001
1000
0100
0010
0100
1000
0000
0010
,
0000
0100
0000
0001
2000
0000
0000
0000
3010
1000
0010
0000
0110
0000
0000
0000
,
1001
0000
0001
0010
0100
0000
1000
0000
0001
0000
2001
0000
0010
0000
3010
1000
,
0000
1000
0001
0000
0001
0010
0000
0001
0010
0100
1000
0000
1001
0000
0000
0000
,
0110
0000
0100
0010
1000
0000
0001
0000
0010
0000
0120
0000
0031
0000
0010
0001
,
0000
0010
0100
0000
1000
0010
0000
0100
0010
0000
1000
0001
0020
0000
0000
0000
,
0032
0000
0203
0000
1000
0000
0300
0000
0010
0000
0100
0010
2000
0000
0000
0000
,
3001
0002
0100
0003
0011
0100
1000
0000
,
1010
0000
0100
0000
0001
1000
0000
1000
0100
0000
0010
0000
0100
0010
0000
0100
,
0010
0000
0000
0000
0001
0000
0000
0000
1000
0000
0001
0000
1000
0000
0001
0000
1000
0000
1000
0000
0100
0000
0100
1000
0100
0000
0000
0000
0010
0000
0000
0000
,
0100
1000
0001
0000
0100
0000
0001
1000
0010
0000
0110
0000
0101
0000
0100
0000
,
0010
0000
1010
0000
0010
0000
0021
0000
0100
0000
1030
0000
1010
0000
0010
1000
,
0100
0101
0100
0120
1000
0031
0011
0001
,
0100
1100
0100
0120
1000
0031
0011
0010
,
1010
1000
1100
0101
1100
0000
2002
0000
,
0000
0000
3003
0000
;

//---------------dance-single - ----------------
#NOTES:
     dance-single:
     :
     Medium:
     6:
     0.314813,0.331516,0.153909,0.342796,0.108436,315.000000,293.000000,22.000000,49.000000,0.000000,0.000000,0.314813,0.331516,0.153909,0.342796,0.108436,315.000000,293.000000,22.000000,49.000000,0.000000,0.000000:
0000
0000
0000
0000
,
0000
0000
0000
0000
,
0000
0000
0000
0000
,
0000
0000
0000
0000
0000
0000
0000
0020
,
0000
2030
0000
3002
0000
0023
0000
0000
,
0230
0000
1300
0100
0010
0001
2000
0000
,
3020
0000
0230
0000
0302
0000
0000
2003
,
0000
3200
0000
0310
0100
0100
1000
0001
,
0100
0000
0001
2000
0000
3020
0230
0000
,
0302
0000
1003
0001
0001
0010
0001
0100
,
0000
0010
2000
0000
3002
0023
0000
0230
,
0000
1300
0100
0100
0010
0100
1000
0000
,
0010
2000
0000
3002
0203
0000
0320
0000
,
1030
0010
0010
0100
0001
1000
0000
0100
,
2000
0000
0000
3020
0000
0000
0230
0000
,
0301
0100
0000
0001
0100
0001
1000
0100
,
1000
0100
0010
0100
0010
0100
0000
1000
,
0100
0000
1000
0001
0100
0001
0100
0010
,
0100
0010
1000
0001
0010
0000
0110
0100
,
1000
0001
0200
0000
0320
0000
1030
1000
,
0010
1000
0002
0000
0023
0000
0130
0100
,
0010
0100
2000
0000
3002
0000
0103
0100
,
0001
0100
0010
1000
0001
0000
1001
0000
,
1001
0000
0001
0010
0100
0000
0110
0000
,
0100
0010
0100
0010
0001
0000
1001
0000
,
1001
0000
1000
0010
0100
0000
0010
0100
,
0010
0100
0010
1000
0001
0000
1001
0000
,
1001
0000
0001
1000
0100
0000
1100
0000
,
1100
0000
1000
0001
0100
0000
0001
0001
,
0010
0110
1100
2002
,
0000
3003
2002
0000
3003
0000
0000
0002
,
0000
2003
0000
3010
1000
0010
0000
0100
,
0010
0000
0100
0000
0001
0000
0000
0001
0000
0000
0001
0000
0000
0000
2000
0000
,
0000
3200
0000
0310
0100
0010
0000
0001
,
0010
0200
0000
1300
0100
0010
0001
0000
,
1000
0000
0000
0010
0000
0010
0000
0010
0000
0000
0000
0000
1000
0000
0000
0100
,
0000
0100
0000
0100
0000
0000
0000
0000
0010
0000
0000
0000
0001
0000
0100
0000
,
0001
0000
0000
0010
0000
0010
0000
0100
0000
0100
0000
0000
1000
0000
0000
0010
,
0000
0010
0000
0010
0000
0000
0000
0000
0100
0000
0001
0000
1000
0000
0010
0000
,
1000
0000
0000
0001
0000
0001
0000
0001
0000
0000
0000
0000
0010
0000
0100
0000
,
0010
0000
0000
0100
0000
0100
0000
0010
0000
0000
0000
0010
0000
0100
0000
0000
,
1000
0000
0000
0001
0000
1000
0000
0000
0000
0010
0000
1000
0000
0010
0000
0100
,
0000
0001
0000
1000
0000
0000
0000
0000
0001
0000
0010
0000
0110
0000
0000
0000
,
1001
0000
0001
0010
0100
2000
0000
0000
,
0010
0000
0001
0000
0100
0100
3100
0000
,
0011
0000
0001
1000
0010
0200
0000
0000
,
0001
0000
0001
0000
0301
0000
0000
0000
0100
0000
0000
0010
0200
0000
0000
0000
,
0000
0302
0000
1003
0001
0000
0020
0000
,
0000
0032
0000
1003
0001
0100
0000
0001
,
0100
0010
0000
0100
0010
1000
0002
0000
,
2003
0000
3001
0001
1000
1000
0100
0010
,
0100
0000
1000
0001
1000
0000
0001
0100
,
0010
1000
0001
0000
1001
0000
1000
0100
,
0010
0001
1000
0000
1001
0000
0001
0001
,
0010
0001
0100
0000
0110
0000
0010
0010
,
1000
0100
0010
0100
0110
0000
1001
0000
;

//---------------dance-single - ----------------
#NOTES:
     dance-single:
     :
     Beginner:
     1:
     0.051969,0.099254,0.048971,0.055967,0.000000,52.000000,45.000000,7.000000,8.000000,0.000000,0.000000,0.051969,0.099254,0.048971,0.055967,0.000000,52.000000,45.000000,7.000000,8.000000,0.000000,0.000000:
// measure 0
0000
0000
0000
0000
,  // measure 1
0000
0000
0000
0000
,  // measure 2
0000
0000
0000
0000
,  // measure 3
0000
0000
0000
1000
,  // measure 4
0000
0000
0000
0000
,  // measure 5
0000
0000
0000
0000
0000
0001
0000
0000
,  // measure 6
0000
0000
0000
0000
,  // measure 7
0000
0000
1000
0000
,  // measure 8
0000
0000
0000
0000
,  // measure 9
0000
0000
0000
1000
0000
0000
0000
0000
,  // measure 10
0000
0000
0000
0000
,  // measure 11
0000
0001
0000
0000
,  // measure 12
0000
0000
0000
0000
,  // measure 13
0000
0001
0000
0000
0000
0000
0000
0000
,  // measure 14
0000
0000
0000
0000
,  // measure 15
0100
0000
0000
0000
,  // measure 16
0000
0000
0000
0000
0000
0000
0000
0100
,  // measure 17
0000
0000
0000
0000
,  // measure 18
0000
0000
0000
0010
,  // measure 19
0000
0000
0000
0010
,  // measure 20
0000
0000
0000
1000
,  // measure 21
0000
0000
0000
1000
,  // measure 22
0000
0000
0000
0001
,  // measure 23
0000
0000
0000
0001
,  // measure 24
0000
0000
0000
0010
,  // measure 25
0000
0000
0000
0010
,  // measure 26
0000
0000
0000
0100
,  // measure 27
0000
0000
0000
0100
,  // measure 28
0000
0000
0000
1000
,  // measure 29
0000
0000
0000
1000
,  // measure 30
0000
0000
0000
0000
,  // measure 31
0000
0000
0000
1001
,  // measure 32
0000
0000
0000
0010
,  // measure 33
0000
0000
0000
1001
,  // measure 34
0000
0000
0000
1000
,  // measure 35
0000
0000
0000
1000
,  // measure 36
0000
0000
0000
0001
,  // measure 37
0000
0000
0000
0001
,  // measure 38
0000
0000
0000
0010
,  // measure 39
0000
0000
0000
0010
,  // measure 40
0000
0000
0000
0100
,  // measure 41
0000
0000
0000
0100
,  // measure 42
0000
0000
0000
0000
,  // measure 43
0110
0000
0000
0200
,  // measure 44
0000
0000
0300
0000
,  // measure 45
0110
0000
0000
0020
,  // measure 46
0000
0000
0030
0002
,  // measure 47
0000
0000
0000
2003
,  // measure 48
0000
0000
0000
3002
,  // measure 49
0000
0000
0000
2003
,  // measure 50
0000
0000
0000
3001
,  // measure 51
0000
0000
0000
1001
,  // measure 52
0000
0000
0000
0010
,  // measure 53
0000
0000
0000
1001
,  // measure 54
0000
0000
0000
0100
,  // measure 55
0000
0000
0000
2002
,  // measure 56
0000
0000
0000
3003
;
