#TITLE:The Other Side (radio mix);
#SUBTITLE:;
#ARTIST:Paul van Dyk feat. Wayne Jackson;
#TITLETRANSLIT:;
#SUBTITLETRANSLIT:;
#ARTISTTRANSLIT:;
#GENRE:;
#CREDIT:;
#BANNER:;
#BACKGROUND:;
#LYRICSPATH:;
#CDTITLE:;
#MUSIC:The Other Side (radio mix).mp3;
#OFFSET:-1.755;
#SAMPLESTART:72.029;
#SAMPLELENGTH:15.000;
#SELECTABLE:YES;
#BPMS:0.000=140.000;
#STOPS:;
#TIMESIGNATURES:0.000=4=4
;
#BGCHANGES:;
#KEYSOUNDS:;

//---------------dance-single - ----------------
#NOTES:
     dance-single:
     :
     Challenge:
     10:
     0.783,0.908,0.244,0.244,0.537,572.000,28.000,28.000,0.000,0.000,0.000,0.783,0.908,0.244,0.244,0.537,572.000,28.000,28.000,0.000,0.000,0.000:
0000
0000
0000
0000
,
0000
0000
0000
0000
,
0000
0000
0000
0000
,
0000
0000
0000
0000
,
0000
0000
0000
0000
,
1001
0001
1000
1000
0010
0010
1000
1000
,
0001
0100
0001
1000
0100
1000
0010
0100
,
0001
0001
1000
1000
0100
0100
1000
1000
,
0001
0010
0001
1000
0010
1000
0100
0010
,
0001
0000
0100
0010
0100
0000
0001
0010
0001
0000
1000
0100
1000
0000
0001
0100
,
0001
0001
1000
0010
0010
1000
0100
0010
,
0100
0000
1000
0010
1000
0000
0001
0010
0001
0000
1000
0100
1000
0000
0001
0100
,
0001
0001
0010
0001
0001
1000
0100
0010
,
0100
0000
1000
0010
1000
0000
0001
0010
0001
0000
1000
0100
1000
0000
0001
0100
,
0001
0001
1000
0010
0010
1000
0100
1000
,
0010
0000
0100
0010
0100
0000
0001
0010
0001
0000
1000
0010
1000
0000
0100
0010
,
0100
0000
0100
0000
1000
0000
0001
0000
0001
0100
0010
0100
0001
0010
0100
1000
,
0010
0000
1000
0100
0010
0000
0001
1000
0100
0000
1000
0001
0010
0000
0001
1000
,
0010
0010
0100
0001
0001
0010
0100
1000
,
0001
0000
0100
0010
1000
0000
0010
0100
0001
0000
1000
0001
0100
0000
0001
1000
,
0100
0100
0010
0001
0001
0100
0010
1000
,
0001
0000
0010
0100
1000
0000
0100
0010
0001
0000
1000
0001
0010
0000
0001
1000
,
0010
0010
0100
0001
0001
1000
0100
0010
,
0001
0000
0100
0010
1000
0000
0010
0100
0001
0000
0100
0001
1000
0000
0100
0010
,
0001
0001
0010
0100
0100
1000
0010
0100
,
0001
0000
1000
0001
0010
0000
0100
0010
0001
0000
1000
0001
0010
0000
0001
0100
,
0010
0000
0010
0000
1000
0000
0100
0000
0100
0010
0001
0010
0100
1000
0010
0100
,
0001
0000
0100
0010
1000
0000
0010
0100
0001
0000
1000
0001
0100
0000
0010
1000
,
0001
0001
1000
0100
0100
0010
0001
1000
,
0010
0000
0100
0001
1000
0000
0010
1000
0001
0000
0100
0010
1000
0000
0001
1000
,
0100
0100
0010
0001
0001
1000
0010
0100
,
0020
0000
0000
2030
3002
0000
0000
0023
,
0230
0000
0000
0000
0000
0000
2300
0000
3200
0000
0000
0000
0000
0000
1300
0100
,
0010
0001
1000
0100
0010
0100
1000
0001
,
0100
0100
0010
1000
1000
0100
1000
0001
,
0010
0001
1000
0100
1000
0010
0100
0001
,
1000
1000
0010
1000
1000
0001
0010
0100
,
1000
0001
0010
0001
1000
0001
0010
0001
0100
0010
1000
0010
0100
0010
1000
0010
,
0100
0001
1000
0001
0100
0001
1000
0001
0100
0010
1000
0010
0100
0010
1000
0001
,
1000
0100
0010
0100
1000
0100
0010
0100
1000
0001
0010
0001
1000
0001
0010
0001
,
1000
0100
0010
0100
1000
0010
0100
0001
0010
0100
0010
0001
2000
0000
0000
0000
,
3001
0000
0100
0000
0110
0000
0010
0100
0001
0000
1000
0000
1100
0000
0100
0010
,
0001
0010
0100
0010
0001
0000
1000
0010
0100
0010
1000
0010
0100
0000
0001
1000
,
0100
0000
0010
0000
0011
0000
0001
1000
0010
0000
0100
0000
0101
0000
0001
1000
,
0010
0000
1000
0000
1100
0000
0100
0010
0001
0000
1000
0000
1001
0000
0001
0100
,
0010
0000
1000
0000
1100
0000
0100
1000
0001
0000
0010
0000
0011
0000
0001
1000
,
0010
0000
0100
0000
0110
0000
0010
1000
0001
0000
0100
0000
0101
0000
0001
1000
,
0100
0000
0010
0000
0110
0000
0100
0010
0001
0000
1000
0000
1010
0000
0010
1000
,
0001
0000
0100
0000
0101
0000
0001
1000
0010
0000
1000
0000
0100
0010
0001
0000
,
1000
0000
0010
0000
0110
0000
0100
0010
1000
0000
0001
0000
0011
0000
0010
0100
,
1000
0100
0010
0100
1000
0000
0001
0100
0010
0100
0001
0100
0010
0000
1000
0001
,
0010
0000
0100
0000
1100
0000
1000
0001
0100
0000
0010
0000
1010
0000
1000
0001
,
0100
0000
0001
0000
0011
0000
0010
0100
1000
0000
0001
0000
1001
0000
1000
0010
,
0100
0000
0001
0000
0011
0000
0010
0001
1000
0000
0100
0000
1100
0000
1000
0001
,
0100
0000
0010
0000
0110
0000
0100
0001
1000
0000
0010
0000
1010
0000
1000
0001
,
0010
0000
0100
0000
0110
0000
0010
0100
1000
0000
0001
0000
0101
0000
0100
0001
,
1000
0000
0010
0000
1010
0000
1000
0001
0100
0000
0001
0000
0011
0000
0010
0001
,
2000
0000
3020
0000
0100
0230
0001
0302
,
0000
0010
0010
0023
0000
0100
0100
0100
,
0230
0000
2300
0000
0001
3002
0010
0023
,
0000
0001
0001
0032
0000
1000
1000
1000
,
2003
0000
3020
0000
0100
0230
0001
0302
,
0000
1000
1000
2003
0000
0100
0100
3200
,
2300
0000
3002
0000
0010
0023
0100
0200
,
0000
0000
0000
0000
,
0330
0000
0000
0000
;
