#TITLE:Spirits of Rebel Army;
#SUBTITLE:;
#ARTIST:DJ Sharpnel;
#TITLETRANSLIT:;
#SUBTITLETRANSLIT:;
#ARTISTTRANSLIT:;
#GENRE:Makina;
#CREDIT:;
#BANNER:../singles-march-bn.png;
#BACKGROUND:../singles-march-bx.png;
#LYRICSPATH:;
#CDTITLE:;
#MUSIC:spirits.ogg;
#OFFSET:0.000000;
#SAMPLESTART:22.563999;
#SAMPLELENGTH:11.294000;
#SELECTABLE:YES;
#BPMS:0.000000=170.000000
;
#STOPS:
;
#BGCHANGES:;
#KEYSOUNDS:;
#ATTACKS:;

//---------------dance-single - ----------------
#NOTES:
     dance-single:
     Mu-box:
     Hard:
     8:
     0.554874,0.772718,0.506624,0.956956,0.361204,414.000000,360.000000,54.000000,102.000000,0.000000,0.000000,0.554874,0.772718,0.506624,0.956956,0.361204,414.000000,360.000000,54.000000,102.000000,0.000000,0.000000:
// measure 0
0000
0000
0000
0000
,  // measure 1
0000
0000
0000
0000
,  // measure 2
0000
0000
0000
0000
,  // measure 3
0000
0000
0000
0000
,  // measure 4
0000
0000
0000
0000
,  // measure 5
0000
0000
0000
0000
,  // measure 6
0000
0000
0000
0000
,  // measure 7
0000
0000
0000
0000
,  // measure 8
1002
0100
0010
0103
,  // measure 9
2001
0010
0100
3010
,  // measure 10
1002
0100
0010
0103
,  // measure 11
1001
1010
0110
0101
,  // measure 12
2001
0100
0010
3001
,  // measure 13
1002
0100
0010
1003
,  // measure 14
2001
0100
0010
3001
,  // measure 15
1000
0000
0001
0000
0100
0000
0010
0000
0100
0000
0000
0000
0001
1000
0001
0000
,  // measure 16
1000
1100
1001
0001
,  // measure 17
0100
0101
1001
1000
,  // measure 18
0100
1100
1001
0001
,  // measure 19
0100
0101
1001
1000
,  // measure 20
1000
0100
0000
0000
0100
1000
0000
0000
1000
0001
0000
0000
0101
0000
0000
0000
,  // measure 21
0001
0100
0000
0000
0100
0001
0000
0000
0001
1000
0000
0000
1100
0000
0000
0000
,  // measure 22
1000
0100
0000
0000
0100
1000
0000
0000
1000
0001
0000
0000
0101
0000
0000
0000
,  // measure 23
0001
0000
0000
0000
1001
0000
0000
0000
1000
0001
0000
0000
0001
0000
1000
0000
,  // measure 24
0100
1000
0000
0000
1000
0010
0000
0000
0010
0100
0000
0000
0101
0000
0000
0000
,  // measure 25
0100
0001
0000
0000
0001
0010
0000
0000
0010
0100
0000
0000
1100
0000
0000
0000
,  // measure 26
1000
0010
0000
0000
0010
0100
0000
0000
0100
0001
0000
0000
0101
0000
0000
0000
,  // measure 27
0001
0010
0000
0000
0010
0100
0000
0000
0100
1000
0000
0000
1100
0000
0000
0000
,  // measure 28
1000
0010
0000
0000
0010
0100
0000
0000
0100
0001
0000
0000
0101
0000
0000
0000
,  // measure 29
0001
0010
0000
0000
0010
0100
0000
0000
0100
1000
0000
0000
1100
0000
0000
0000
,  // measure 30
1000
0010
0000
0000
0010
0100
0000
0000
0100
0001
0000
0000
0101
0000
0000
0000
,  // measure 31
0001
0010
0000
0000
0010
0100
0000
0000
1000
0001
0000
0100
0010
0000
0100
0000
,  // measure 32
1001
0000
0000
0000
,  // measure 33
0000
0000
0000
0000
,  // measure 34
0000
0000
0000
0000
,  // measure 35
1002
0000
0000
0000
0000
0000
0103
0010
2000
0000
0000
0000
3002
0000
0000
0000
,  // measure 36
1003
0100
1000
0100
,  // measure 37
1000
0001
0010
0001
,  // measure 38
1000
0001
1000
0100
,  // measure 39
2001
0000
0000
0000
0000
0000
3010
0100
0002
0000
0000
0000
2003
0000
0000
0000
,  // measure 40
3001
0100
0001
0100
,  // measure 41
0120
0000
0000
0000
0000
0000
1030
0001
0020
0000
0000
0000
0230
0000
0000
0000
,  // measure 42
1300
0100
1000
0100
,  // measure 43
2100
0000
0000
0000
0000
0000
3100
0010
0002
0000
0000
0000
0203
0000
0300
0000
,  // measure 44
0201
0000
0000
0000
0000
0000
0310
1000
0100
0000
0000
0000
1000
0000
0000
0000
,  // measure 45
1200
0000
0000
0000
0000
0000
0310
0001
0100
0000
0000
0000
0010
0000
0000
0000
,  // measure 46
2010
0000
0000
0000
0000
0000
3100
0010
0002
0000
0000
0000
0003
0000
0001
0100
,  // measure 47
0020
0000
0000
0000
0030
0000
0010
1000
0200
0000
0000
0000
0300
0000
0100
1000
,  // measure 48
0010
0000
1000
0010
0100
0000
0100
0001
1000
0000
1000
0100
0010
0000
0010
0001
,  // measure 49
1000
0001
1000
0001
0100
0010
0100
0010
,  // measure 50
1000
0000
0000
1001
0000
0000
0110
0000
0000
2000
3200
0320
,  // measure 51
0032
0000
0000
0000
0000
0000
0203
0320
2030
0000
0000
0000
3200
0000
0000
0000
,  // measure 52
2300
0000
0000
0000
3020
0000
0000
0230
0302
0000
0000
0000
0023
0000
0000
0000
,  // measure 53
0230
0000
0320
0000
0032
0203
0320
2030
,  // measure 54
3200
0000
0000
2300
,  // measure 55
3002
0000
0003
0200
0320
2030
3200
0320
,  // measure 56
0032
0000
2003
3020
0230
0000
0320
0030
,  // measure 57
0210
0000
0000
0000
0000
0000
0300
0000
0000
0002
0000
0000
2003
0000
0000
3000
0000
0000
2000
0000
3200
0000
0320
0000
,  // measure 58
0032
0000
0000
0000
0000
0000
0000
0000
0000
0000
0000
0000
0000
0000
0000
0000
0000
0000
0000
0000
0000
0000
0000
0000
1003
0000
0000
0001
0000
0000
1000
0000
0000
0000
0000
0000
0002
0000
0000
0000
0203
0000
0000
0000
0320
0000
0000
0000
,  // measure 59
2030
0000
0000
0000
0010
0000
3020
0230
0302
0000
0000
0000
0023
0000
0000
0000
,  // measure 60
0032
0000
0003
0000
1002
0000
0003
2000
3020
0000
0000
0000
0230
0000
0000
0000
,  // measure 61
0302
0003
1002
0000
2003
3200
0320
0032
,  // measure 62
0203
0010
0001
0320
,  // measure 63
2030
3000
2010
0000
3020
0230
0302
0023
,  // measure 64
0230
0300
0200
2300
3020
0030
2000
3000
,  // measure 65
2001
0000
0000
0000
0000
0000
3001
0000
0000
0020
0000
0000
0230
0000
0000
0300
0000
0000
2000
0000
3020
0000
0230
0000
,  // measure 66
0302
0000
0000
0000
0000
0000
0003
0000
0001
1000
0001
0000
1000
0000
0001
0000
,  // measure 67
0100
0001
0000
0000
0001
0010
0000
0000
0010
0100
0000
0000
1100
0000
0000
0000
,  // measure 68
0100
1000
0000
0000
1000
0010
0000
0000
0010
0100
0000
0000
0101
0000
0000
0000
,  // measure 69
0001
0010
0000
0000
0010
0100
0000
0000
0100
1000
0000
0000
1100
0000
0000
0000
,  // measure 70
1000
0010
0000
0000
0010
0100
0000
0000
0100
0001
0000
0000
0100
0000
0001
0000
,  // measure 71
1000
1100
1001
0001
,  // measure 72
0100
0101
0110
0010
,  // measure 73
1000
1010
1001
0001
,  // measure 74
0010
0000
0000
0000
0110
0000
0000
0000
1000
0001
0000
0000
0100
0000
0010
0000
;
